#TITLE:Zero Two;
#SUBTITLE:Kirby 64 - SSBB;
#ARTIST:Jun Ishikawa, Hirokazu Ando;
#TITLETRANSLIT:;
#SUBTITLETRANSLIT:;
#ARTISTTRANSLIT:;
#CREDIT:SulferDragon;
#BANNER:Zero-Two-banner.png;
#BACKGROUND:Zero-Two-bg.png;
#LYRICSPATH:;
#CDTITLE:!SulferDragon.png;
#MUSIC:75 Zero Two [Kirby 64].mp3;
#OFFSET:-0.085;
#SAMPLESTART:37.500;
#SAMPLELENGTH:12.000;
#SELECTABLE:YES;
#BPMS:0.000=160.060;
#STOPS:;
#BGCHANGES:;
// cache tags:
#FIRSTBEAT:16.000;
#LASTBEAT:295.000;
#SONGFILENAME:Songs/toune 6/Zero Two (SulferDragon)/75 Zero Two [Kirby 64].sm;
#HASMUSIC:1;
#HASBANNER:1;
#MUSICLENGTH:111.098;
// end cache tags

//---------------dance-single - ----------------
#NOTES:
     dance-single:
     :
     Hard:
     9:
     0.745,0.730,0.711,0.234,0.846,474.000,79.000,26.000,0.000,0.000:
0000
0000
0000
0000
,
0000
0000
0000
0000
,
0000
0000
0000
0000
,
0000
0000
0000
0000
,
0012
1000
0100
1003
,
0210
0001
0010
0301
,
2010
0000
0000
0100
0000
0000
0001
0000
0000
3100
0000
0001
,
0100
0010
0100
0010
0100
0010
0100
0010
0100
0010
0100
0010
,
0200
0000
0000
0000
0000
0000
0000
0300
,
0011
0000
0001
0010
0000
0000
1001
0000
0010
1000
0000
0000
,
1100
0000
1000
0001
0000
0000
0110
0000
0100
0001
0000
0000
,
0101
0000
0010
0100
0000
0000
1001
0000
0100
0010
0000
1000
,
0002
0000
0000
1000
0000
0000
0203
0000
0000
0001
0000
0300
,
0101
0000
0001
1000
0000
0000
0110
0000
0010
1000
0000
0000
,
1100
0000
0100
1000
0000
0000
0011
0000
0100
0001
0000
0000
,
1010
0000
0010
0100
0000
0000
1001
0000
0010
0001
0000
0000
,
0101
0000
0001
1000
0000
0000
0011
0000
1000
0010
0000
0010
,
0110
0000
0100
0010
1000
0010
0100
0000
0001
0010
0100
0010
,
0001
0000
1000
0010
0100
0010
1010
0000
1000
0001
0000
0000
,
0011
0000
0100
0001
0010
0001
0100
0000
0010
1000
0001
1000
,
1100
0000
1000
0001
0000
0000
0110
0000
0001
0100
0000
0000
,
0011
0000
0001
0010
0000
0000
0110
0000
0010
0100
0000
0000
,
1100
0000
0100
1000
0000
0000
1001
0000
0100
0001
0000
0000
,
1010
0000
0010
0100
0000
0000
0101
0000
0010
1000
0000
0000
,
1001
0000
0010
0100
0000
0000
0100
0001
0000
1000
0001
1000
,
2001
0010
3200
0001
,
0320
1000
2030
0010
,
3020
0100
0032
0100
,
0023
1000
0230
0001
,
2300
0010
3020
0100
,
0032
0010
0023
0100
,
2030
0001
3200
1000
,
0301
0100
0001
0100
0000
0000
0010
1000
0000
0001
0000
1000
,
1100
0000
0010
1000
0100
0010
0100
0000
1000
0100
0001
0100
,
1000
0000
0100
0010
0001
1000
0001
0000
0001
1000
0010
1000
,
1100
0000
0001
1000
0100
0010
0100
0000
1000
0001
0010
0001
,
1000
0000
0010
0100
0001
0010
0001
0000
0001
0100
0010
0100
,
0101
0000
0010
1000
0100
0001
0100
0000
0010
0001
1000
0001
,
0100
0000
0010
1000
0100
0010
0100
0000
0100
1000
0010
1000
,
1010
0000
0001
1000
0010
1000
0001
0000
0100
1000
0100
0001
,
0010
1000
0010
0001
0000
0001
0100
0001
1000
0010
1000
0010
,
1010
0000
1000
0100
0000
0100
1000
0000
1000
0001
0000
0001
,
0100
0000
0100
0010
0000
0010
1000
0000
1000
0100
0000
0100
,
0110
0000
0010
0001
0000
0001
0100
0000
0100
1000
0000
1000
,
0100
0000
0100
0001
0000
0001
0010
0000
0010
0100
0000
0100
,
1100
0000
1000
0100
0000
0100
1000
0000
1000
0010
0000
0010
,
0001
0000
0001
0010
0000
0010
1000
0000
1000
0001
0000
0001
,
0101
0000
0100
0010
0000
0010
0100
0000
0100
0010
0000
0010
,
1000
0100
1000
0100
0000
0100
0010
0001
0010
0001
0010
0001
,
1001
1010
0011
0101
,
1010
0000
0000
0011
0000
0000
0110
0000
0000
1010
0000
0010
,
1100
0101
1001
1100
,
0110
0000
0000
0101
0000
0000
1100
0000
0000
1001
0000
1000
,
0101
1100
1010
0110
,
0011
0000
0000
1001
0000
0000
1100
0000
0000
1001
0000
0001
,
1100
1001
1100
1001
,
0001
0100
0001
1000
0000
1000
0010
0100
0010
0100
0010
0100
,
0101
0001
0010
1000
0010
0100
1000
0010
,
0001
0010
0100
0001
1000
0100
0010
0100
,
1100
0010
0100
0001
0010
1000
0010
0001
,
0100
0000
0010
1000
0000
0100
0001
0000
0100
1000
0000
0010
,
0110
0000
0100
0001
0000
0001
0010
0000
0010
0100
0000
1000
,
0100
0000
0100
0010
0000
0010
0001
0000
0100
0001
0000
0010
,
0011
0000
0100
0010
0000
1000
0010
0000
0100
0001
0000
1000
,
0001
0100
0001
0100
0001
0100
0001
1000
0000
0001
0000
1000
,
1200
0010
1000
0310
,
0102
0010
1000
0013
,
0120
1000
0100
1030
,
0001
0100
0000
1001
1000
0010
1000
0000
0000
1001
0001
1000
,
2010
0001
0100
3001
,
1002
0010
0100
0013
,
0001
0000
0000
1010
0000
0000
0001
0000
0000
1010
0010
0100
,
0001
1000
0001
1000
0001
1000
0001
1000
0001
1000
0001
1000
,
0020
0000
0000
0030
;

//---------------dance-single - ----------------
#NOTES:
     dance-single:
     :
     Challenge:
     8:
     0.664,0.631,0.693,0.360,0.513,399.000,77.000,40.000,0.000,0.000:
0000
0000
0000
0000
,
0000
0000
0000
0000
,
0000
0000
0000
0000
,
0000
0000
0000
0000
,
0012
0010
0010
0013
,
0210
0010
0010
0310
,
2010
0000
0000
0010
0000
0000
0010
0000
0000
3010
0000
1000
,
0010
0110
0010
0110
,
0200
0000
0000
0000
0000
0000
0000
0300
,
0012
0013
1200
1300
,
1020
1030
0102
0103
,
2010
0000
0000
0010
0000
0000
0100
0000
0000
3010
0000
0100
,
0002
0000
0000
1000
0000
0000
0203
0000
0000
0001
0000
0300
,
2010
3010
1002
1003
,
2100
3100
0012
0013
,
0120
0130
0201
0301
,
1020
0000
0000
1030
0000
0000
2001
0000
0000
0001
0000
3001
,
0100
0000
0010
1000
0000
0000
0001
0000
0010
0001
0000
0000
,
0100
0000
0010
1000
0000
0000
1001
0000
0100
0001
0000
0000
,
0011
0000
0100
0010
0000
0000
1000
0000
0001
0100
0000
0000
,
1010
0000
0001
1000
0000
0000
0110
0000
1000
0100
0000
0000
,
1001
0000
0001
1000
0000
0000
1100
0000
1000
0010
0000
0000
,
0110
0000
0100
0001
0000
0000
0011
0000
0001
1000
0000
0000
,
1010
0000
0010
0100
0000
0000
0101
0000
0001
0010
0000
0000
,
1001
0000
1000
0001
0000
0000
0100
0001
0000
1000
0001
1000
,
0002
0100
2003
0001
,
3200
0010
2300
0001
,
3020
1000
0230
0001
,
0320
1000
0230
0010
,
0302
0100
2003
0010
,
3200
1000
0320
0100
,
0032
0010
0203
0010
,
0302
0000
0000
1000
0000
0000
0103
0001
0000
1000
0000
0001
,
1000
0000
0010
1000
0100
1000
0001
0000
0100
0010
0000
0100
,
0001
0000
1000
0010
0100
0010
1000
0000
0001
0100
0000
0001
,
1000
0000
0010
1000
0001
1000
0010
0000
0100
0001
0000
1000
,
0001
0000
0010
0001
1000
0001
0100
0000
0010
1000
0000
0100
,
1000
0000
0010
0100
0001
0100
0001
0000
1000
0100
0000
1000
,
0001
0000
0100
0001
0010
0001
1000
0000
0010
0100
0000
0010
,
1000
0000
0001
0100
0010
0100
0010
0000
1000
0001
0000
0010
,
0001
0100
0001
1000
0000
0001
0000
1000
0000
0001
0010
0001
,
0010
0000
0001
1000
0000
0010
1000
0000
0001
0100
0000
0010
,
0100
0000
0001
1000
0000
0100
1000
0000
0010
0100
0000
0000
,
1010
0000
0001
1000
0000
0010
1000
0000
0100
0010
0000
0001
,
0010
0000
0001
0100
0000
0010
0100
0000
0010
1000
0000
0000
,
1001
0000
0001
0100
0000
0010
0100
0000
1000
0100
0000
0010
,
0100
0000
1000
0001
0000
0100
0001
0000
0010
0100
0000
0000
,
1100
0000
0010
0001
0000
1000
0001
0000
0100
0010
0000
1000
,
0010
0000
0100
0001
0000
0000
1000
0010
1000
0010
1000
0010
,
1000
0011
1100
0101
,
1100
1001
1010
0011
,
1010
0110
1100
0101
,
0011
1001
0101
1100
,
0101
1100
1010
0110
,
0011
1001
1100
1001
,
1100
1001
1100
1001
,
1100
0000
0000
1001
0000
0000
0010
0100
0010
0100
0010
0100
,
0001
1000
0100
1000
0010
0100
0001
0010
,
0100
0010
0001
0100
0010
1000
0100
1000
,
1001
0001
0100
0010
1000
0001
1000
0100
,
0010
0000
0100
0010
0000
0010
0001
0000
0100
0001
0000
0000
,
1100
0000
1000
0010
0000
1000
0001
0000
0010
0001
0000
0001
,
1000
0000
0010
1000
0000
0100
1000
0000
0010
0100
0000
0000
,
0011
0000
1000
0001
0000
0010
0001
0000
0100
0010
0000
0010
,
1000
1001
1000
1001
,
1200
1000
1000
1300
,
1002
1000
1000
1003
,
1020
1000
1000
1030
,
0001
0100
0000
1001
0000
0000
0001
0000
0000
1001
0000
0000
,
2010
0010
0010
3010
,
0012
0010
0010
0013
,
0010
0000
0000
0101
0000
0000
1000
0000
0000
0101
0000
0001
,
1000
0101
1000
0101
,
0200
0000
0000
0300
;

//---------------dance-single - ----------------
#NOTES:
     dance-single:
     :
     Medium:
     5:
     0.508,0.597,0.747,0.450,0.000,262.000,83.000,50.000,0.000,0.000:
0000
0000
0000
0000
,
0000
0000
0000
0000
,
0000
0000
0000
0000
,
0000
0000
0000
0000
,
1001
0100
0010
0100
,
1001
0010
0100
0010
,
1001
0100
0010
0100
,
1001
1001
1001
1001
,
0020
0000
0000
0000
0000
0000
0000
0030
,
2000
3100
2000
3010
,
2000
3001
2000
3100
,
0002
1000
0000
1003
,
0020
0000
0000
1000
0000
0000
2030
0000
0000
0001
0000
3000
,
0200
0310
0200
0301
,
0020
1030
0020
0130
,
0002
0013
0002
1003
,
0002
0000
0000
0103
0000
0000
2000
0000
0000
0010
0000
3000
,
0101
1000
0010
1000
,
0001
0010
1001
0100
,
1010
0001
1000
0010
,
0101
0100
0011
1000
,
0110
0010
1001
0010
,
1100
0001
1010
0100
,
0011
1000
0110
0010
,
1001
1000
0101
1010
,
1010
0110
0000
1001
,
0000
0101
0000
1010
,
0001
1100
0000
0101
,
0000
0011
0000
1001
,
0010
1100
0000
0101
,
0000
1010
0000
0110
,
1000
0011
0000
1001
,
1100
1100
1001
0110
,
0101
1000
0010
0100
,
0010
1000
0100
1000
,
1010
0100
0001
0100
,
0001
1000
0100
0001
,
1001
0100
0010
1000
,
0010
0001
0100
0010
,
0101
1000
0001
0100
,
1010
1010
0101
1010
,
1002
0023
0032
0203
,
0320
0230
0302
0023
,
0032
2003
3002
0203
,
0320
2030
3020
0230
,
0302
0023
0032
2003
,
3200
0320
0230
2300
,
3002
0023
0032
0203
,
0320
2030
3020
0230
,
0301
1001
0100
1010
,
0010
0101
0100
1001
,
0010
1100
0001
0101
,
1000
0011
0100
1001
,
0001
0110
1000
0101
,
0010
1100
0001
1100
,
0010
1100
0001
1100
,
0010
1001
0011
0011
,
1100
1000
0010
0010
,
1000
1000
0001
0001
,
0110
0100
0010
0010
,
1000
0100
0001
0010
,
1001
0100
1000
0100
,
0001
0010
1000
0100
,
1001
0010
0001
0100
,
2010
0000
3001
0100
,
0011
1000
0100
1000
,
0101
0010
0100
0010
,
1001
0100
1000
0100
,
0001
1010
0001
1010
,
0101
1000
0001
1000
,
0110
0001
0010
0001
,
1100
0010
0100
0010
,
1001
1001
1001
1001
,
0020
0000
0000
0030
;

//---------------dance-single - ----------------
#NOTES:
     dance-single:
     :
     Easy:
     3:
     0.333,0.332,0.207,0.324,0.000,200.000,23.000,36.000,0.000,0.000:
0000
0000
0000
0000
,
0000
0000
0000
0000
,
0000
0000
0000
0000
,
0000
0000
0000
0000
,
2002
0000
0000
3003
,
0220
0000
0000
0330
,
2002
0000
0000
3003
,
0010
0100
0010
0100
,
0002
0000
0000
0000
0000
0000
0000
0003
,
1000
0000
0010
0000
,
0100
0000
0001
0000
,
1000
0100
0000
1000
,
0010
0100
0001
0010
,
0001
0000
1000
0000
,
0010
0000
1000
0000
,
0001
0000
0100
0000
,
0010
0000
1000
0001
,
1001
0100
0000
0010
,
0000
1000
0001
0010
,
0001
1000
0000
0010
,
0100
0001
1000
0100
,
1001
0000
0101
0000
,
1100
0000
1010
0000
,
0110
0000
0101
0000
,
1001
0000
0011
0001
,
0002
0000
0203
0000
,
0320
0000
2030
0000
,
3200
0000
2300
0000
,
3020
0000
0230
0000
,
0302
0000
2003
0000
,
3020
0000
0230
0000
,
0302
0000
0203
0000
,
0320
0000
2030
0000
,
3001
0100
0001
1000
,
0000
0010
0100
0001
,
1000
0100
1000
0010
,
0000
0100
0001
1000
,
0100
0010
0001
0100
,
0000
0010
1000
0001
,
1000
0100
0010
0001
,
0100
0010
0100
0010
,
1001
0001
0010
0010
,
0001
0001
0100
0100
,
0010
0010
1000
1000
,
0001
0001
0100
0100
,
0010
0010
1000
1000
,
0100
0100
1000
1000
,
0001
0001
0010
0010
,
0100
0100
1000
1000
,
1001
0010
0100
0001
,
1000
0100
1000
0010
,
0100
0001
0010
0100
,
0010
0001
0100
0010
,
1000
0010
0100
0001
,
1000
0100
1000
0100
,
1000
0100
1000
0100
,
1000
0100
0010
0001
,
1001
0100
0000
0010
,
0000
1000
0000
0100
,
0010
0001
0000
0100
,
0010
1000
0100
1000
,
0001
0010
0100
0010
,
0001
0100
0010
1000
,
0001
0100
0010
1000
,
0001
0010
0001
0010
,
2002
0000
0000
3003
,
0202
0000
0000
0303
,
2200
0000
0000
3300
,
0000
1001
0000
1001
,
0220
0000
0000
0330
,
2020
0000
0000
3030
,
0022
0000
0000
0033
,
1000
0001
1000
0001
,
0020
0000
0000
0030
;

//---------------dance-single - ----------------
#NOTES:
     dance-single:
     :
     Beginner:
     2:
     0.172,0.229,0.090,0.117,0.000,111.000,10.000,13.000,0.000,0.000:
0000
0000
0000
0000
,
0000
0000
0000
0000
,
0000
0000
0000
0000
,
0000
0000
0000
0000
,
1001
0000
0000
0000
,
1001
0000
0000
0000
,
1001
0000
0000
0000
,
0000
0010
0000
0010
,
0000
0000
0000
0000
,
1000
0000
1000
0000
,
1000
0000
1000
0000
,
0001
0000
0000
0000
,
0010
0000
0100
0000
,
1000
0000
1000
0000
,
0010
0000
0010
0000
,
0100
0000
0100
0000
,
0001
0000
0001
0000
,
1000
0000
0000
0000
,
0000
0000
0010
0000
,
0010
0000
0000
0000
,
0100
0000
0100
0000
,
0001
0000
0010
0000
,
0001
0000
0010
0000
,
0100
0000
1000
0000
,
0100
0000
1000
0000
,
0010
0000
0010
0000
,
0100
0000
0100
0000
,
0001
0000
1000
0000
,
0001
0000
1000
0000
,
0010
0000
0010
0000
,
1000
0000
1000
0000
,
0001
0000
0100
0000
,
0001
0000
0100
0000
,
0010
0000
1000
0000
,
0100
0000
0010
0000
,
0001
0000
0100
0000
,
0010
0000
0100
0000
,
0010
0000
1000
0000
,
0001
0000
0100
0000
,
0010
0000
1000
0000
,
0001
0000
0000
0000
,
0200
0000
0300
0000
,
0020
0000
0030
0000
,
2000
0000
3000
0000
,
0200
0000
0300
0000
,
0002
0000
0003
0000
,
0020
0000
0030
0000
,
2000
0000
3000
0000
,
0200
0000
0300
0000
,
1001
0000
0010
0000
,
0100
0000
0001
0000
,
0010
0000
1000
0000
,
0100
0000
0010
0000
,
1000
0000
0100
0000
,
0001
0000
1000
0000
,
0001
0000
1000
0000
,
0001
0000
0100
0000
,
0020
0000
0000
0000
,
2030
0000
0000
0000
,
3002
0000
0000
0000
,
0203
0000
0302
0000
,
1003
0000
0100
0000
,
1000
0000
0010
0000
,
0100
0000
0001
0000
,
0010
0000
0100
0000
,
1001
0000
0000
0000
,
1001
0000
0000
0000
,
1001
0000
0000
0000
,
0110
0000
0000
0000
,
1001
0000
0000
0000
,
1001
0000
0000
0000
,
0000
0010
0000
0010
,
0000
0010
0000
0010
;

//---------------dance-solo - ----------------
#NOTES:
     dance-solo:
     :
     Hard:
     8:
     0.684,0.664,0.603,0.252,0.689,437.000,67.000,28.000,0.000,0.000:
000000
000000
000000
000000
,
000000
000000
000000
000000
,
000000
000000
000000
000000
,
000000
000000
000000
000000
,
201000
000001
001000
300001
,
000102
100000
000100
100003
,
001200
000000
000000
100000
000000
000000
001000
000000
000000
100300
000000
000100
,
100000
000001
100000
000001
100000
000001
100000
000001
100000
000001
100000
000001
,
002000
000000
000000
000000
000000
000000
000000
003000
,
010001
000000
000001
010000
000000
000000
001100
000000
000100
001000
000000
000000
,
010010
000000
010000
000010
000000
000000
000101
000000
000001
000100
000000
000000
,
200001
000000
000000
000001
000000
000000
000100
000000
000000
300001
000000
010000
,
000020
000000
000000
000100
000000
000000
200030
000000
000000
000001
000000
300000
,
001100
000000
001000
000100
000000
000000
101000
000000
001000
100000
000000
000000
,
001001
000000
001000
000001
000000
000000
010100
000000
000100
010000
000000
000000
,
100001
000000
100000
000001
000000
000000
010010
000000
010000
000010
000000
000000
,
100100
000000
000100
100000
000000
000000
000101
000000
000100
000001
000000
001000
,
000001
000000
000100
100000
000000
000000
001000
000000
100000
001000
000000
000000
,
000100
000000
000001
000100
000000
000000
100001
000000
010000
000010
000000
000000
,
010100
000000
000001
000100
000000
000000
001000
000000
100000
000100
000000
000000
,
001100
000000
000001
001000
000000
000000
010100
000000
100000
001000
000000
000000
,
010010
000000
000010
010000
000000
000000
000110
000000
000010
000100
000000
000000
,
101000
000000
001000
100000
000000
000000
001001
000000
001000
000001
000000
000000
,
010100
000000
000100
010000
000000
000000
001100
000000
000100
001000
000000
000000
,
100001
000000
100000
000001
000000
000000
000100
000001
000000
100000
000001
100000
,
000002
000100
002003
000001
,
003200
010000
002300
000001
,
003020
001000
200030
000100
,
300002
010000
002003
000100
,
003020
100000
020030
000001
,
030200
010000
200300
000001
,
300020
000100
002030
000100
,
003002
000000
000000
100000
000000
000000
001003
000001
000000
001000
000000
000001
,
100000
000000
000100
001000
000001
001000
000100
000000
100000
001000
000000
100000
,
000010
000000
001000
000001
010000
000001
001000
000000
000100
100000
000000
000100
,
001000
000000
000001
100000
001000
100000
000100
000000
010000
000010
000000
010000
,
000001
000000
001000
000010
010000
000010
001000
000000
000001
000100
000000
000001
,
100000
000000
000100
001000
000001
001000
000001
000000
000100
001000
000000
000100
,
100000
000000
000100
000001
001000
000001
000100
000000
000001
100000
000000
001000
,
100000
000000
000100
010000
000010
010000
000010
000000
001000
000001
000000
100000
,
001000
100000
001000
010000
000000
000010
000000
010000
000000
001000
000100
001000
,
000100
000000
000001
000100
000000
000100
001000
000000
001000
100000
000000
100000
,
000100
000000
000100
000001
000000
000001
000100
000000
000100
100000
000000
000001
,
100000
000000
010000
100000
000000
100000
000010
000000
000010
010000
000000
010000
,
001000
000000
001000
000100
000000
000100
000001
000000
000001
100000
000000
001000
,
100000
000000
000100
001000
000000
001000
000001
000000
000001
000100
000000
000100
,
100000
000000
100000
000100
000000
000100
000001
000000
000001
010000
000000
000010
,
010000
000000
001000
100000
000000
100000
000001
000000
000001
001000
000000
001000
,
000100
000000
000100
100000
000000
000000
000100
001000
000100
001000
000100
001000
,
100001
101000
010100
001001
,
101000
100100
010010
000101
,
100001
100010
010100
001001
,
100010
001100
000110
000101
,
100001
010100
001100
000101
,
010100
010001
010100
010001
,
010100
010001
010100
010001
,
010100
000000
000000
100100
000000
000000
001000
000001
001000
000001
001000
000001
,
100000
001000
000100
001000
100000
000100
001000
000100
,
000001
000100
100000
000010
010000
000100
001000
000100
,
100100
100000
000001
000100
000001
001000
000100
010000
,
000010
000000
001000
000001
000000
001000
000100
000000
100000
000100
000000
000100
,
001000
000000
001000
000001
000000
000100
000001
000000
100000
000001
000000
010000
,
000010
000000
000010
000100
000000
000100
000001
000000
000001
001000
000000
000100
,
001000
000000
000100
100000
000000
000001
100000
000000
000010
010000
000000
000001
,
000100
000001
000100
000001
000100
000001
000000
100000
000000
000001
000000
100000
,
000102
001000
000100
001003
,
100200
001000
100000
001300
,
002100
000001
000010
003001
,
000100
100000
000000
010010
000000
000000
000100
000000
000000
010010
000000
000000
,
201000
000001
001000
300001
,
010020
100000
001000
100030
,
000100
000000
000000
100001
000000
000000
000100
000000
000000
100001
000000
100000
,
000010
010000
000010
010000
000010
010000
000010
010000
000010
010000
000010
010000
,
000200
000000
000000
000300
;

//---------------dance-solo - ----------------
#NOTES:
     dance-solo:
     :
     Medium:
     5:
     0.508,0.597,0.747,0.450,0.000,262.000,83.000,50.000,0.000,0.000:
000000
000000
000000
000000
,
000000
000000
000000
000000
,
000000
000000
000000
000000
,
000000
000000
000000
000000
,
101000
000100
100000
000100
,
001001
000100
001000
000100
,
100001
000100
000001
000100
,
010010
010010
010010
010010
,
000200
000000
000000
000000
000000
000000
000000
000300
,
200000
301000
200000
300100
,
200000
300010
200000
300001
,
002000
000100
000000
003100
,
000020
000000
000000
100000
000000
000000
020030
000000
000000
000100
000000
030000
,
000002
001003
000002
100003
,
000200
001300
000200
100300
,
000020
010030
000020
000130
,
002000
000000
000000
003001
000000
000000
200000
000000
000000
000100
000000
300000
,
001100
100000
000001
000100
,
000010
010000
100100
001000
,
000101
001000
000001
100000
,
001001
000100
010010
001000
,
100001
000100
101000
000001
,
010100
000100
100010
000001
,
000110
100000
001001
000100
,
100001
100000
010001
010010
,
010010
001100
000000
000101
,
000000
100100
000000
001001
,
000100
010100
000000
110000
,
000000
100001
000000
101000
,
000010
000110
000000
100100
,
000000
000011
000000
001100
,
010000
010001
000000
010010
,
100001
100001
101000
000101
,
010010
100000
001000
000001
,
001000
100000
000001
100000
,
001001
000100
100000
000010
,
010000
000010
001000
000001
,
100100
001000
000001
010000
,
000100
100000
001000
100000
,
001100
001000
000001
001000
,
100001
100001
100010
010001
,
200010
300020
200030
300002
,
020003
030200
002300
003002
,
002003
003200
020300
030020
,
020030
030002
000203
002300
,
203000
300020
000230
000302
,
002003
003200
002300
003002
,
020003
030200
002300
003020
,
200030
300020
002030
003002
,
100003
100100
001000
000110
,
100000
001001
001000
000101
,
000001
100010
001000
010010
,
000010
101000
000100
010001
,
000100
100100
100000
010100
,
000100
100001
001000
100001
,
001000
100001
001000
100001
,
001000
000101
000110
000110
,
010100
010000
000100
000100
,
100000
100000
001000
001000
,
000101
000001
000100
000100
,
000010
001000
000100
010000
,
010010
000010
001000
000100
,
100000
000001
001000
000100
,
101000
000001
100000
000001
,
002100
000000
003100
000001
,
100010
000100
001000
000100
,
100001
001000
000001
001000
,
010100
100000
000010
100000
,
000001
010010
000001
010010
,
000101
100000
000001
100000
,
001001
000100
000001
000100
,
010010
100000
000010
100000
,
001100
001100
001100
001100
,
000002
000000
000000
000003
;

//---------------dance-solo - ----------------
#NOTES:
     dance-solo:
     :
     Easy:
     3:
     0.333,0.332,0.207,0.324,0.000,200.000,23.000,36.000,0.000,0.000:
000000
000000
000000
000000
,
000000
000000
000000
000000
,
000000
000000
000000
000000
,
000000
000000
000000
000000
,
200002
000000
000000
300003
,
002200
000000
000000
003300
,
200002
000000
000000
300003
,
000100
100000
000100
100000
,
000002
000000
000000
000000
000000
000000
000000
000003
,
001000
000000
000010
000000
,
000100
000000
001000
000000
,
100000
000001
000000
010000
,
000010
010000
000100
001000
,
000001
000000
100000
000000
,
000010
000000
001000
000000
,
000100
000000
100000
000000
,
000010
000000
001000
000001
,
100001
100000
000000
001000
,
000000
010000
000010
000100
,
000001
100000
000000
000100
,
100000
000001
001000
000100
,
100001
000000
010010
000000
,
101000
000000
001001
000000
,
001100
000000
000101
000000
,
010100
000000
100001
000001
,
000002
000000
000203
000000
,
002300
000000
203000
000000
,
300200
000000
002300
000000
,
003002
000000
020003
000000
,
030020
000000
002030
000000
,
003200
000000
020300
000000
,
030020
000000
200030
000000
,
300002
000000
000203
000000
,
000301
100000
000100
001000
,
000000
000001
010000
000010
,
100000
000001
100000
001000
,
000000
001000
000100
000001
,
100000
000100
010000
000010
,
000000
000100
000001
100000
,
001000
000010
000100
001000
,
100000
000001
100000
000001
,
001100
001000
000001
000001
,
100000
100000
000010
000010
,
010000
010000
000100
000100
,
001000
001000
000001
000001
,
000100
000100
000010
000010
,
100000
100000
001000
001000
,
010000
010000
000100
000100
,
001000
001000
000001
000001
,
100001
000010
010000
000100
,
100000
001000
100000
000001
,
001000
000100
010000
000100
,
001000
000010
100000
000001
,
000100
001000
100000
000100
,
001000
000001
001000
000001
,
001000
000001
001000
000001
,
001000
000001
010000
000100
,
010010
100000
000000
000001
,
000000
100000
000000
000001
,
010000
000010
000000
100000
,
000010
001000
000100
100000
,
000100
001000
000001
001000
,
000100
100000
001000
000100
,
000001
010000
000010
010000
,
000100
100000
000001
001000
,
200200
000000
000000
300300
,
002002
000000
000000
003003
,
202000
000000
000000
303000
,
000000
010010
000000
010010
,
002200
000000
000000
003300
,
200002
000000
000000
300003
,
020020
000000
000000
030030
,
001000
000100
001000
000100
,
200000
000000
000000
300000
;
