#TITLE:A Violent Encounter;
#SUBTITLE:Shadow of the Colossus;
#ARTIST:Koh Ohtani;
#TITLETRANSLIT:;
#SUBTITLETRANSLIT:;
#ARTISTTRANSLIT:;
#CREDIT:;
#BANNER:A Violent Encounter.png;
#BACKGROUND:A Violent Encounter-bg.png;
#LYRICSPATH:;
#CDTITLE:CDTitle-ADd.png;
#MUSIC:A Violent Encounter.mp3;
#OFFSET:0.000;
#SAMPLESTART:42.857;
#SAMPLELENGTH:12.000;
#SELECTABLE:YES;
#BPMS:0.000=139.960;
#STOPS:;
#BGCHANGES:;
// cache tags:
#FIRSTBEAT:1.000;
#LASTBEAT:256.333;
#SONGFILENAME:Songs/VGMP 2/A Violent Encounter (Agent Distracted)/A Violent Encounter.sm;
#HASMUSIC:1;
#HASBANNER:1;
#MUSICLENGTH:117.577;
// end cache tags

//---------------dance-single - Agent DiStRaCtEd----------------
#NOTES:
     dance-single:
     Agent DiStRaCtEd:
     Hard:
     11:
     1.000,1.000,1.000,0.536,1.000,718.000,217.000,63.000,0.000,0.000:
0000
0000
0000
1001
1000
0100
0100
0010
0010
0001
0001
0010
,
0010
1100
0100
1001
1000
0010
0010
0100
0100
0001
0001
0100
,
0100
0010
0010
1100
1000
0100
0100
0001
0001
1100
0100
1000
,
1000
0010
0010
0101
0100
1000
1010
0101
0100
1010
0010
1000
,
1000
0100
0100
0011
0010
0001
0001
1000
1000
0100
0100
1000
,
1000
0001
0001
0110
0010
0100
0100
1000
1000
0101
0001
1000
,
1100
0110
0100
0011
0010
0100
0100
0001
0001
0100
0100
1000
,
1000
0010
0010
1100
0100
0011
0001
0010
0010
1100
0100
1010
,
1000
0100
0100
2001
0010
3001
0012
0100
1003
0210
0001
0310
,
1200
0010
1300
0102
0010
1003
2010
0100
3001
2100
3100
0011
,
0101
2020
3030
0120
1000
0130
0201
0010
0301
2001
0100
3001
,
2010
0001
3010
1200
0010
1300
0021
0100
0031
1020
1030
0101
,
1100
0022
0033
1100
0100
0100
0011
1010
1000
1002
1000
1000
,
0100
0100
0103
0101
0001
0001
1010
0011
0001
2001
0001
0001
,
0010
0010
3010
1001
0100
0100
1100
0101
0010
0120
0100
0100
,
1000
1000
1030
2020
3030
1000
0100
0010
0001
2000
0000
3020
,
0000
0000
0230
0000
0000
0300
1001
0000
0010
0000
0100
0000
1001
0000
0100
0000
0010
0000
1100
0000
0010
0000
0001
0000
,
1100
0001
0010
0101
1010
1100
0101
0000
0000
1000
0010
0100
,
0001
0010
0010
0110
1000
0001
0110
0001
1000
0011
0100
1000
,
0011
1000
0100
1010
0011
0011
0012
0100
0103
2000
0010
0010
,
3010
0110
0000
0110
0001
1000
0110
1000
0001
1010
0100
0001
,
1010
0001
0100
0011
1100
1010
0011
0000
0000
1000
0010
0100
,
0001
0000
0010
0000
0100
1000
0200
0000
0000
0000
0000
0000
0310
0000
0100
0000
1000
0000
0002
0000
0000
0003
0200
0000
,
0000
0300
0002
0000
0000
0003
2000
0000
0000
0000
0000
0000
3010
0000
0100
0000
0001
0000
0020
0000
0000
0030
0200
0000
,
0000
0300
0020
0000
0000
0030
1001
0000
0010
0000
0100
0000
0001
0000
0110
0000
1010
0000
1100
0000
0001
0000
0100
0000
,
0010
1100
0101
0011
0100
1000
0010
0101
0011
1100
0010
0101
,
1000
0011
1100
0011
0100
1000
0001
0100
0010
1100
0010
0101
,
1000
0011
0100
1010
0001
0100
1000
1001
0110
0011
0100
1010
,
0100
0000
1001
0000
0100
0000
1010
0000
0100
0000
0001
0000
0010
0000
0010
0000
0100
0000
1000
0010
0100
0001
0010
0100
,
1000
0010
0100
0001
1000
0100
1000
0100
1000
0000
0001
0000
0010
0000
0010
0000
0100
0000
0101
0000
1000
0000
0110
0000
,
0100
0000
1001
0000
0001
0100
0010
0000
1000
0000
0100
0000
0010
0000
0010
0000
0001
0000
0010
0001
0100
0010
1000
0100
,
0010
0001
1000
0100
1000
0001
0010
0001
0100
0000
0010
0000
1000
0000
1000
0000
0100
0000
0011
0000
0100
0000
1010
0000
,
0001
1100
0000
1001
0010
0100
1001
1001
0100
1001
0100
0010
,
1000
0010
1000
0110
1000
0001
0110
0110
1000
0110
0001
1000
,
0100
0010
0001
1010
0000
0000
1010
1010
0000
1010
0000
0000
,
0000
0000
0000
0011
0011
0000
1100
1100
0000
0101
0101
0000
,
1010
1010
0000
1100
0010
0001
1100
0001
0010
1100
0001
0100
,
0010
1000
0100
0011
0100
1000
0011
1000
0100
0011
1000
0001
,
0100
0010
1000
0110
0000
0000
0110
0110
0000
0110
0000
0000
,
0000
0000
0000
1001
1001
1001
0000
0000
0000
0110
0110
0110
,
0000
0000
0000
0000
0000
0000
0110
0000
0000
0000
0000
0000
1000
0000
0010
0000
0100
0000
0001
0000
0010
0000
0100
1000
,
0100
0000
0010
0001
0010
0000
1100
0000
0000
0000
0000
0000
0100
0000
0010
0000
0001
0000
0010
0000
0100
0000
0010
0001
,
1000
0000
0100
1000
0001
0000
2010
0000
0010
0000
0100
0000
0010
0000
0001
0000
0010
3000
0102
0000
0010
0000
1000
0000
,
0103
0000
2010
0000
3001
0000
1002
0000
0100
0000
0010
0000
1000
0000
0010
0000
0100
0003
1002
0000
1003
0000
0001
0010
,
0001
0000
1000
0100
1000
0000
0011
0000
1000
0000
0100
0000
1001
0000
1100
0000
1010
0000
0101
0000
0011
0000
1000
0010
,
0100
0000
0010
0100
0001
0000
1010
0000
0100
0000
0001
0000
0110
0000
0011
0000
0101
0000
1010
0000
1100
0000
0001
0100
,
0010
0000
0010
1000
0100
0000
0020
0031
0010
0000
0200
1300
0100
0000
2000
3010
0100
0000
0002
0013
0100
0000
1000
0010
,
0100
0000
0001
0010
0100
0000
2000
3100
0010
0000
0200
0310
0001
0000
2000
3010
0100
0000
0200
0301
0010
0000
0100
1000
,
0100
0000
0010
0001
0010
0000
2100
0000
0100
0000
0000
0000
3100
0000
0100
0000
1000
0100
0010
0000
0010
0000
0000
0000
,
0010
0000
0010
0000
0000
0000
0102
0000
0100
0000
0000
0000
0103
0000
0100
0000
0010
1000
0100
0000
0000
0000
0010
0000
,
0000
0001
0000
1000
1000
1100
0100
0110
0000
0011
0010
1010
,
0100
0101
0000
0110
0010
0000
0010
0010
0000
1010
0000
1100
,
0000
0000
0011
0000
0000
0000
2010
0000
0010
0000
0000
0000
3010
0000
0010
0000
1000
0100
0010
0000
0010
0000
0000
0000
,
0010
0000
0010
0000
0000
0000
0012
0000
0010
0000
0000
0000
0013
0000
0010
0000
0001
1000
0100
0000
0000
0000
1000
0000
,
0000
0001
0000
0001
0001
0011
0010
0110
0000
1100
0100
0101
,
0010
1010
0000
0110
0000
1100
0000
0101
0000
0011
0011
0000
,
0000
0000
0000
0000
0000
0000
2100
0000
0010
0000
0100
0000
0010
0000
0100
0000
0010
3000
0102
0000
0010
0000
0100
0000
,
0010
0000
0100
0000
0010
0003
1020
0000
0100
0000
1000
0000
0100
0000
1000
0000
0100
0030
0021
0000
0100
0000
0001
0000
,
0130
0000
1010
0000
1100
0000
0210
0000
1000
0000
0001
0000
1000
0000
0001
0000
1000
0300
0011
0000
1000
0000
0001
0000
,
1000
0000
0001
0000
1000
0000
0120
0000
0001
0000
1000
0000
0001
0000
1000
0000
0001
0030
1100
0000
0001
0000
1000
0000
,
0001
0000
1000
0000
0001
0000
0012
0000
0100
0000
0010
0000
0100
0000
0010
0000
0100
0003
2010
0000
0100
0000
0010
0000
,
0100
0000
0010
0000
0100
3000
0201
0000
0010
0000
0001
0000
0010
0000
0001
0000
0010
0300
1200
0000
1300
0000
1001
0000
,
0110
1100
0011
0101
0000
1010
0000
1100
0000
1001
1001
0000
,
0110
0110
0000
1100
0000
0011
0000
0101
0000
0110
0110
0000
,
1001
1001
0000
0000
0000
0000
0000
0000
0000
0000
0000
0000
;
