#TITLE:Type L'egoist;
#SUBTITLE:Romancing SaGa 3;
#ARTIST:S.S.H.;
#TITLETRANSLIT:;
#SUBTITLETRANSLIT:;
#ARTISTTRANSLIT:;
#CREDIT:XOX;
#BANNER:bn.jpg;
#BACKGROUND:bg.jpg;
#LYRICSPATH:;
#CDTITLE:!cdtitle.png;
#MUSIC:SSH - Type L'egoist.mp3;
#OFFSET:-1.215;
#SAMPLESTART:18.850;
#SAMPLELENGTH:12.000;
#SELECTABLE:YES;
#BPMS:0.000=88.040,12.000=176.080;
#STOPS:;
#BGCHANGES:;
// cache tags:
#FIRSTBEAT:4.000;
#LASTBEAT:467.375;
#SONGFILENAME:Songs/Astronomic Metal Collection 2/(XOX) Type L'egoist/TL.sm;
#HASMUSIC:1;
#HASBANNER:1;
#MUSICLENGTH:167.947;
// end cache tags

//---------------dance-single - ----------------
#NOTES:
     dance-single:
     :
     Hard:
     10:
     1.000,1.000,1.000,1.000,0.712,936.000,186.000,259.000,0.000,95.000:
0000
0000
0000
0000
,
1000
0100
0001
0100
0010
0001
1000
0100
1000
0100
0001
0100
0010
0001
1000
0100
,
1000
0000
0100
0000
0001
0000
0100
0000
0010
0000
0001
0000
1000
0000
0100
0000
1000
0000
0100
0000
0001
0000
0100
0000
0010
0100
0001
1000
0010
0100
0001
0100
,
1010
0100
0001
0100
0010
0001
1000
0100
,
1000
0100
0001
0100
0010
0001
1000
0100
,
1000
0100
0001
0100
0010
0001
1000
0100
,
1000
0000
0100
0000
0001
0000
0100
0000
0210
0001
0010
0001
0010
0001
0010
0301
,
0010
0100
0010
0100
2000
3000
0020
0000
0230
0000
0302
0000
1003
1000
0200
0000
,
0310
0100
0010
0100
2000
3000
0020
0000
0230
0000
0310
0000
0001
0010
0001
0010
,
0100
0010
0100
0010
2000
3000
0020
0000
0230
0000
0302
0000
1003
1000
0200
0000
,
0310
0100
0010
0100
2000
3000
0020
0000
1030
0100
0010
0001
1000
0100
0010
0001
,
1010
0100
0010
0100
2000
3000
0020
0000
0230
0000
0302
0000
1003
1000
0200
0000
,
0310
0100
0010
0100
2000
3000
0020
0000
0230
0000
0302
0000
1003
0010
1000
0010
,
0100
0001
0100
0001
2000
3000
0020
0000
0230
0000
0302
0000
1003
1000
0200
0000
,
0310
0100
0010
0100
2000
3000
0020
0000
2130
0010
0100
0001
3210
0001
0010
0001
,
1310
0100
1001
0010
0000
0100
0011
0000
0001
0000
0110
0000
1000
0000
0101
0000
,
0110
0001
1100
0010
0000
0010
0101
0000
1000
0000
0110
0000
2000
0000
0010
0000
,
3102
0013
1001
0100
0000
0100
1010
0000
0001
0000
0110
0000
1000
0000
0101
0000
,
0120
0031
1100
0010
0000
0010
0101
0000
1000
0000
0101
0000
2000
0000
0010
0000
,
3102
0013
1001
0100
0000
0100
1010
0000
0001
0000
0110
0000
1000
0000
0101
0000
,
0120
0031
1100
0010
0000
0010
0101
0000
1000
0000
0101
0000
2000
0000
0010
0000
,
3102
0013
1001
0100
0000
0100
1010
0000
0001
0000
0110
0000
1000
0000
0110
0000
,
0100
0001
0000
0001
0000
0001
0010
0000
0200
0000
0000
0000
2310
0001
0010
0100
,
3012
0000
0000
0103
0000
0000
0010
0000
0002
0000
0000
0000
0203
0000
0000
0300
,
1120
0000
0000
0230
0000
0000
0310
0000
,
1120
0000
0030
0002
0000
0003
0001
0000
0200
0000
0000
0000
0320
0000
0000
0000
,
1231
0000
0320
0000
0230
0000
0302
0000
0000
0003
0001
0000
0020
0000
0000
0030
,
2011
0000
0000
0100
0000
0000
0100
0000
3201
0000
0000
0000
0000
0000
0000
0000
,
2311
0000
0000
0010
0000
0000
0010
0000
3201
0000
0000
0000
0320
0000
0000
0000
,
0131
0010
1001
0100
0000
0100
1010
0000
0001
0000
0110
0000
1000
0000
0101
0000
,
0010
0001
1100
0010
0000
0010
0101
0000
1000
0000
0101
0000
2000
0000
0000
0000
,
3112
0000
0000
0200
0003
0300
0010
0000
0002
0000
0000
0000
0023
0000
0000
0030
,
1201
0000
0000
0320
0000
0000
0032
0000
,
1123
0000
0000
0000
0000
0000
2030
0000
0000
0000
3100
0000
0020
0000
0000
0030
,
1012
0000
0000
0000
0000
0000
0203
0000
0000
0000
0000
0000
2300
0000
0000
3000
,
2011
0000
0000
0000
0000
0000
0000
0000
0000
0000
0000
0000
0000
3000
1000
0001
,
1120
0000
0000
0000
0000
0000
0000
0000
0031
0010
0100
1000
0001
0100
0010
1000
,
0101
0010
1001
0100
0000
0100
1010
0000
0001
0000
0110
0000
1000
0000
0101
0000
,
0010
0001
1100
0010
0000
0010
0101
0000
1000
0000
0110
0000
2000
0000
0010
0000
,
3101
0010
1001
0100
0000
0100
1010
0000
0001
0000
0110
0000
1000
0000
0101
0000
,
0100
0000
0001
0010
0000
0001
0010
0000
2000
0000
0000
0000
0001
0000
0000
0000
,
3200
0001
0000
0321
0000
0001
0230
0001
,
2300
0001
3200
0001
0320
0001
0230
0001
,
1321
0001
0000
2031
0000
0001
0000
0001
,
0000
0000
0001
0000
0000
0000
0001
0000
0000
0000
3001
0010
1000
0001
0100
0010
,
2101
0001
0000
3201
0000
0001
0320
0001
,
1231
0001
2300
0001
3020
0001
0230
0001
,
2311
0001
0000
3021
0000
0001
2030
0001
,
3200
0001
0320
0001
0230
0001
2300
0001
,
3211
1000
0000
1000
0000
1000
0000
1000
,
0320
1000
0000
1000
0000
1000
0000
1000
,
0032
1000
0000
1000
0000
1000
0000
1000
,
1103
0010
0000
0001
0000
0100
0010
0000
0002
0000
0100
0100
1023
0000
0030
0000
,
1202
0000
0300
0203
0000
0300
0010
0000
0002
0000
0000
0000
0203
0000
0000
0300
,
1021
0000
0000
0000
0000
0000
0230
0000
0000
0000
0000
0000
0320
0000
0000
0030
,
1120
0000
0030
0002
0000
0003
0001
0000
0200
0000
0000
0000
0010
0000
0000
0300
,
1201
0000
0320
0000
0230
0000
0302
0000
0000
0003
0001
0000
0020
0000
0000
0030
,
2011
0000
0000
0100
0000
0000
0100
0000
3210
0000
0000
0000
0000
0000
0000
0000
,
2311
0000
0000
0010
0000
0000
0010
0000
3201
0000
0000
0000
0320
0000
0000
0000
,
0031
0100
1010
0100
0000
0100
1010
0000
0001
0000
0110
0000
1000
0000
0101
0000
,
0010
0001
1100
0010
0000
0010
0101
0000
1000
0000
0101
0000
2000
0000
0000
0000
,
3112
0000
0000
0100
0003
0000
0010
0000
0002
0000
0000
0000
0023
0000
0000
0030
,
0211
0000
0000
0320
0000
0000
0032
0000
,
1123
0000
0000
0000
0000
0000
2030
0000
0000
3000
0100
0000
0020
0000
0000
0030
,
1102
0000
0000
0000
0000
0000
0203
0000
0000
0000
0000
0000
2300
0000
0000
3000
,
2011
0000
0000
0000
0000
0000
0000
0000
0000
0000
0000
0000
0000
3000
1000
0001
,
1120
0000
0000
0000
0000
0000
0000
0000
0031
0010
0100
1000
0001
0100
0010
1000
,
0001
0010
1001
0100
0000
0100
1010
0000
0001
0000
0110
0000
1000
0000
0101
0000
,
0010
0001
1100
0010
0000
0010
0101
0000
1000
0000
0110
0000
2000
0000
0010
0000
,
3101
0010
1001
0100
0000
0100
1010
0000
0001
0000
0110
0000
1000
0000
0101
0000
,
0100
0000
0001
0010
0000
0001
0010
0000
2000
0000
0000
0000
0001
0000
0000
0000
,
3200
0001
0000
0321
0000
0001
0230
0001
,
2300
0001
3200
0001
0320
0001
0230
0001
,
1321
0001
0000
2031
0000
0001
0000
0001
,
0000
0000
0001
0000
0000
0000
0001
0000
0000
0000
3001
0010
1000
0001
0100
0010
,
2101
0001
0000
3201
0000
0001
0320
0001
,
1231
0001
2300
0001
3020
0001
0230
0001
,
2311
0001
0000
3021
0000
0001
2030
0001
,
3200
0001
0320
0001
0230
0001
2300
0001
,
3211
1000
0000
1000
0000
1000
0000
1000
,
0320
1000
0000
1000
0000
1000
0000
1000
,
0032
1000
0000
1000
0000
1000
0000
1000
,
1103
0010
0000
0001
0000
0100
0010
0000
0002
0000
0100
0100
1023
0000
0030
0000
,
0101
0010
1001
0100
0000
0100
1010
0000
0001
0000
0110
0000
1000
0000
0101
0000
,
0010
0001
1100
0010
0000
0010
0101
0000
1000
0000
0110
0000
2000
0000
0010
0000
,
3101
0010
1001
0100
0000
0100
1010
0000
0001
0000
0110
0000
1000
0000
0101
0000
,
0100
0000
0001
0010
0000
0001
0010
0000
2000
0000
0000
0000
0001
0000
0000
0000
,
3211
0001
0000
0001
0000
0001
0000
0001
,
1302
0010
0000
0010
0000
0010
0000
0010
,
1123
0000
0231
0000
0320
0000
2031
0000
0000
3000
1001
0000
0100
0000
0010
0000
,
0102
0000
0010
0000
0000
0000
0010
0000
0000
0000
0010
0100
1003
0001
0100
0010
,
2101
0001
0000
0001
0000
0001
0000
0001
,
3201
0010
0000
0010
0000
0010
0000
0010
,
1302
0123
2030
3012
0023
2031
3200
0321
,
0132
0000
0010
0000
0000
0000
0010
0000
0000
0000
0013
0100
1000
0001
0100
0010
,
2101
0000
0001
0000
0000
0000
3021
0000
0000
0000
0001
0000
2230
0000
0001
3300
,
2000
0000
0001
0000
0000
0000
3021
0000
0000
0000
0001
0000
2230
0000
0001
3300
,
1000
0100
0001
1000
0100
0001
1000
0100
0001
1000
0100
0001
1000
0100
0001
0010
,
0002
0000
0010
0000
0000
0000
0010
0000
0000
0000
0013
0100
1000
0001
0100
0010
,
2000
0000
0000
0000
0000
0000
0001
0000
3000
0200
0000
0000
0000
0000
0000
0000
0000
0000
0312
0000
0000
0000
0000
0000
0000
0000
0000
0023
0000
0000
0100
0000
0000
0000
0000
0000
2030
0000
0000
0000
0000
0000
3210
0000
0000
0000
0000
0000
,
0302
1203
0320
0231
0302
1203
0320
0231
,
0301
0010
0101
1000
0010
0100
1001
0010
1000
0100
0011
0100
0010
1000
0011
0000
,
1000
0100
1010
0001
0100
0010
1001
0100
0001
0010
0101
1000
0010
0100
1001
0100
,
0002
1000
0000
1000
0000
1000
0000
1000
,
0023
1000
0000
1000
0000
1000
0000
1000
,
0230
1000
0000
1000
0000
1000
0000
1000
,
1310
0100
0000
0010
0000
0010
0001
0000
0101
0010
0000
0100
0000
0100
1000
0000
,
1010
0100
0000
0010
0000
0010
0001
0000
0020
0000
0001
0001
2230
0000
0000
0000
,
3310
0100
0010
0100
2000
3000
0020
0000
0230
0000
0302
0000
1003
1000
0200
0000
,
0310
0100
0010
0100
2000
3000
0020
0000
0230
0000
0310
0000
0001
0010
0001
0010
,
0100
0010
0100
0010
2000
3000
0020
0000
0230
0000
0302
0000
1003
1000
0200
0000
,
0310
0100
0010
0100
2000
3000
0020
0000
1030
0100
0010
0001
1000
0100
0010
0001
,
1010
0100
0010
0100
2000
3000
0020
0000
0230
0000
0302
0000
1003
1000
0200
0000
,
0310
0100
0010
0100
2000
3000
0020
0000
0230
0000
0302
0000
1003
0010
1000
0010
,
0100
0001
0100
0001
2000
3000
0020
0000
0230
0000
0302
0000
1003
1000
0200
0000
,
0310
0100
0010
0100
2000
3000
0020
0000
2130
0010
0100
0001
3210
0001
1010
0010
,
2302
0000
0000
0000
0000
0000
0000
0000
0000
0000
0000
0000
0000
0000
0000
0000
0000
0000
0000
0000
0000
0000
0000
0000
0000
0000
0000
0000
0000
0000
0000
0000
0000
0000
0000
0000
0000
0000
0000
0000
0000
0000
0000
0000
0000
0000
0000
0000
0000
0000
0000
0000
0000
0000
0000
0000
0000
0000
0000
0000
0000
0000
0000
0000
0000
0000
0000
0000
0000
0000
0000
0000
0000
0000
0000
0000
0000
0000
0000
0000
0000
0000
0000
0000
0000
0000
0000
0000
0000
0000
0000
0000
0000
0000
0000
0000
0000
0000
0000
0000
0000
0000
0000
0000
0000
0000
0000
0000
0000
0000
0000
0000
0000
0000
0000
0000
0000
0000
0000
0000
0000
0000
0000
0000
0000
0000
0000
0000
0000
0000
0000
0000
3003
0000
0000
0000
0000
0000
0000
0000
0000
0000
0000
0000
0011
0000
0000
0000
0000
0000
0000
0000
0100
0000
0000
0000
0000
0000
0000
0000
0000
0000
1011
0000
0000
0000
0000
0000
0000
0000
0000
0000
0000
0000
0000
0000
0000
0000
0000
0000
0000
0000
0000
0000
0000
0000
0000
0000
0000
0000
0000
0000
;
