#TITLE:Hannah Montana;
#SUBTITLE:Sexuality Violation;
#ARTIST:Migos;
#TITLETRANSLIT:;
#SUBTITLETRANSLIT:;
#ARTISTTRANSLIT:;
#CREDIT:;
#BANNER:Hannah Montana-bn.png;
#BACKGROUND:Hannah Montana-bg.png;
#LYRICSPATH:;
#CDTITLE:~CDTitle-@@.png;
#MUSIC:Migos - Hannah Montana.ogg;
#OFFSET:-0.018;
#SAMPLESTART:13.694;
#SAMPLELENGTH:28.236;
#SELECTABLE:YES;
#BPMS:0.000=136.000;
#STOPS:;
#BGCHANGES:;
// cache tags:
#FIRSTBEAT:8.000;
#LASTBEAT:479.500;
#SONGFILENAME:Songs/Sexuality Violation 2/Hannah Montana - [AA]/Hannah Montana.sm;
#HASMUSIC:1;
#HASBANNER:1;
#MUSICLENGTH:211.800;
// end cache tags

//---------------dance-single - @@----------------
#NOTES:
     dance-single:
     @@:
     Challenge:
     15:
     1.000,1.000,0.000,0.156,1.000,1715.000,0.000,33.000,0.000,0.000:
0000
0000
0000
0000
,
0000
0000
0000
0000
,
0002
0003
0000
2000
3000
0000
0200
0300
,
0000
0000
0000
0000
0020
0000
0030
0000
0000
0000
0000
0000
0001
0010
0000
0000
,
0001
0000
0000
0000
1000
0000
0000
0010
,
0000
0100
0000
0001
,
1000
0001
1000
0010
0100
0001
0100
0010
1000
0001
1000
0100
0010
0001
0100
0010
,
1000
0001
0010
0100
1000
0001
1000
0010
0100
0010
1000
0001
0100
0010
1000
0100
,
0010
0000
0010
0000
,
0010
0000
0010
0000
,
0010
0100
1000
0001
0010
0100
1000
0010
0100
0001
1000
0100
0010
0100
1000
0001
0010
0100
1000
0010
0100
0001
1000
0100
,
0010
0100
1000
0001
0010
0100
1000
0010
0100
0001
1000
0100
0010
0100
1000
0001
0010
0100
1000
0000
0000
0001
0000
0000
,
0100
0001
1000
0100
1000
0000
0001
1000
,
0100
0000
1000
0000
0001
0100
0010
0000
1000
0000
0000
0000
0010
0000
0100
0000
,
0001
1000
0100
0010
0001
1000
0100
0010
0100
1000
0001
0010
0001
1000
0010
1000
0001
0100
0001
1000
0010
0100
0010
1000
,
0100
0000
0010
0000
0100
0000
0010
0000
0001
0000
1000
0000
0010
0000
0100
0000
0010
0000
0100
0000
0001
0000
1000
0000
0100
0000
0000
0000
0000
0000
0000
0000
0000
0000
0000
0000
0010
0000
0000
0001
0000
0000
1000
0000
0000
0001
0000
0000
,
0100
0010
1000
0001
0100
0010
1000
0100
0010
0001
1000
0010
0100
0010
1000
0001
0100
0010
1000
0100
0010
0001
1000
0010
,
0100
0010
1000
0001
0100
0010
1000
0100
0010
0001
1000
0010
0100
0010
1000
0001
0100
0010
1000
0100
0010
0001
1000
0010
,
0100
0010
1000
0001
0100
0010
1000
0100
0010
0001
1000
0010
0100
0010
1000
0001
0100
0010
1000
0100
0010
0001
1000
0010
,
0100
0000
0010
0000
1000
0000
0001
0000
0100
0000
0010
0000
1000
0000
0100
0000
0010
0000
0001
0000
1000
0000
0010
0000
0100
0000
0010
0000
1000
0000
0001
0000
0100
0000
0010
0000
1000
0000
0000
0000
0000
0000
0001
0000
0000
0010
0000
0000
,
0100
1000
0001
0100
0001
0000
1000
0100
,
1000
0000
0001
0000
0100
0010
1000
0000
0001
0000
0000
0000
0010
0000
0100
0000
,
1000
0001
0100
0001
1000
0010
1000
0001
0100
0010
1000
0001
1000
0100
0010
0001
1000
0100
1000
0001
0010
0100
1000
0001
,
0100
0000
0010
0000
0100
0000
0010
0000
1000
0000
0001
0000
0010
0000
0100
0000
0010
0000
0100
0000
1000
0000
0001
0000
0100
0000
0000
0000
0000
0000
0000
0000
0000
0000
0000
0000
0001
0000
0000
0010
0000
0000
0100
0000
0000
1000
0000
0000
,
0001
0000
0000
0000
0000
0000
0000
0000
0000
0000
0000
0000
1000
0100
0010
0100
1000
0001
1000
0010
0100
0001
1000
0001
,
0010
0000
0100
0000
0010
0000
0001
0000
1000
0000
0100
0000
0010
0000
0100
0000
1000
0000
0001
0000
0010
0000
0001
0000
0100
0000
0000
0000
0000
0000
0000
0000
0000
0000
0000
0000
0020
0000
0000
0030
0000
0000
0000
0000
0000
0000
0000
0000
,
1000
0000
0000
0000
0000
0000
0000
0000
0000
1000
0001
0010
0001
1000
0010
0100
0010
1000
0001
0010
0100
0010
0001
1000
,
0010
0000
0100
0000
0010
0000
1000
0000
0001
0000
0010
0000
0001
0000
1000
0000
0010
0000
0100
0000
0010
0000
1000
0000
0100
0000
0000
0000
0000
0000
0000
0000
0000
0000
0000
0000
2000
0000
0000
3000
0000
0000
0000
0000
0000
0000
0000
0000
,
2000
0000
0000
3000
0000
0000
0000
0000
0000
0000
0000
0000
0001
0000
0100
0000
0001
0000
1000
0000
0000
0000
0000
0000
0001
0000
0100
0000
0001
0000
1000
0000
0000
0000
0000
0000
0001
0000
0100
0000
0001
0000
1000
0000
0000
0000
0000
0000
,
0000
0000
0000
0000
0000
0000
0001
0000
0010
0000
0100
0000
0010
0000
0001
0000
1000
0000
0010
0000
1000
0000
0001
0000
0010
0000
0000
0000
0000
0000
0000
0000
0000
0000
0000
0000
0000
0000
0000
0000
0000
0000
0020
0000
0000
0030
0000
0000
,
0100
0000
0000
1000
0001
1000
0010
0100
0010
1000
0000
0000
0000
0000
0000
1000
0100
0010
0001
0000
0000
0100
0010
1000
,
0001
0100
0001
1000
0010
1000
0100
0010
0100
1000
0001
1000
0010
0000
0000
0000
0000
0000
1000
0000
0001
0000
1000
0000
,
0001
0000
0000
0000
0000
0000
1000
0100
0010
0001
1000
0100
1000
0010
0100
0001
0100
0010
1000
0100
0010
0001
0010
0100
,
1000
0010
1000
0001
0100
0010
1000
0100
1000
0001
0010
0001
0100
0000
0000
0001
0000
0000
0001
0000
0000
0010
0000
0000
,
0100
0000
0000
0000
0000
0000
1000
0001
0100
0001
1000
0010
1000
0001
0010
0100
0010
0001
1000
0010
0100
0001
1000
0010
,
1000
0000
0100
0000
0010
0000
0100
0000
1000
0000
0001
0000
1000
0000
0010
0000
0100
0000
0010
0000
1000
0000
0001
0000
0010
0000
0000
0000
0000
0000
0000
0000
0000
0000
0000
0000
0001
0000
0000
0000
0000
0000
1000
0000
0000
0001
0000
0000
,
1000
0100
1000
0100
0010
0001
1000
0100
0010
0100
1000
0001
1000
0010
0100
0010
1000
0001
1000
0100
0010
0001
1000
0100
,
1000
0001
0100
0001
1000
0010
1000
0001
0010
0100
1000
0001
1000
0010
0100
0010
1000
0001
0100
0010
1000
0001
0100
0001
,
1000
0100
1000
0001
0010
0100
1000
0001
0100
0001
1000
0010
1000
0001
0010
0001
1000
0100
0010
0100
1000
0001
0010
0001
,
1000
0000
0010
0000
0100
0000
0001
0000
0100
0000
0010
0000
1000
0000
0001
0000
0010
0000
0100
0000
1000
0000
0001
0000
1000
0000
0010
0000
0100
0000
0010
0000
0000
1000
0000
0000
0100
0000
0000
0000
0000
0000
1000
0000
0001
0000
1000
0000
,
0010
0100
0010
1000
0100
0010
0001
0100
0001
1000
0000
0000
0000
0000
0000
0001
0100
0001
0010
0100
1000
0001
0010
0001
,
0100
0010
1000
0100
1000
0001
0010
0100
1000
0010
0100
0001
0100
0010
1000
0100
0000
0000
0000
0000
0000
1000
0100
0010
,
0001
0100
0001
1000
0010
0100
0010
1000
0001
1000
0010
0100
0001
0010
0100
1000
0100
0010
0001
1000
0100
0010
0100
1000
,
0010
1000
0001
0100
0001
1000
0100
0010
0100
1000
0001
0010
0001
0100
0010
1000
0000
0000
0001
0010
0100
1000
0000
0000
,
0010
0000
0100
0000
0010
0000
1000
0000
0001
0000
0100
0000
0001
0000
1000
0000
0010
0000
1000
0000
0001
0000
0100
0000
0010
0000
0100
0000
0001
0000
0010
0000
0000
0000
0000
0000
0200
0000
0000
0300
0000
0000
0000
0000
0000
0000
0000
0000
,
1000
0000
0100
0000
0010
0000
0001
0000
1000
0000
0100
0000
1000
0000
0001
0000
0010
0000
0100
0000
0010
0000
0001
0000
1000
0000
0100
0000
1000
0000
0020
0000
0000
0030
0000
0000
1000
0000
0000
0001
0000
0000
1000
0000
0100
0000
0010
0000
,
0001
0000
1000
0000
0010
0000
0100
0000
0010
0000
1000
0000
0001
0000
0010
0000
0100
0000
0010
0000
0001
0000
1000
0000
0010
0000
1000
0000
0001
0000
0100
0000
0000
0001
0000
0000
1000
0000
0000
0100
0000
0000
0010
0000
0100
0000
1000
0000
,
0001
0000
1000
0000
0010
0000
0100
0000
0010
0000
1000
0000
0001
0000
0010
0000
0100
0000
1000
0000
0001
0000
1000
0000
0010
0000
0000
0100
0000
0000
0010
0000
0000
1000
0000
0000
0001
0000
0000
0010
0000
0000
0100
0000
0000
1000
0000
0000
,
0001
0010
0001
0010
0100
1000
0100
1000
,
0010
0000
1000
0000
0010
0000
0100
0000
0010
0000
0100
0000
0010
0000
1000
0100
,
0010
0001
0010
0001
1000
0100
1000
0010
,
1000
0000
0000
0010
0000
0000
0100
0000
0000
0010
0000
0000
0100
0000
0000
0010
0000
0000
1000
0000
0001
0000
1000
0000
,
0001
0010
0001
0100
0010
0000
1000
0100
,
1000
0000
0000
0010
0000
0000
0100
0000
0000
0001
0000
0000
0010
0000
0000
0000
0000
0000
0001
0000
1000
0000
0001
0000
,
1000
0010
0100
0001
1000
0100
0010
0001
,
0200
0000
0300
0000
0020
0000
0030
0000
2000
0000
3000
0000
0001
0010
0100
1000
,
0100
0010
0001
1000
0100
0010
0001
0100
0010
1000
0001
0010
0100
0010
0001
1000
0100
0010
0001
0100
0010
1000
0001
0010
,
0100
0010
0001
1000
0100
0010
0001
0100
0010
1000
0001
0010
0100
0010
0001
1000
0100
0010
0001
0100
0010
1000
0001
0010
,
0100
0010
0001
1000
0100
0010
0001
0100
0010
1000
0001
0010
0100
0010
0001
1000
0100
0010
0001
0100
0010
1000
0001
0010
,
0100
0000
0010
0000
0001
0000
1000
0000
0100
0000
0010
0000
0001
0000
0100
0000
0010
0000
1000
0000
0001
0000
0010
0000
0100
0000
0010
0000
0001
0000
1000
0000
0100
0000
0010
0000
0001
0000
0000
0000
0000
0000
1000
0000
0000
0010
0000
0000
,
0100
0001
1000
0100
1000
0000
0001
0100
,
0001
0000
1000
0000
0100
0010
0001
0000
1000
0000
0000
0000
0010
0000
0100
0000
,
0001
1000
0100
1000
0001
0010
0001
1000
0100
0010
0001
1000
0001
0100
0010
1000
0001
0100
0001
1000
0010
0100
0001
1000
,
0100
0000
0010
0000
0100
0000
0010
0000
0001
0000
1000
0000
0010
0000
0100
0000
0010
0000
0100
0000
0001
0000
1000
0000
0100
0000
0000
0000
0000
0000
0000
0000
0000
0000
0000
0000
1000
0000
0000
0010
0000
0000
0100
0000
0000
0001
0000
0000
,
1000
0000
0100
0000
0010
0000
0100
0000
1000
0000
0001
0000
0010
0000
0100
0000
1000
0000
0001
0000
0010
0000
0001
0000
1000
0000
0010
0000
0100
0000
0001
0000
0000
0000
0000
0000
2000
0000
0000
3000
0000
0000
0100
0000
0010
0000
0001
0000
,
1000
0000
0010
0000
0100
0000
0010
0000
1000
0000
0001
0000
0100
0000
0001
0000
1000
0000
0010
0000
0100
0000
0001
0000
1000
0000
0100
0000
0010
0000
0001
0000
0000
0000
0000
0000
2000
0000
0000
3000
0000
0000
0001
0000
0100
0000
0010
0000
,
1000
0000
0001
0000
0010
0000
0001
0000
1000
0000
0100
0000
1000
0000
0001
0000
0010
0000
0100
0000
1000
0000
0001
0000
1000
0000
0010
0000
0100
0000
0001
0000
0000
0000
0000
0000
2000
0000
0000
3000
0000
0000
0001
0000
0010
0000
0001
0000
,
1000
0000
0010
0000
0100
0000
0010
0000
1000
0000
0001
0000
0100
0000
0001
0000
1000
0000
0010
0000
0100
0000
0001
0000
0010
0000
0000
0000
0000
0000
0000
0000
0000
0000
0000
0000
0200
0000
0000
0300
0000
0000
0000
0000
0000
0000
0000
0000
,
1000
0000
0100
0000
0010
0000
0100
0000
1000
0000
0001
0000
0010
0000
0100
0000
1000
0000
0100
0000
0010
0000
0001
0000
0100
0000
0010
0000
0100
0000
0001
0000
0000
0000
0000
0000
2000
0000
0000
3000
0000
0000
0000
0000
0000
0000
0000
0000
,
0001
0000
0100
0000
0010
0000
1000
0000
0001
0000
0100
0000
0001
0000
1000
0000
0010
0000
0100
0000
0010
0000
1000
0000
0100
0000
0010
0000
0100
0000
1000
0000
0000
0000
0000
0000
0002
0000
0000
0003
0000
0000
1000
0000
0010
0000
1000
0000
,
0001
0010
0100
0010
0001
1000
0100
0010
0100
1000
0001
0010
0001
0100
0010
1000
0001
0100
0001
1000
0010
0100
0010
1000
,
0100
0000
0000
0000
0000
0000
1000
0100
0010
0001
0100
0010
1000
0000
0000
0000
0000
0000
0001
0000
0000
0000
0000
0000
,
1000
0010
0100
0001
0100
0010
1000
0001
0100
0001
1000
0010
1000
0100
0010
0100
1000
0001
0100
0010
1000
0001
0000
0000
,
1000
0100
0010
0100
1000
0001
0010
0100
1000
0100
0010
0001
0100
0010
1000
0001
0100
0001
0010
0000
0000
0100
1000
0001
,
1000
0010
0100
0010
1000
0001
0100
0001
1000
0010
0100
0010
1000
0100
1000
0001
0010
0001
0100
0000
0000
0010
1000
0001
,
1000
0100
0010
0100
1000
0001
0010
0100
1000
0100
0010
0001
0100
0010
1000
0001
0100
0001
0010
0000
0000
0100
1000
0001
,
1000
0010
0100
0010
1000
0001
0100
0001
1000
0100
0010
0001
0100
0010
1000
0010
0100
0010
1000
0000
0000
0001
0100
0010
,
1000
0001
0010
0100
1000
0001
0010
0001
1000
0010
0100
0010
1000
0100
0010
0100
1000
0100
0010
0000
0000
0001
0010
0001
,
1000
0010
0100
0010
1000
0001
0100
0001
1000
0100
0010
0001
0100
0010
0100
0001
0100
0010
0100
0000
0000
0001
1000
0010
,
1000
0001
0010
0100
1000
0001
0010
0001
1000
0010
0100
0001
1000
0100
1000
0010
0100
0001
1000
0000
0000
0001
0010
0001
,
1000
0010
0100
0010
1000
0001
0100
0001
1000
0100
0010
0100
1000
0010
0100
0001
1000
0010
1000
0000
0000
0001
1000
0001
,
0010
0100
1000
0001
0010
0001
1000
0100
1000
0001
0100
0010
1000
0100
0010
0100
1000
0001
0010
0000
0000
0000
0000
0000
,
0001
0100
0001
0010
0100
1000
0001
0100
0001
0010
0100
1000
0010
0100
0001
1000
0000
0000
0000
0000
0000
0001
0100
0001
,
1000
0000
0100
0000
1000
0000
0010
0000
0100
0000
0001
0000
1000
0000
0100
0000
1000
0000
0010
0000
0100
0000
0001
0000
0010
0000
0100
0000
1000
0000
0001
0000
0000
0000
0000
0000
2000
0000
0000
3000
0000
0000
0001
0000
0000
1000
0000
0000
,
0100
0000
0010
0000
0001
0000
1000
0000
0100
0000
1000
0000
0001
0000
0100
0000
0010
0000
1000
0000
0001
0000
0100
0000
0001
0000
0010
0000
0100
0000
1000
0000
0000
0000
0000
0000
0002
0000
0000
0003
0000
0000
1000
0000
0100
0000
0010
0000
,
0001
0000
0100
0000
0001
0000
0100
0000
0010
0000
1000
0000
0001
0000
0010
0000
0100
0000
1000
0000
0001
0000
1000
0000
0010
0000
0100
0000
0010
0000
1000
0000
0000
0000
0000
0000
0200
0000
0000
0300
0000
0000
0010
0000
0001
0000
1000
0000
,
0010
0000
0100
0000
0010
0000
1000
0000
0001
0000
0100
0000
0001
0000
1000
0000
0100
0000
0010
0000
0001
0000
1000
0000
0001
0000
0100
0000
0010
0000
0100
0000
0000
0001
0000
0000
1000
0000
0000
0010
0000
0000
1000
0000
0000
0001
0000
0000
,
0010
0000
0100
0000
0010
0000
0001
0000
1000
0000
0100
0000
1000
0000
0010
0000
0100
0000
0001
0000
0100
0000
0010
0000
1000
0000
0100
0000
0010
0000
0100
0000
0000
1000
0000
0000
0001
0000
0000
0010
0000
0000
0100
0000
0000
1000
0000
0000
,
0001
0100
0001
0100
0010
1000
0010
1000
,
0100
0000
1000
0000
0100
0000
0010
0000
0100
0000
0010
0000
0100
0000
1000
0010
,
0100
0001
0100
0001
1000
0010
1000
0100
,
1000
0000
0000
0100
0000
0000
0010
0000
0000
0100
0000
0000
0010
0000
0000
0100
0000
0000
1000
0000
0001
0000
1000
0000
,
0001
0100
0001
0010
0100
0000
1000
0010
,
1000
0000
0000
0100
0000
0000
0010
0000
0000
0001
0000
0000
0100
0000
0000
0000
0000
0000
0001
0000
1000
0000
0001
0000
,
1000
0100
0010
0001
1000
0010
0100
0001
,
0020
0000
0030
0000
0200
0000
0300
0000
2000
0000
3000
0000
0001
0100
0010
1000
,
0010
0100
0001
1000
0010
0100
0001
0010
0100
1000
0001
0100
0010
0100
0001
1000
0010
0100
0001
0010
0100
1000
0001
0100
,
0010
0100
0001
1000
0010
0100
0001
0010
0100
1000
0001
0100
0010
0100
0001
1000
0010
0100
0001
0010
0100
1000
0001
0100
,
0010
0100
0001
1000
0010
0100
0001
0010
0100
1000
0001
0100
0010
0100
0001
1000
0010
0100
0001
0010
0100
1000
0001
0100
,
0010
0000
0100
0000
0001
0000
1000
0000
0010
0000
0100
0000
0001
0000
0010
0000
0100
0000
1000
0000
0001
0000
0100
0000
0010
0000
0100
0000
0001
0000
1000
0000
0010
0000
0100
0000
0001
0000
0000
0000
0000
0000
1000
0000
0000
0100
0000
0000
,
0010
0001
1000
0010
1000
0000
0001
0010
,
0001
0000
1000
0000
0010
0100
0001
0000
1000
0000
0000
0000
0100
0000
0010
0000
,
0001
1000
0010
1000
0001
0100
0001
1000
0010
0100
0001
1000
0001
0010
0100
1000
0001
0010
0001
1000
0100
0010
0001
1000
,
0010
0000
0100
0000
0010
0000
0100
0000
0001
0000
1000
0000
0100
0000
0010
0000
0100
0000
0010
0000
0001
0000
1000
0000
0010
0000
0000
0000
0000
0000
0000
0000
0000
0000
0000
0000
1000
0000
0000
0100
0000
0000
0010
0000
0000
0001
0000
0000
,
1000
0000
0000
0000
0000
0000
0000
0010
,
0000
0010
0010
0000
0000
0000
0000
0000
,
2000
3000
0000
0002
0003
0000
0020
0030
,
0000
0000
0200
0300
0000
0000
0010
0000
,
0001
0000
0000
0000
0000
0000
0000
1000
,
0000
1000
1000
0000
0000
0000
0000
0000
,
0020
0030
0000
2000
3000
0000
0200
0300
,
0000
0000
0020
0030
0000
0000
0001
0000
,
1000
0000
0010
1000
0010
0000
1000
0001
,
1000
0000
0001
0000
0010
0001
0100
0000
0010
0000
1000
0000
0000
0000
0000
0000
,
0001
0000
0010
0001
0010
0000
0001
1000
,
0001
0000
1000
0000
0010
1000
0100
0000
0010
0000
0001
0000
0100
0000
0010
1000
,
0001
0000
0100
0001
0100
0000
0001
1000
,
0001
0000
1000
0000
0100
1000
0010
0000
0100
0000
0000
0000
0000
0000
0000
0000
,
0001
0000
0010
0001
0010
0000
0001
1000
,
0001
0000
1000
0000
0010
1000
0100
0000
1000
0000
1000
0001
1000
0000
0001
0000
;

//---------------dance-single - @@----------------
#NOTES:
     dance-single:
     @@:
     Hard:
     14:
     0.950,1.000,0.000,0.189,1.000,1368.000,0.000,40.000,0.000,0.000:
0000
0000
0000
0000
,
0000
0000
0000
0000
,
0002
0003
0000
2000
3000
0000
0200
0300
,
0000
0000
0000
0000
0020
0000
0030
0000
0000
0000
0000
0000
0001
0010
0000
0000
,
0001
0000
0000
0000
1000
0000
0000
0010
,
0000
0100
0000
0001
,
1000
0001
1000
0010
0100
0001
0100
0010
1000
0001
1000
0100
0010
0001
0100
0010
,
1000
0001
0010
0100
1000
0001
1000
0010
0100
0010
1000
0001
0100
0010
1000
0100
,
0010
0000
0010
0000
,
0010
0000
0010
0000
,
0010
0100
1000
0001
0010
0100
1000
0010
0100
0001
1000
0100
0010
0100
1000
0001
0010
0100
1000
0010
0100
0001
1000
0100
,
0010
0100
1000
0001
0010
0100
1000
0010
0100
0001
1000
0100
0010
0100
1000
0001
0010
0100
1000
0000
0000
0001
0000
0000
,
0100
0001
1000
0100
1000
0000
0001
1000
,
0100
0000
1000
0000
0001
0100
0010
0000
1000
0000
0000
0000
0010
0000
0100
0000
,
0001
1000
0100
0010
0001
1000
0100
0010
0100
1000
0001
0010
0001
1000
0010
1000
0001
0100
0001
1000
0010
0100
0010
1000
,
0100
0000
0010
0000
0100
0000
0010
0000
0001
0000
1000
0000
0010
0000
0100
0000
0010
0000
0100
0000
0001
0000
1000
0000
0100
0000
0000
0000
0000
0000
0000
0000
0000
0000
0000
0000
0010
0000
0000
0001
0000
0000
1000
0000
0000
0001
0000
0000
,
0100
0010
1000
0001
0100
0010
1000
0100
0010
0001
1000
0010
0100
0010
1000
0001
0100
0010
1000
0100
0010
0001
1000
0010
,
0100
0010
1000
0001
0100
0010
1000
0100
0010
0001
1000
0010
0100
0010
1000
0001
0100
0010
1000
0100
0010
0001
1000
0010
,
0100
0010
1000
0001
0100
0010
1000
0100
0010
0001
1000
0010
0100
0010
1000
0001
0100
0010
1000
0100
0010
0001
1000
0010
,
0100
0000
0010
0000
1000
0000
0001
0000
0100
0000
0010
0000
1000
0000
0100
0000
0010
0000
0001
0000
1000
0000
0010
0000
0100
0000
0010
0000
1000
0000
0001
0000
0100
0000
0010
0000
1000
0000
0000
0000
0000
0000
0001
0000
0000
0010
0000
0000
,
0100
1000
0001
0100
0001
0000
1000
0100
,
1000
0000
0001
0000
0100
0010
1000
0000
0001
0000
0000
0000
0010
0000
0100
0000
,
1000
0001
0100
0001
1000
0010
1000
0001
0100
0010
1000
0001
1000
0100
0010
0001
1000
0100
1000
0001
0010
0100
1000
0001
,
0100
0000
0010
0000
0100
0000
0010
0000
1000
0000
0001
0000
0010
0000
0100
0000
0010
0000
0100
0000
1000
0000
0001
0000
0100
0000
0000
0000
0000
0000
0000
0000
0000
0000
0000
0000
0001
0000
0000
0010
0000
0000
0100
0000
0000
1000
0000
0000
,
0001
0000
0000
0000
0000
0000
0001
0010
0001
1000
0010
1000
,
0001
0000
0000
0000
0100
0000
0000
0000
0001
0000
0000
0000
1000
0000
0000
0000
0100
0000
0000
0000
0010
0000
0000
0000
0001
0000
0000
0000
1000
0000
0000
0000
0000
0000
0000
0000
0200
0000
0000
0300
0000
0000
0000
0000
0000
0000
0000
0000
,
0010
0000
0000
0000
0000
0001
1000
0100
1000
0001
0100
0001
,
1000
0000
0000
0000
0100
0000
0000
0000
1000
0000
0000
0000
0010
0000
0000
0000
0100
0000
0000
0000
0001
0000
0000
0000
1000
0000
0000
0000
0001
0000
0000
0000
0000
0000
0000
0000
2000
0000
0000
3000
0000
0000
0000
0000
0000
0000
0000
0000
,
2000
0000
0000
3000
0000
0000
0000
0000
0000
0000
0000
0000
0001
0000
0100
0000
0001
0000
1000
0000
0000
0000
0000
0000
0001
0000
0100
0000
0001
0000
1000
0000
0000
0000
0000
0000
0001
0000
0100
0000
0001
0000
1000
0000
0000
0000
0000
0000
,
0000
0000
0001
0000
0010
0100
0010
0000
0001
0100
0000
0000
0000
0000
0020
0030
,
0100
0000
0000
0001
0000
0000
1000
0000
0000
0001
0000
0000
0000
0000
0000
0010
0000
0000
0001
0000
0000
0100
0010
1000
,
0001
0100
0001
1000
0010
1000
0100
0010
0100
1000
0001
1000
0010
0000
0000
0000
0000
0000
1000
0000
0001
0000
1000
0000
,
0001
0000
1000
0010
1000
0001
0010
0100
,
0010
0001
1000
0010
0100
0001
0001
0010
,
0100
0000
1000
0100
0010
0100
1000
0010
,
0100
0000
0010
0000
1000
0000
0001
0000
0100
0000
0010
0000
0100
0000
0100
0001
,
1000
0100
1000
0001
0100
0010
0100
0001
,
1000
0100
0010
0001
1000
0010
1000
0100
,
0010
0001
1000
0001
0100
0010
0100
0001
,
1000
0000
0000
0000
0000
0000
0100
0000
0000
0000
0000
0000
0010
0000
0000
0000
0000
0000
0001
0000
0000
0000
0000
0000
0100
0000
0000
0000
0000
0000
0010
0000
0000
1000
0000
0000
0100
0000
0000
0000
0000
0000
1000
0000
0001
0000
1000
0000
,
0010
0100
0010
1000
0100
0010
0001
0100
0001
1000
0000
0000
0000
0000
0000
0001
0100
0001
0010
0100
1000
0001
0010
0001
,
0100
0010
1000
0100
1000
0001
0010
0100
1000
0010
0100
0001
0100
0010
1000
0100
0000
0000
0000
0000
0000
1000
0100
0010
,
0001
0100
0001
1000
0010
0100
0010
1000
0001
1000
0010
0100
0001
0010
0100
1000
0100
0010
0001
1000
0100
0010
0100
1000
,
0010
1000
0001
0100
0001
1000
0100
0010
0100
1000
0001
0010
0001
0100
0010
1000
0000
0000
0001
0010
0100
1000
0000
0000
,
0010
0000
0000
0000
0100
0000
0000
0000
0010
0000
0000
0000
1000
0000
0000
0000
0100
0000
0000
0000
1000
0000
0000
0000
0010
0000
0000
0000
0100
0000
0000
0000
0000
0000
0000
0000
0200
0000
0000
0300
0000
0000
0000
0000
0000
0000
0000
0000
,
0001
0000
0000
0000
0010
0000
0000
0000
0001
0000
0000
0000
0100
0000
0000
0000
0010
0000
0000
0000
0100
0000
0000
0000
0001
0000
0000
0000
0010
0000
0000
0000
0000
0000
0000
0000
0001
0000
0000
0010
0000
0000
0100
0000
0000
1000
0000
0000
,
0010
1000
0001
1000
0010
0100
0001
0010
0100
1000
0100
0010
0001
1000
0100
1000
,
0010
0100
0010
1000
0010
0100
0001
1000
0001
0010
0100
1000
0001
0010
0100
0010
,
0001
0010
0001
0010
0100
1000
0100
1000
,
0010
0000
1000
0000
0010
0000
0100
0000
0010
0000
0100
0000
0010
0000
1000
0100
,
0010
0001
0010
0001
1000
0100
1000
0010
,
1000
0000
0000
0010
0000
0000
0100
0000
0000
0010
0000
0000
0100
0000
0000
0010
0000
0000
1000
0000
0001
0000
1000
0000
,
0001
0010
0001
0100
0010
0000
1000
0100
,
1000
0000
0000
0010
0000
0000
0100
0000
0000
0001
0000
0000
0010
0000
0000
0000
0000
0000
0001
0000
1000
0000
0001
0000
,
1000
0010
0100
0001
1000
0100
0010
0001
,
0200
0000
0300
0000
0020
0000
0030
0000
2000
0000
3000
0000
0001
0010
0100
1000
,
0100
0010
0001
1000
0100
0010
0001
0100
0010
1000
0001
0010
0100
0010
0001
1000
0100
0010
0001
0100
0010
1000
0001
0010
,
0100
0010
0001
1000
0100
0010
0001
0100
0010
1000
0001
0010
0100
0010
0001
1000
0100
0010
0001
0100
0010
1000
0001
0010
,
0100
0010
0001
1000
0100
0010
0001
0100
0010
1000
0001
0010
0100
0010
0001
1000
0100
0010
0001
0100
0010
1000
0001
0010
,
0100
0000
0010
0000
0001
0000
1000
0000
0100
0000
0010
0000
0001
0000
0100
0000
0010
0000
1000
0000
0001
0000
0010
0000
0100
0000
0010
0000
0001
0000
1000
0000
0100
0000
0010
0000
0001
0000
0000
0000
0000
0000
1000
0000
0000
0010
0000
0000
,
0100
0001
1000
0100
1000
0000
0001
0100
,
0001
0000
1000
0000
0100
0010
0001
0000
1000
0000
0000
0000
0010
0000
0100
0000
,
0001
1000
0100
1000
0001
0010
0001
1000
0100
0010
0001
1000
0001
0100
0010
1000
0001
0100
0001
1000
0010
0100
0001
1000
,
0100
0000
0010
0000
0100
0000
0010
0000
0001
0000
1000
0000
0010
0000
0100
0000
0010
0000
0100
0000
0001
0000
1000
0000
0100
0000
0000
0000
0000
0000
0000
0000
0000
0000
0000
0000
1000
0000
0000
0010
0000
0000
0100
0000
0000
0001
0000
0000
,
1000
0000
0000
0000
0100
0000
0000
0000
0010
0000
0000
0000
0001
0000
0000
0000
1000
0000
0000
0000
0100
0000
0000
0000
1000
0000
0000
0000
0010
0000
0000
0000
0000
0000
0000
0000
2000
0000
0000
3000
0000
0000
0000
0000
0001
0000
0000
0000
,
1000
0000
0000
0000
0010
0000
0000
0000
0100
0000
0000
0000
0001
0000
0000
0000
1000
0000
0000
0000
0010
0000
0000
0000
1000
0000
0000
0000
0100
0000
0000
0000
0000
0000
0000
0000
2000
0000
0000
3000
0000
0000
0000
0000
0001
0000
0000
0000
,
0010
0000
0000
0000
0100
0000
0000
0000
0010
0000
0000
0000
0001
0000
0000
0000
1000
0000
0000
0000
0100
0000
0000
0000
1000
0000
0000
0000
0010
0000
0000
0000
0000
0000
0000
0000
2000
0000
0000
3000
0000
0000
0000
0000
0001
0000
0000
0000
,
0100
0000
0000
0000
0010
0000
0000
0000
1000
0000
0000
0000
0010
0000
0000
0000
0100
0000
0000
0000
0001
0000
0000
0000
0010
0000
0000
0000
0000
0000
0000
0000
0000
0000
0000
0000
0200
0000
0000
0300
0000
0000
0000
0000
0000
0000
0000
0000
,
1000
0000
0000
0000
0100
0000
0000
0000
1000
0000
0000
0000
0001
0000
0000
0000
0010
0000
0000
0000
0001
0000
0000
0000
0100
0000
0000
0000
0000
0000
0000
0000
0000
0000
0000
0000
0002
0000
0000
0003
0000
0000
0000
0000
0000
0000
0000
0000
,
0100
0000
0000
0000
0010
0000
0000
0000
1000
0000
0000
0000
0001
0000
0000
0000
0100
0000
0000
0000
0001
0000
0000
0000
0010
0000
0000
0000
0000
0000
0000
0000
0000
0000
0000
0000
0002
0000
0000
0003
0000
0000
0000
0000
1000
0000
0000
0000
,
0100
0010
0001
1000
0010
0100
0001
1000
0100
1000
0001
0100
,
0010
0000
0000
0000
0000
0000
1000
0100
0010
0001
0100
0010
1000
0000
0000
0000
0000
0000
0001
0000
0000
0000
0000
0000
,
1000
0100
0010
0001
1000
0100
1000
0010
0100
0001
1000
0000
,
0010
0000
0000
0000
0100
0000
0000
0000
0010
0000
0000
0000
1000
0000
0000
0000
0001
0000
0000
0000
0100
0000
0000
0000
0001
0000
0000
0000
0010
0000
0000
0000
0000
0000
0000
0000
0002
0000
0000
0003
0000
0000
0000
0000
0010
0000
0000
0000
,
0100
0000
0000
0000
1000
0000
0000
0000
0001
0000
0000
0000
0010
0000
0000
0000
0100
0000
0000
0000
0010
0000
0000
0000
0001
0000
0000
0000
0100
0000
0000
0000
0000
0000
0000
0000
0002
0000
0000
0003
0000
0000
0000
0000
1000
0000
0000
0000
,
0010
0000
0000
0000
1000
0000
0000
0000
0001
0000
0000
0000
0100
0000
0000
0000
0010
0000
0000
0000
0100
0000
0000
0000
0001
0000
0000
0000
0010
0000
0000
0000
0000
0000
0000
0000
0002
0000
0000
0003
0000
0000
0000
0000
1000
0000
0000
0000
,
0100
0000
0000
0000
0010
0000
0000
0000
0001
0000
0000
0000
1000
0000
0000
0000
0010
0000
0000
0000
1000
0000
0000
0000
0100
0000
0000
0000
0000
0000
0000
0000
0000
0000
0000
0000
2000
0000
0000
3000
0000
0000
0000
0000
0001
0000
0000
0000
,
0100
0000
0000
0000
0010
0000
0000
0000
1000
0000
0000
0000
0001
0000
0000
0000
0010
0000
0000
0000
0001
0000
0000
0000
0100
0000
0000
0000
0000
0000
0000
0000
0000
0000
0000
0000
0002
0000
0000
0003
0000
0000
0000
0000
1000
0000
0000
0000
,
0100
0000
0000
0000
1000
0000
0000
0000
0001
0000
0000
0000
0100
0000
0000
0000
0010
0000
0000
0000
1000
0000
0000
0000
0100
0000
0000
0000
0000
0000
0000
0000
0000
0000
0000
0000
2000
0000
0000
3000
0000
0000
0000
0000
0001
0000
0000
0000
,
0100
0000
0000
0000
0001
0000
0000
0000
1000
0000
0000
0000
0100
0000
0000
0000
0010
0000
0000
0000
0001
0000
0000
0000
0100
0000
0000
0000
0000
0000
0010
0000
0000
1000
0000
0000
0001
0000
0000
0000
0000
0000
0000
0000
0001
0000
0000
0000
,
0010
0000
0000
0000
0100
0000
0000
0000
1000
0000
0000
0000
0001
0000
0000
0000
0100
0000
0000
0000
0001
0000
0000
0000
0010
0000
0000
0000
0000
0000
0000
0000
0000
0000
0000
0000
0002
0000
0000
0003
0000
0000
0000
0000
1000
0000
0000
0000
,
0010
0000
0000
0000
0100
0000
0000
0000
0001
0000
0000
0000
1000
0000
0000
0000
0100
0000
0000
0000
1000
0000
0000
0000
0010
0000
0000
0000
0000
0000
0000
0000
0000
0000
0000
0000
2000
0000
0000
3000
0000
0000
0000
0000
0000
0000
0000
0000
,
0001
0100
0001
0010
0100
1000
0001
0100
0001
0010
0100
1000
0010
0100
0001
1000
0000
0000
0000
0000
0000
0001
0100
0001
,
1000
0000
0100
0000
1000
0000
0010
0000
0100
0000
0001
0000
1000
0000
0100
0000
1000
0000
0010
0000
0100
0000
0001
0000
0010
0000
0100
0000
1000
0000
0001
0000
0000
0000
0000
0000
2000
0000
0000
3000
0000
0000
0001
0000
0000
1000
0000
0000
,
0100
0000
0010
0000
0001
0000
1000
0000
0100
0000
1000
0000
0001
0000
0100
0000
0010
0000
1000
0000
0001
0000
0100
0000
0001
0000
0010
0000
0100
0000
1000
0000
0000
0000
0000
0000
0002
0000
0000
0003
0000
0000
1000
0000
0100
0000
0010
0000
,
0001
0000
0100
0000
0001
0000
0100
0000
0010
0000
1000
0000
0001
0000
0010
0000
0100
0000
1000
0000
0001
0000
1000
0000
0010
0000
0100
0000
0010
0000
1000
0000
0000
0000
0000
0000
0200
0000
0000
0300
0000
0000
0010
0000
0001
0000
1000
0000
,
0010
0000
0100
0000
0010
0000
1000
0000
0001
0000
0100
0000
0001
0000
1000
0000
0100
0000
0010
0000
0001
0000
1000
0000
0001
0000
0100
0000
0010
0000
0100
0000
0000
0001
0000
0000
1000
0000
0000
0010
0000
0000
1000
0000
0000
0001
0000
0000
,
0010
0000
0100
0000
0010
0000
0001
0000
1000
0000
0100
0000
1000
0000
0010
0000
0100
0000
0001
0000
0100
0000
0010
0000
1000
0000
0100
0000
0010
0000
0100
0000
0000
1000
0000
0000
0001
0000
0000
0010
0000
0000
0100
0000
0000
1000
0000
0000
,
0001
0100
0001
0100
0010
1000
0010
1000
,
0100
0000
1000
0000
0100
0000
0010
0000
0100
0000
0010
0000
0100
0000
1000
0010
,
0100
0001
0100
0001
1000
0010
1000
0100
,
1000
0000
0000
0100
0000
0000
0010
0000
0000
0100
0000
0000
0010
0000
0000
0100
0000
0000
1000
0000
0001
0000
1000
0000
,
0001
0100
0001
0010
0100
0000
1000
0010
,
1000
0000
0000
0100
0000
0000
0010
0000
0000
0001
0000
0000
0100
0000
0000
0000
0000
0000
0001
0000
1000
0000
0001
0000
,
1000
0100
0010
0001
1000
0010
0100
0001
,
0020
0000
0030
0000
0200
0000
0300
0000
2000
0000
3000
0000
0001
0100
0010
1000
,
0010
0100
0001
1000
0010
0100
0001
0010
0100
1000
0001
0100
0010
0100
0001
1000
0010
0100
0001
0010
0100
1000
0001
0100
,
0010
0100
0001
1000
0010
0100
0001
0010
0100
1000
0001
0100
0010
0100
0001
1000
0010
0100
0001
0010
0100
1000
0001
0100
,
0010
0100
0001
1000
0010
0100
0001
0010
0100
1000
0001
0100
0010
0100
0001
1000
0010
0100
0001
0010
0100
1000
0001
0100
,
0010
0000
0100
0000
0001
0000
1000
0000
0010
0000
0100
0000
0001
0000
0010
0000
0100
0000
1000
0000
0001
0000
0100
0000
0010
0000
0100
0000
0001
0000
1000
0000
0010
0000
0100
0000
0001
0000
0000
0000
0000
0000
1000
0000
0000
0100
0000
0000
,
0010
0001
1000
0010
1000
0000
0001
0010
,
0001
0000
1000
0000
0010
0100
0001
0000
1000
0000
0000
0000
0100
0000
0010
0000
,
0001
1000
0010
1000
0001
0100
0001
1000
0010
0100
0001
1000
0001
0010
0100
1000
0001
0010
0001
1000
0100
0010
0001
1000
,
0010
0000
0100
0000
0010
0000
0100
0000
0001
0000
1000
0000
0100
0000
0010
0000
0100
0000
0010
0000
0001
0000
1000
0000
0010
0000
0000
0000
0000
0000
0000
0000
0000
0000
0000
0000
1000
0000
0000
0100
0000
0000
0010
0000
0000
0001
0000
0000
,
1000
0000
0000
0000
0000
0000
0000
0010
,
0000
0010
0010
0000
0000
0000
0000
0000
,
2000
3000
0000
0002
0003
0000
0020
0030
,
0000
0000
0200
0300
0000
0000
0010
0000
,
0001
0000
0000
0000
0000
0000
0000
1000
,
0000
1000
1000
0000
0000
0000
0000
0000
,
0020
0030
0000
2000
3000
0000
0200
0300
,
0000
0000
0020
0030
0000
0000
0001
0000
,
1000
0000
0010
1000
0010
0000
1000
0001
,
1000
0000
0001
0000
0010
0001
0100
0000
0010
0000
1000
0000
0000
0000
0000
0000
,
0001
0000
0010
0001
0010
0000
0001
1000
,
0001
0000
1000
0000
0010
1000
0100
0000
0010
0000
0001
0000
0100
0000
0010
1000
,
0001
0000
0100
0001
0100
0000
0001
1000
,
0001
0000
1000
0000
0100
1000
0010
0000
0100
0000
0000
0000
0000
0000
0000
0000
,
0001
0000
0010
0001
0010
0000
0001
1000
,
0001
0000
1000
0000
0010
1000
0100
0000
1000
0000
1000
0001
1000
0000
0001
0000
;

//---------------dance-single - @@----------------
#NOTES:
     dance-single:
     @@:
     Medium:
     10:
     0.743,0.934,0.000,0.241,0.869,1050.000,0.000,51.000,0.000,0.000:
0000
0000
0000
0000
,
0000
0000
0000
0000
,
0002
0003
0000
2000
3000
0000
0200
0300
,
0000
0000
0000
0000
0020
0000
0030
0000
0000
0000
0000
0000
0001
0010
0000
0000
,
0001
0000
0000
0000
1000
0000
0000
0010
,
0000
0100
0000
0001
,
1000
0001
1000
0010
0100
0001
0100
0010
1000
0001
1000
0100
0010
0001
0100
0010
,
1000
0001
0010
0100
1000
0001
1000
0010
0100
0010
1000
0001
0100
0010
1000
0100
,
0010
0000
0010
0000
,
0010
0000
0010
0000
,
0010
0001
0100
0010
1000
0100
1000
0001
0010
0001
0100
0010
1000
0100
1000
0001
,
0010
0001
0100
0010
1000
0100
1000
0001
0010
0001
0100
0010
1000
0000
0001
0000
,
0100
0001
1000
0100
1000
0000
0001
1000
,
0100
0000
1000
0000
0001
0100
0010
0000
1000
0000
0000
0000
0010
0000
0100
0000
,
0001
0010
0001
0010
0001
0100
0001
0100
,
0020
0000
0030
0000
2000
0000
3000
0000
0100
0000
0000
0000
0010
0001
1000
0010
,
0100
0001
0010
0100
1000
0010
1000
0001
0100
0001
0010
0100
1000
0010
1000
0001
,
0100
0001
0010
0100
1000
0010
1000
0001
0100
0001
0010
0100
1000
0010
1000
0001
,
0100
0001
0010
0100
1000
0010
1000
0001
0100
0001
0010
0100
1000
0010
1000
0001
,
0100
0001
0010
0100
1000
0010
1000
0001
0100
0001
0010
0100
1000
0000
0001
0010
,
0100
1000
0001
0100
0001
0000
1000
0100
,
1000
0000
0001
0000
0100
0010
1000
0000
0001
0000
0000
0000
0010
0000
0100
0000
,
1000
0010
1000
0010
1000
0100
1000
0100
,
0020
0000
0030
0000
0002
0000
0003
0000
0100
0000
0000
0000
0001
0010
0100
1000
,
0001
0000
0000
0000
0000
0000
0001
0010
0001
1000
0010
1000
,
0001
0000
0000
0000
0100
0000
0000
0000
0001
0000
0000
0000
1000
0000
0000
0000
0100
0000
0000
0000
0010
0000
0000
0000
0001
0000
0000
0000
1000
0000
0000
0000
0000
0000
0000
0000
0200
0000
0000
0300
0000
0000
0000
0000
0000
0000
0000
0000
,
0010
0000
0000
0000
0000
0001
1000
0100
1000
0001
0100
0001
,
1000
0000
0000
0000
0100
0000
0000
0000
1000
0000
0000
0000
0010
0000
0000
0000
0100
0000
0000
0000
0001
0000
0000
0000
1000
0000
0000
0000
0001
0000
0000
0000
0000
0000
0000
0000
2000
0000
0000
3000
0000
0000
0000
0000
0000
0000
0000
0000
,
2000
3000
0000
0000
0002
0003
0000
0000
0002
0003
0000
0000
0002
0003
0000
0000
,
0000
0000
0001
0000
0010
0100
0010
0000
0001
0100
0000
0000
0000
0000
0020
0030
,
0100
0000
0001
0000
1000
0000
0001
0000
0000
0000
0010
0000
0001
0000
0100
0010
,
1000
0000
0000
0000
0000
0000
0001
0000
0000
0010
0000
0000
0100
0000
0000
1000
0000
0000
0010
0000
0000
1000
0000
0000
0100
0000
0000
0000
0000
0000
0000
0000
0000
0000
0000
0000
1000
0000
0000
0000
0001
0000
0000
0000
1000
0000
0000
0000
,
0001
0000
1000
0010
1000
0001
0010
0100
,
0010
0001
1000
0010
0100
0001
0001
0010
,
0100
0000
1000
0100
0010
0100
1000
0010
,
0100
0000
0010
0000
1000
0000
0001
0000
0100
0000
0010
0000
0100
0000
0100
0001
,
1000
0100
1000
0001
0100
0010
0100
0001
,
1000
0100
0010
0001
1000
0010
1000
0100
,
0010
0001
1000
0001
0100
0010
0100
0001
,
1000
0000
0000
0000
0000
0000
0100
0000
0000
0000
0000
0000
0010
0000
0000
0000
0000
0000
0001
0000
0000
0000
0000
0000
0100
0000
0000
0000
0000
0000
0010
0000
0000
1000
0000
0000
0100
0000
0000
0000
0000
0000
0000
0000
1000
0000
0000
0000
,
0010
0100
0001
0010
0100
0000
0000
0000
1000
0100
0010
0001
,
0100
0000
0001
0000
1000
0000
0010
0000
1000
0000
0100
0000
0010
0000
0001
0000
0000
0000
0000
0000
0000
0100
0000
0000
,
0010
0100
0001
0000
0001
0000
0010
0000
0100
0010
0001
0000
0001
0000
0100
0010
,
1000
0000
1000
0000
1000
0100
0010
0000
0001
0100
0000
0000
0010
1000
0000
0000
,
0010
0000
0000
0000
0100
0000
0000
0000
0010
0000
0000
0000
1000
0000
0000
0000
0100
0000
0000
0000
1000
0000
0000
0000
0010
0000
0000
0000
0100
0000
0000
0000
0000
0000
0000
0000
0200
0000
0000
0300
0000
0000
0000
0000
0000
0000
0000
0000
,
0001
0000
0000
0000
0010
0000
0000
0000
0001
0000
0000
0000
0100
0000
0000
0000
0010
0000
0000
0000
0100
0000
0000
0000
0001
0000
0000
0000
0010
0000
0000
0000
0000
0000
0000
0000
0001
0000
0000
0010
0000
0000
0100
0000
0000
1000
0000
0000
,
0010
1000
0001
1000
0010
0100
0001
0010
0100
1000
0100
0010
0001
1000
0100
1000
,
0010
0100
0010
1000
0010
0100
0001
1000
0001
0010
0100
1000
0001
0010
0100
0010
,
0001
0010
0001
0010
0100
1000
0100
1000
,
0010
0000
1000
0000
0010
0000
0100
0000
0010
0000
0100
0000
0010
0000
1000
0100
,
0010
0001
0010
0001
1000
0100
1000
0010
,
1000
0000
0000
0010
0000
0000
0100
0000
0000
0010
0000
0000
0100
0000
0000
0010
0000
0000
1000
0000
0001
0000
1000
0000
,
0001
0010
0001
0100
0010
0000
1000
0100
,
1000
0000
0000
0010
0000
0000
0100
0000
0000
0001
0000
0000
0010
0000
0000
0000
0000
0000
0001
0000
1000
0000
0001
0000
,
1000
0010
0100
0001
1000
0100
0010
0001
,
0200
0000
0300
0000
0020
0000
0030
0000
2000
0000
3000
0000
0001
0010
0001
1000
,
0100
1000
0010
0100
0001
0010
0001
1000
0100
1000
0010
0100
0001
0010
0001
1000
,
0100
1000
0010
0100
0001
0010
0001
1000
0100
1000
0010
0100
0001
0010
0001
1000
,
0100
1000
0010
0100
0001
0010
0001
1000
0100
1000
0010
0100
0001
0010
0001
1000
,
0100
1000
0010
0100
0001
0010
0001
1000
0100
1000
0010
0100
0001
0000
1000
0100
,
0010
0001
1000
0010
1000
0000
0001
0010
,
0001
0000
1000
0000
0010
0100
0001
0000
1000
0000
0000
0000
0100
0000
0010
0000
,
0001
0100
0001
0100
0001
0010
0001
0010
,
0200
0000
0300
0000
2000
0000
3000
0000
0010
0000
0000
0000
1000
0010
0100
0001
,
1000
0000
0000
0000
0100
0000
0000
0000
0010
0000
0000
0000
0001
0000
0000
0000
1000
0000
0000
0000
0100
0000
0000
0000
1000
0000
0000
0000
0010
0000
0000
0000
0000
0000
0000
0000
2000
0000
0000
3000
0000
0000
0000
0000
0001
0000
0000
0000
,
1000
0000
0000
0000
0010
0000
0000
0000
0100
0000
0000
0000
0001
0000
0000
0000
1000
0000
0000
0000
0010
0000
0000
0000
1000
0000
0000
0000
0100
0000
0000
0000
0000
0000
0000
0000
2000
0000
0000
3000
0000
0000
0000
0000
0001
0000
0000
0000
,
0010
0000
0000
0000
0100
0000
0000
0000
0010
0000
0000
0000
0001
0000
0000
0000
1000
0000
0000
0000
0100
0000
0000
0000
1000
0000
0000
0000
0010
0000
0000
0000
0000
0000
0000
0000
2000
0000
0000
3000
0000
0000
0000
0000
0001
0000
0000
0000
,
0100
0000
0000
0000
0010
0000
0000
0000
1000
0000
0000
0000
0010
0000
0000
0000
0100
0000
0000
0000
0001
0000
0000
0000
0010
0000
0000
0000
0000
0000
0000
0000
0000
0000
0000
0000
0200
0000
0000
0300
0000
0000
0000
0000
0000
0000
0000
0000
,
1000
0000
0000
0000
0100
0000
0000
0000
1000
0000
0000
0000
0001
0000
0000
0000
0010
0000
0000
0000
0001
0000
0000
0000
0100
0000
0000
0000
0000
0000
0000
0000
0000
0000
0000
0000
0002
0000
0000
0003
0000
0000
0000
0000
0000
0000
0000
0000
,
0100
0000
0000
0000
0010
0000
0000
0000
1000
0000
0000
0000
0001
0000
0000
0000
0100
0000
0000
0000
0001
0000
0000
0000
0010
0000
0000
0000
0000
0000
0000
0000
0000
0000
0000
0000
0002
0000
0000
0003
0000
0000
0000
0000
1000
0000
0000
0000
,
0100
0010
0001
1000
0010
0100
0001
1000
0100
1000
0001
0100
,
0010
0000
0000
0000
1000
0010
1000
0100
0010
0001
0000
0000
0001
0000
0000
0000
,
1000
0100
0010
0001
1000
0100
1000
0010
0100
0001
1000
0000
,
0010
0000
0000
0000
0100
0000
0000
0000
0010
0000
0000
0000
1000
0000
0000
0000
0001
0000
0000
0000
0100
0000
0000
0000
0001
0000
0000
0000
0010
0000
0000
0000
0000
0000
0000
0000
0002
0000
0000
0003
0000
0000
0000
0000
0010
0000
0000
0000
,
0100
0000
0000
0000
1000
0000
0000
0000
0001
0000
0000
0000
0010
0000
0000
0000
0100
0000
0000
0000
0010
0000
0000
0000
0001
0000
0000
0000
0100
0000
0000
0000
0000
0000
0000
0000
0002
0000
0000
0003
0000
0000
0000
0000
1000
0000
0000
0000
,
0010
0000
0000
0000
1000
0000
0000
0000
0001
0000
0000
0000
0100
0000
0000
0000
0010
0000
0000
0000
0100
0000
0000
0000
0001
0000
0000
0000
0010
0000
0000
0000
0000
0000
0000
0000
0002
0000
0000
0003
0000
0000
0000
0000
1000
0000
0000
0000
,
0100
0000
0000
0000
0010
0000
0000
0000
0001
0000
0000
0000
1000
0000
0000
0000
0010
0000
0000
0000
1000
0000
0000
0000
0100
0000
0000
0000
0000
0000
0000
0000
0000
0000
0000
0000
2000
0000
0000
3000
0000
0000
0000
0000
0001
0000
0000
0000
,
0100
0000
0000
0000
0010
0000
0000
0000
1000
0000
0000
0000
0001
0000
0000
0000
0010
0000
0000
0000
0001
0000
0000
0000
0100
0000
0000
0000
0000
0000
0000
0000
0000
0000
0000
0000
0002
0000
0000
0003
0000
0000
0000
0000
1000
0000
0000
0000
,
0100
0000
0000
0000
1000
0000
0000
0000
0001
0000
0000
0000
0100
0000
0000
0000
0010
0000
0000
0000
1000
0000
0000
0000
0100
0000
0000
0000
0000
0000
0000
0000
0000
0000
0000
0000
2000
0000
0000
3000
0000
0000
0000
0000
0001
0000
0000
0000
,
0100
0000
0000
0000
0001
0000
0000
0000
1000
0000
0000
0000
0100
0000
0000
0000
0010
0000
0000
0000
0001
0000
0000
0000
0100
0000
0000
0000
0000
0000
0010
0000
0000
1000
0000
0000
0001
0000
0000
0000
0000
0000
0000
0000
0001
0000
0000
0000
,
0010
0000
0000
0000
0100
0000
0000
0000
1000
0000
0000
0000
0001
0000
0000
0000
0100
0000
0000
0000
0001
0000
0000
0000
0010
0000
0000
0000
0000
0000
0000
0000
0000
0000
0000
0000
0002
0000
0000
0003
0000
0000
0000
0000
1000
0000
0000
0000
,
0010
0000
0000
0000
0100
0000
0000
0000
0001
0000
0000
0000
1000
0000
0000
0000
0100
0000
0000
0000
1000
0000
0000
0000
0010
0000
0000
0000
0000
0000
0000
0000
0000
0000
0000
0000
2000
0000
0000
3000
0000
0000
0000
0000
0000
0000
0000
0000
,
0010
0100
0010
1000
0100
1000
0010
0100
0000
0000
0000
0001
,
0010
0000
0000
0000
0100
0000
0000
0000
0010
0000
0000
0000
0001
0000
0000
0000
0100
0000
0000
0000
0001
0000
0000
0000
0010
0000
0000
0000
0100
0000
0000
0000
0000
0000
0000
0000
2000
0000
0000
3000
0000
0000
0001
0000
0000
1000
0000
0000
,
0100
0000
0000
0000
0010
0000
0000
0000
0001
0000
0000
0000
0100
0000
0000
0000
0010
0000
0000
0000
1000
0000
0000
0000
0100
0000
0000
0000
0010
0000
0000
0000
0000
0000
0000
0000
0002
0000
0000
0003
0000
0000
0000
0000
1000
0000
0000
0000
,
0010
0000
0000
0000
0100
0000
0000
0000
0001
0000
0000
0000
0010
0000
0000
0000
0100
0000
0000
0000
1000
0000
0000
0000
0010
0000
0000
0000
1000
0000
0000
0000
0000
0000
0000
0000
0200
0000
0000
0300
0000
0000
0000
0000
0010
0000
0000
0000
,
0001
0010
0100
1000
0001
0010
0001
1000
0010
0100
0010
1000
0001
0100
0010
0100
,
0001
0010
0100
1000
0010
1000
0100
0010
0001
0100
0010
1000
0001
0010
0100
1000
,
0001
0100
0001
0100
0010
1000
0010
1000
,
0100
0000
1000
0000
0100
0000
0010
0000
0100
0000
0010
0000
0100
0000
1000
0010
,
0100
0001
0100
0001
1000
0010
1000
0100
,
1000
0000
0000
0100
0000
0000
0010
0000
0000
0100
0000
0000
0010
0000
0000
0100
0000
0000
1000
0000
0001
0000
1000
0000
,
0001
0100
0001
0010
0100
0000
1000
0010
,
1000
0000
0000
0100
0000
0000
0010
0000
0000
0001
0000
0000
0100
0000
0000
0000
0000
0000
0001
0000
1000
0000
0001
0000
,
1000
0100
0010
0001
1000
0010
0100
0001
,
0020
0000
0030
0000
0200
0000
0300
0000
2000
0000
3000
0000
0001
0100
0001
1000
,
0010
1000
0100
0010
0001
0100
0001
1000
0010
1000
0100
0010
0001
0100
0001
1000
,
0010
1000
0100
0010
0001
0100
0001
1000
0010
1000
0100
0010
0001
0100
0001
1000
,
0010
1000
0100
0010
0001
0100
0001
1000
0010
1000
0100
0010
0001
0100
0001
1000
,
0010
1000
0100
0010
0001
0100
0001
1000
0010
1000
0100
0010
0001
0000
1000
0010
,
0100
0001
1000
0100
1000
0000
0001
0100
,
0001
0000
1000
0000
0100
0010
0001
0000
1000
0000
0000
0000
0010
0000
0100
0000
,
0001
0010
0001
0010
0001
0100
0001
0100
,
0020
0000
0030
0000
2000
0000
3000
0000
0100
0000
0000
0000
1000
0100
0010
0001
,
1000
0000
0000
0000
0000
0000
0000
0010
,
0000
0010
0010
0000
0000
0000
0000
0000
,
2000
3000
0000
0002
0003
0000
0020
0030
,
0000
0000
0200
0300
0000
0000
0010
0000
,
0001
0000
0000
0000
0000
0000
0000
1000
,
0000
1000
1000
0000
0000
0000
0000
0000
,
0020
0030
0000
2000
3000
0000
0200
0300
,
0000
0000
0020
0030
0000
0000
0001
0000
,
1000
0000
0010
1000
0010
0000
1000
0001
,
1000
0000
0001
0000
0010
0001
0100
0000
0010
0000
1000
0000
0000
0000
0000
0000
,
0001
0000
0010
0001
0010
0000
0001
1000
,
0001
0000
1000
0000
0010
1000
0100
0000
0010
0000
0001
0000
0100
0000
0010
1000
,
0001
0000
0100
0001
0100
0000
0001
1000
,
0001
0000
1000
0000
0100
1000
0010
0000
0100
0000
0000
0000
0000
0000
0000
0000
,
0001
0000
0010
0001
0010
0000
0001
1000
,
0001
0000
1000
0000
0010
1000
0100
0000
1000
0000
1000
0001
1000
0000
0001
0000
;
