#TITLE:Eh, Du Alte Ficksau;
#SUBTITLE:;
#ARTIST:Knorkator;
#TITLETRANSLIT:;
#SUBTITLETRANSLIT:;
#ARTISTTRANSLIT:;
#CREDIT:;
#BANNER:ehdualteficksaubanner.png;
#BACKGROUND:ehdualteficksau.png;
#LYRICSPATH:;
#CDTITLE:sq3rtitle.png;
#MUSIC:ehdualteficksau.mp3;
#OFFSET:-0.055;
#SAMPLESTART:2.697;
#SAMPLELENGTH:12.000;
#SELECTABLE:YES;
#BPMS:0.000=200.021;
#STOPS:103.000=0.300
,166.500=0.300
,293.500=0.300
;
#BGCHANGES:;
// cache tags:
#FIRSTBEAT:9.000;
#LASTBEAT:330.000;
#SONGFILENAME:Songs/IzzySM Keyboard Mega Pack/Eh, Du Alte Ficksau/ehdualteficksau.sm;
#HASMUSIC:1;
#HASBANNER:1;
#MUSICLENGTH:102.878;
// end cache tags

//---------------dance-single - ----------------
#NOTES:
     dance-single:
     :
     Challenge:
     12:
     1.000,1.000,1.000,0.204,1.000,843.000,294.000,21.000,0.000,0.000:
0000
0000
0000
0000
,
0000
0000
0000
0000
,
0000
0000
0000
0000
0001
1000
0001
1000
0001
1000
0001
1000
0001
1000
0001
1000
,
0001
1000
0001
1000
0001
1000
0001
1000
0001
1000
0001
1000
0001
0100
0001
0100
,
0001
0010
0001
0010
0100
0010
0100
0010
0100
0010
0100
0010
0100
0010
0100
0010
,
0100
0010
0100
0010
0100
0010
0100
0010
0100
0010
0100
0010
0100
1000
0100
1000
,
0100
0010
0100
0010
0001
1000
0001
1000
0001
1000
0001
1000
0001
1000
0001
1000
,
0001
1000
0001
1000
0001
1000
0001
1000
0001
1000
0001
1000
0010
1000
0010
0100
,
0001
0100
0001
0100
0010
0100
0010
0100
0010
0100
0010
0100
0010
0100
0010
0100
,
0010
0100
0010
0100
0001
1000
0001
1000
0001
1000
0001
1000
0001
1000
0001
1000
,
0001
1000
0001
1000
0011
0000
0110
0000
1100
0000
0011
0000
0110
0000
1001
0000
,
0010
0100
0101
1100
0110
0101
0001
1000
,
0010
0100
0101
1010
0101
0110
0110
1001
,
0010
1001
0110
1001
1100
0010
0100
0001
,
1000
0010
0110
0101
1010
0101
1010
0011
,
0100
1001
0011
1000
0001
1000
0001
1000
,
0010
0100
1010
0101
0110
1100
0101
1001
,
0010
1001
0110
0101
1100
0100
2020
0000
,
3030
0110
0101
1010
0110
0011
1100
1100
,
0010
0101
0101
0110
1100
0101
0110
1100
,
1000
0010
1100
0011
1010
0110
1010
0010
,
0100
0011
1001
0001
0110
0001
1001
0010
,
0100
0001
1001
1100
0011
0110
1001
0011
,
0100
1100
0110
0001
0110
1000
0110
1000
,
0001
0011
1100
0001
1001
0010
1100
1000
,
0110
0010
1001
0000
1001
0000
1001
0000
,
1000
0010
1000
0010
1000
0010
1000
0010
0100
0001
0100
0001
0100
0001
0100
0001
,
1000
0010
1000
0010
1000
0010
1000
0010
1000
0010
0100
0001
0010
0100
1000
0100
,
1000
0100
1000
0100
1000
0100
1000
0100
1000
0100
1000
0100
0010
0001
0010
0001
,
0010
0001
0010
0001
0010
0001
0010
0001
1000
0010
0100
0001
1000
0100
1000
0100
,
0010
0100
1000
0100
0010
0100
1000
0100
0010
0100
1000
0100
0010
0100
1000
0100
,
0010
0100
1000
0100
0010
0100
1000
0100
1000
0100
0010
0001
0010
0100
1000
0100
,
0010
0001
0010
0100
0010
0001
0010
0100
0010
0001
0010
0100
0010
0001
0010
0100
,
0010
0001
0010
0100
0010
0001
0010
0100
2002
0000
0000
0000
3003
0000
0110
0000
,
1100
0000
1100
0000
1100
0000
1100
0000
1100
0000
1010
0000
0010
0100
0010
0100
,
1010
0000
1010
0000
1010
0000
1010
0000
1010
0000
1100
0000
0001
0010
0001
0010
,
1100
0000
1100
0000
1100
0000
1100
0000
1100
0000
1010
0000
0010
0100
0010
0100
,
1010
0000
1010
0000
1010
0000
1010
0000
1010
0000
1100
0000
0001
0010
0001
0010
,
1100
0000
1100
0000
1100
0000
1100
0000
1100
0000
1010
0000
0010
0100
0010
0100
,
1010
0000
1010
0000
1010
0000
1010
0000
1010
0000
1100
0000
0001
0010
0001
0010
,
1100
0000
1100
0000
1100
0000
1100
0000
1100
0000
1010
0000
0001
0010
0001
0100
,
2002
3003
2002
3003
2002
3003
0110
1010
,
1100
0110
0101
1001
0010
1001
0110
1100
,
0011
1000
0010
0100
0001
1000
0101
0011
,
0110
1100
0101
0011
0100
0011
0011
0101
,
1100
0001
0010
0100
0001
1000
0011
0011
,
1010
0101
1100
1100
0010
0011
0011
1100
,
0110
0001
1000
0001
0010
0100
0110
1010
,
0101
0110
0110
0011
1000
0110
0110
0000
,
1001
0000
0000
0000
2002
0000
0000
0000
0000
0000
3003
0000
1000
0100
1000
0100
,
1000
0100
0010
0001
0010
0001
0010
0100
0010
0100
0010
0001
0010
0100
1000
0010
,
0100
0001
0010
0100
1000
0010
0100
0001
1000
0010
0100
0001
1000
0100
0010
0001
,
0100
0010
0100
0010
1000
0001
1000
0001
0010
0001
0010
0001
1000
0010
1000
0010
,
0100
0001
0010
0100
1000
0100
0010
0001
0010
0001
1000
0001
0010
0001
1000
0001
,
0010
0001
1000
0001
0010
0001
0100
0010
1000
0100
0010
0001
0100
0010
1000
0100
,
0010
0001
0010
0100
1000
0001
0010
0100
1000
0001
0010
0100
0010
0100
1000
0100
,
0010
0001
1000
0100
1000
0010
1000
0001
1000
0100
1000
0010
0102
0000
0000
0000
,
0000
0000
0000
0000
0010
0010
0010
0010
0010
0010
0010
0010
0013
0000
1001
0000
,
0110
0011
1001
0011
0000
1001
1001
0011
,
0110
0000
0000
0000
0001
0010
0001
0010
0100
1000
0100
1000
0011
0000
0110
0000
,
0011
0101
0110
0110
0000
0101
1001
1100
,
0110
0000
0000
0000
0010
0100
1000
0100
0010
0001
0010
0100
1001
0000
1100
0000
,
0011
1001
1010
0011
0000
1001
0101
1001
,
1001
0000
0000
0000
0001
0010
0001
0100
0010
1000
0100
0010
0101
0000
1100
0000
,
1001
0101
0011
1100
0000
1100
0110
0000
,
0110
0000
0220
0000
0330
0000
0011
0011
,
0011
0000
0011
0000
0011
0000
1100
0000
0010
0100
0001
0100
1010
0000
1010
0000
,
1010
0000
1010
0000
1010
0000
0101
0000
0010
0100
0001
1000
0011
0000
0011
0000
,
0011
0000
0011
0000
0011
0000
1100
0000
0010
0100
0001
0100
1010
0000
1010
0000
,
1010
0000
1010
0000
1010
0000
0101
0000
0010
0100
0001
1000
0011
0000
0011
0000
,
0011
0000
0011
0000
0011
0000
1100
0000
0010
0100
0001
0100
1010
0000
1010
0000
,
1010
0000
1010
0000
1010
0000
0101
0000
0010
0100
0001
1000
0110
0000
0110
0000
,
0110
0000
0110
0000
0110
0000
1001
0000
0001
1000
0001
1000
0220
0000
0330
0000
,
2200
3300
0022
0033
0101
0011
0101
1010
,
1001
1001
0010
0011
1010
1001
0101
0010
,
1000
0010
0100
0001
0101
0101
0110
0110
,
1001
0101
1000
1010
1001
1010
0011
0001
,
0010
1000
0100
0010
0110
0101
0110
1010
,
1100
1001
0001
0110
0011
0101
0011
0010
,
1000
0001
0010
0100
1001
1001
0110
1001
,
0101
0101
0001
1010
1001
0000
0011
0000
,
1001
0010
0100
0010
0100
0010
0100
0010
1001
0000
1000
0100
1000
0001
0010
0001
,
1000
0100
1000
0001
0010
0001
1000
0100
0110
0000
0000
0000
0000
0000
0000
0000
;
