#TITLE:Koi no Signal Rin rin rin!;
#SUBTITLE:;
#ARTIST:Hoshizora Rin;
#TITLETRANSLIT:;
#SUBTITLETRANSLIT:;
#ARTISTTRANSLIT:;
#CREDIT:;
#BANNER:Koi no Signal Rin rin rin-bn.png;
#BACKGROUND:Koi no Signal Rin rin rin-bg.png;
#LYRICSPATH:;
#CDTITLE:;
#MUSIC:Koi no Signal Rin rin rin.ogg;
#OFFSET:0.012;
#SAMPLESTART:75.615;
#SAMPLELENGTH:12.000;
#SELECTABLE:YES;
#BPMS:0.000=222.000;
#STOPS:;
#BGCHANGES:;
// cache tags:
#FIRSTBEAT:24.000;
#LASTBEAT:441.000;
#SONGFILENAME:Songs/Index Tournament 1/Koi no Signal Rin rin rin!/Koi no Signal Rin rin rin.sm;
#HASMUSIC:1;
#HASBANNER:1;
#MUSICLENGTH:128.567;
// end cache tags

//---------------dance-single - Loak----------------
#NOTES:
     dance-single:
     Loak:
     Challenge:
     10:
     0.649,0.729,0.047,0.334,0.595,535.000,6.000,43.000,12.000,0.000:
0000
0000
0000
0000
,
0000
0000
0000
0000
,
0000
0000
0000
0000
,
0000
0000
0000
0000
,
0000
0000
0000
0000
,
0000
0000
0000
0000
,
1000
0000
0010
0000
0100
0000
0010
1000
,
0000
0001
0010
0100
,
1000
0000
0000
1000
0000
0000
1000
0000
0000
0001
0000
0100
,
0010
1000
0001
0010
,
0100
0000
1000
0000
0001
0000
1000
0020
,
0000
0000
0230
0000
,
0301
0000
1000
0000
0100
0000
0010
0002
,
0000
0000
2003
0000
,
3010
0000
0100
0000
0001
0000
0010
0100
,
0000
0000
0000
1000
0000
0000
0010
0000
0000
0100
0000
0001
,
0100
0000
0000
0010
0000
1000
0100
0000
0000
0010
0000
0100
,
1000
0000
0000
0001
0000
0100
0010
0000
0000
0100
0000
0001
,
1000
0000
0000
0100
0000
0010
0001
0000
0000
1000
0000
0010
,
0100
0000
0000
0010
0000
1000
0001
0000
0010
0100
0000
1000
,
0001
0000
0000
0001
0000
0000
0100
0000
0010
0100
0000
0000
,
0001
0000
1000
0100
0000
0010
0100
0000
1000
0100
0000
0010
,
0001
0000
0000
0001
0000
0000
1000
0000
0010
0100
0000
0000
,
0010
0000
1000
0100
0000
0010
0001
0000
1000
0001
0000
0100
,
0010
0000
0000
0010
0000
0000
1000
0000
0010
0100
0000
0000
,
0001
0000
0010
0100
0000
1000
0100
0000
0010
0001
0000
1000
,
0010
0000
0000
0010
0000
0000
0100
0000
0001
0100
0000
0000
,
0001
0000
1000
0001
0000
0010
0100
1000
0100
0010
0000
0001
,
1000
0000
0010
0000
0100
0000
0010
2000
,
0000
3000
1000
0001
0000
0001
0010
0000
0000
0100
0000
0000
,
1000
0000
0001
0000
1000
0000
0010
0200
,
0000
0300
0100
0001
0000
0001
1000
0000
0000
0100
0000
0000
,
0010
0000
0001
0000
1000
0000
0001
0200
,
0000
0300
0100
0010
0000
0010
1000
0000
0000
0001
0000
0000
,
0010
0000
0000
0100
0000
0000
0010
0000
0000
0100
0000
1000
,
0001
0000
0100
0001
0000
1000
0100
0000
0010
0001
0000
0100
,
0010
0000
1000
0000
0001
0000
1000
0200
,
0000
0310
0100
1000
,
0001
0000
0000
0100
0000
0000
0010
0000
0000
0100
0000
0001
,
1000
0000
1000
0100
0000
0000
0010
0001
1000
0001
0000
0001
,
0100
0000
0010
0000
1000
0000
0001
0200
,
0000
0000
0301
0000
0000
0001
1000
0000
0000
0100
0000
1000
,
0010
0000
0100
0000
0010
0000
1000
0200
,
0000
0000
0310
0000
0000
0010
0001
0000
1000
0010
0000
0100
,
0010
0000
0100
0000
0001
0000
1000
0002
,
0000
0003
1000
0000
0000
1000
0100
0000
0000
0010
0000
0001
,
0010
0000
0000
0100
0000
0000
1000
0000
0000
0001
0000
1000
,
0010
0000
0100
0001
0000
1000
0100
0000
0010
0001
0000
1000
,
0010
0000
0100
0000
0001
0000
1000
0200
,
0000
0310
0001
1000
,
0001
0000
0000
0100
0000
0000
0010
0000
0000
1000
0000
0001
,
1000
0010
1000
0001
0010
0001
0100
0010
1000
0001
0000
0000
,
1001
0000
1000
0000
0100
0000
0010
0200
,
0000
0300
1000
0000
0001
0000
0100
0000
,
0020
0000
0000
0000
2030
0000
0000
3002
,
0000
0000
0000
0003
0010
0000
0001
0000
0000
0000
0000
0000
1000
0000
0000
0000
0000
0000
0001
0000
0000
0000
0100
0000
,
0010
0000
0000
0000
1000
0000
0001
0020
,
0000
0030
0100
0000
1000
0000
0001
0000
,
2000
0000
0000
0000
3020
0000
0000
0230
,
0000
0000
0000
0301
0000
0000
1000
0001
0100
0001
0000
0001
,
1000
0000
0010
0000
1000
0000
0001
0020
,
0000
0000
0130
0000
1000
0000
0001
0200
,
0000
0000
0310
0000
1000
0000
0001
0020
,
0000
0000
0130
0000
1000
0000
0100
0020
,
0000
0000
0031
0000
0100
0000
0010
2000
,
0000
0000
3001
0010
0000
0100
0010
0000
0000
0001
0000
0000
,
1002
0000
0000
0003
2010
0000
0000
3000
,
1002
0000
0000
0003
0021
0000
0000
0000
,
0100
0000
0000
0001
0000
0000
0130
0000
,
1000
0001
1000
0010
0100
0001
1000
0001
0010
0100
1000
0001
,
0100
0000
0010
0000
1000
0000
0100
0020
,
0000
0030
0100
0000
1000
0000
0001
0000
,
0100
0000
0000
0100
0000
0000
0100
0000
0000
0010
0000
0100
,
0001
0000
1000
0100
0000
0010
0001
0000
1000
0001
0000
1000
,
0010
0000
0100
0000
0001
0000
1000
0002
,
0000
0003
0010
0000
0100
0000
1000
0000
,
0002
0000
0000
0010
0000
0000
1000
0000
0000
0103
0000
0001
,
0010
0000
0100
1000
0000
0010
1000
0001
0100
0001
0000
0001
,
1000
0000
0100
0000
0010
0000
0001
2000
,
0000
3010
0100
0001
,
1000
0000
0000
1000
0000
0000
1000
0000
0000
0100
0000
1000
,
0010
0000
0100
0001
0000
1000
0001
0000
0010
0100
0000
1000
,
0100
0000
0010
0000
0001
0000
1000
0020
,
0000
0000
0230
0000
,
0300
0000
0001
0000
1000
0000
0100
0020
,
0000
0000
0032
0000
,
0003
0000
1000
0000
0001
0000
0100
0020
,
0000
0000
1030
0000
0001
0000
0010
0200
,
0000
0000
2300
0000
,
3002
0000
0000
0000
0000
0000
0000
0000
0203
0000
0000
0000
0000
0000
0000
0300
,
0101
0000
0000
0000
,
1000
0000
0000
0000
0000
0000
0001
0010
0100
0010
0000
0010
,
0001
0000
0000
0001
0000
0000
1000
0000
0010
1000
0000
0100
,
0010
0000
0100
1000
0000
0001
1000
0000
0010
0100
0000
0001
,
0100
0000
0000
0100
0000
0000
0010
0000
1000
0001
0000
1000
,
0100
0000
0010
0001
0000
1000
0001
0000
0100
0010
0000
0100
,
0001
0000
0000
0001
0000
0000
1000
0000
0100
1000
0000
0010
,
0100
0000
0001
1000
0000
0001
0010
0000
0100
1000
0000
0001
,
1000
0000
0000
0010
0100
0010
1000
0000
0000
0001
0010
0100
,
1000
0000
0000
0001
0100
0010
0100
0000
0000
0001
0000
0000
,
1000
0100
001M
0100
,
001M
0000
0000
0000
0100
0000
1000
0000
0000
000M
0010
0000
0100
0000
0000
0000
0001
0000
1000
0000
0000
0000
0100
0000
,
0010
0001
M100
0010
,
M100
0000
0000
0000
0001
0000
0010
0000
0000
M000
0100
0000
0010
0000
0000
0000
0001
0000
0100
0000
0000
0000
0010
0000
,
1000
0000
0000
0001
0000
1000
001M
0000
0100
0010
0000
1000
,
0M01
0000
0000
0000
0000
0000
0010
0000
0000
000M
0100
0000
0010
0000
0000
0000
0100
0000
1000
0000
0000
0000
0001
0000
,
0100
0000
0000
0010
0000
0100
M001
0000
0100
0010
0000
1000
,
010M
0000
0000
0000
0000
0000
0010
0000
0000
M000
0000
0000
0001
0000
0000
0000
0000
0000
1000
0000
0000
0000
0010
0000
,
0100
0001
1000
0001
0000
0001
0010
0000
0100
0000
1000
0000
,
0001
0000
1000
0000
0010
0000
0200
0000
0000
0000
0000
0000
,
0000
0300
0000
0000
;
