#TITLE:Future Destination;
#SUBTITLE:;
#ARTIST:Renard;
#TITLETRANSLIT:;
#SUBTITLETRANSLIT:;
#ARTISTTRANSLIT:;
#CREDIT:;
#BANNER:../banner.png;
#BACKGROUND:../bg.png;
#LYRICSPATH:;
#CDTITLE:;
#MUSIC:Future Destination.ogg;
#OFFSET:1.208;
#SAMPLESTART:93.592;
#SAMPLELENGTH:19.400;
#SELECTABLE:YES;
#DISPLAYBPM:200.000;
#BPMS:0.000=200.007;
#STOPS:;
#BGCHANGES:;
// cache tags:
#FIRSTBEAT:4.000;
#LASTBEAT:424.000;
#SONGFILENAME:Songs/Cirque du Lykan/Future Destination - [Zaia]/Future Destination.sm;
#HASMUSIC:1;
#HASBANNER:1;
#MUSICLENGTH:129.600;
// end cache tags

//---------------dance-single - Zaia - 15(low)----------------
#NOTES:
     dance-single:
     Zaia - 15(low):
     Challenge:
     15:
     1.000,1.000,0.008,1.000,1.000,1063.000,1.000,138.000,0.000,2.000:
0000
0000
0000
0000
,
2000
0000
0000
3002
0000
0000
2003
0000
,
0000
0000
3000
0000
0000
0000
0000
0000
0000
0000
0000
0000
0000
0000
0001
0100
,
0010
0100
0001
0010
0100
0000
1000
0000
,
0000
0000
0000
0000
,
0002
0000
0000
2003
0000
0000
3002
0000
,
0000
0000
0003
0000
0000
0000
0000
0000
0000
0000
0000
0000
0000
0000
1000
0100
,
0010
0100
1000
0010
0100
0000
0001
0000
,
0000
0000
0000
0000
,
2000
0000
0000
0020
0000
0000
0200
0000
,
3330
0000
0000
0000
0000
0000
0001
0100
0010
0000
1000
0000
0100
0000
0010
0100
,
1000
0000
0010
0000
0100
0000
0001
0000
0020
0030
0200
0300
2000
3000
0010
1000
,
0001
0000
0000
0000
0010
0000
0000
0000
0000
0000
0000
0000
0000
0000
0100
1000
,
0002
0000
0000
0020
0000
0000
0200
0000
,
0333
0000
0000
0000
0000
0000
1000
0100
0010
0000
0001
0000
0100
0000
0010
0100
,
0001
0010
0100
1000
0010
0100
0001
0000
,
0000
0000
0000
0000
,
2000
3020
0000
2030
3002
0000
2003
3200
,
0000
0320
0032
0000
0203
0302
0023
0230
,
2300
3020
0000
0230
0302
0000
2003
3002
,
0000
0023
0032
0000
0203
0320
2030
3200
,
0320
0032
0000
2003
3020
0000
2030
3002
,
0000
2003
3200
0000
0320
0032
0203
0320
,
2030
3200
0000
0320
0032
0000
2003
3002
,
0000
0203
0302
0000
0023
0230
2300
3020
,
0230
0302
0000
2003
3020
0000
2030
3002
,
0000
2003
3200
0000
0320
0230
2300
3020
,
0230
0302
0000
0023
0032
0000
2003
3002
,
0000
2003
3200
0000
0320
0032
0203
0320
,
2030
3200
0000
2300
3020
0000
0230
0302
,
0000
0023
0230
0000
2300
3020
0230
0302
,
0013
0100
1000
0001
,
0100
0000
0010
0000
1000
0000
0100
0000
0010
0001
1000
0001
0100
0010
1000
0001
,
0010
0000
0100
0000
1000
0000
0001
0000
0100
0000
0010
1000
0001
0000
0010
0000
,
0100
0000
0010
0000
0001
0000
1000
0010
0100
0000
0001
0000
0010
0000
0001
0000
,
1000
0010
0100
0010
1000
0100
1000
0001
,
0010
0100
1000
0001
0100
0001
1000
0010
1000
0100
0010
0001
0100
0010
1000
0001
,
0010
0000
0100
0000
1000
0001
0010
0000
0001
0000
0100
0010
1000
0000
0100
0000
,
0010
0000
0100
0000
1000
0000
0010
0100
0001
0000
0010
0000
0100
0000
1000
0000
,
0010
0000
1000
0100
0010
0000
0100
0000
1000
0000
0001
0000
1000
0000
0010
0000
,
0100
0010
1000
0001
0010
0001
1000
0100
1000
0010
0100
0001
0010
0100
1000
0001
,
0100
0010
1000
0001
1000
0010
1000
0001
0100
0001
1000
0100
1000
0010
1000
0001
,
0010
0001
1000
0001
0010
0001
1000
0100
1000
0001
0100
0001
0010
0001
1000
0010
,
1000
0001
0010
0100
1000
0001
1000
0001
0100
0010
1000
0001
0010
0100
0010
0001
,
1000
0100
1000
0001
1000
0010
1000
0001
0100
0001
0010
0001
1000
0010
1000
0001
,
0010
0100
1000
0001
1000
0100
1000
0001
0010
0001
1000
0010
1000
0100
1000
0001
,
0100
0001
1000
0001
0100
0001
1000
0010
1000
0001
0010
0001
0100
0001
1000
0100
,
1000
0001
0100
0010
1000
0001
1000
0001
0010
0100
1000
0001
0100
0010
0100
0001
,
1000
0010
1000
0001
1000
0100
1000
0001
0010
0001
0100
0001
1000
0001
1000
0010
,
0100
0001
1000
0001
0100
0001
1000
0010
1000
0001
0010
0001
0100
0001
1000
0100
,
1000
0001
1000
0100
1000
0001
0010
0001
1000
0010
1000
0100
1000
0001
0100
0001
,
1000
0100
0010
0001
1000
0001
1000
0010
0100
0001
1000
0100
0010
0100
1000
0001
,
0010
0001
1000
0001
0100
0001
1000
0010
1000
0100
1000
0001
0100
0001
1000
0100
,
0010
0001
1000
0001
0010
0001
1000
0100
1000
0001
0100
0001
0010
0001
1000
0010
,
1000
0001
1000
0010
1000
0001
0100
0001
1000
0100
1000
0010
1000
0001
0010
0001
,
1000
0000
0100
1000
0001
1000
0010
0100
0010
1000
0001
1000
0100
0010
0001
0100
,
0010
1000
0100
1000
0001
0100
0010
0100
0001
1000
0010
1000
0001
0010
0100
1000
,
0010
0100
0010
1000
0001
0100
0010
1000
0100
1000
0001
0100
0001
1000
0010
0100
,
0001
0010
0100
0010
0001
1000
0001
0100
0010
1000
0001
1000
0100
0010
0001
0100
,
0001
0010
0100
1000
0001
1000
0010
0100
0010
1000
0001
1000
0100
0010
0001
0100
,
0010
1000
0100
1000
0001
0100
0010
0100
0001
1000
0010
1000
0001
0010
0100
1000
,
0010
0100
0010
1000
0001
0010
0100
1000
0010
1000
0001
0010
0001
1000
0100
0010
,
0001
0100
0010
0100
0001
1000
0001
0010
0100
1000
0001
1000
0010
0100
0001
0010
,
0100
0000
0010
0000
0100
0000
1000
0000
0010
0000
0000
0100
0000
0000
0001
0000
,
0010
0000
0100
1000
0001
1000
0010
0100
0010
1000
0001
1000
0100
0010
0001
0100
,
0010
0000
0100
0000
0010
0000
1000
0000
0100
0000
0000
0010
0000
0000
0001
0000
,
0100
0000
0010
1000
0001
1000
0100
0010
0100
1000
0001
1000
0010
0100
0001
0010
,
0100
0000
0010
0000
0100
0000
1000
0000
0010
0000
0000
0100
0000
0000
0001
0000
,
0010
0000
0100
1000
0001
1000
0010
0100
0010
1000
0001
1000
0100
0010
0001
0100
,
0010
0000
0100
0000
0010
0000
1000
0000
0100
0000
0000
0010
0000
0000
0001
0000
,
0100
0000
0010
1000
0001
1000
0100
0010
0100
1000
0001
1000
0010
0100
0001
0010
,
0200
0000
0000
2300
0000
0000
3002
0000
,
0000
0000
0003
0000
0000
0000
0000
0000
0000
0000
0000
0000
0000
0000
0100
0010
,
1000
0100
1000
0010
0100
0000
0001
0000
,
0000
0000
0000
0000
,
2000
0000
0000
3002
0000
0000
0023
0000
,
0000
0000
0030
0000
0000
0000
0000
0000
0000
0000
0000
0000
0000
0000
0100
0010
,
0001
0100
0001
0010
0100
0000
1000
0000
,
0000
0000
0000
0000
,
1002
0003
0000
0000
0000
0000
2000
3000
0000
0000
0000
0000
0020
0030
0000
0000
0000
0000
0100
0000
0000
0000
0000
0000
0010
0000
0000
0000
0000
0000
0100
0000
0000
0000
0000
0000
0002
0003
0000
0000
0000
0000
0020
0030
0000
0000
0000
0000
,
0200
0300
0000
0000
0000
0000
0010
0000
0000
0000
0000
0000
0100
0000
0000
0000
0000
0000
1000
0000
0000
0010
0000
0000
0200
0300
0000
0000
0000
0000
0002
0003
0000
0000
0000
0000
0020
0030
0000
0000
0000
0000
0001
0000
0000
0100
0000
0000
,
0010
0000
0000
0000
0000
0000
1000
0000
0000
0000
0000
0000
0200
0300
0000
0000
0000
0000
0020
0030
0000
0000
0000
0000
0200
0300
0000
0000
0000
0000
1000
0000
0000
0000
0000
0000
0010
0000
0000
0000
0000
0000
0100
0000
0000
0001
0000
0000
,
2000
3000
0000
0000
0000
0000
0200
0300
0000
0000
0000
0000
0020
0030
0000
0000
0000
0000
0100
0000
0000
0000
0000
0000
1000
0000
0000
0000
0000
0000
0001
0000
0000
0000
0000
0000
2000
3000
0000
0000
0000
0000
0002
0003
0000
0100
0000
0000
,
0020
0030
0000
0000
0000
0000
2000
3000
0000
0000
0000
0000
0200
0300
0000
0000
0000
0000
0010
0000
0000
0000
0000
0000
0100
0000
0000
0000
0000
0000
0010
0000
0000
0000
0000
0000
0002
0003
0000
0000
0000
0000
0200
0300
0000
0000
0000
0000
,
0020
0030
0000
0000
0000
0000
0100
0000
0000
0000
0000
0000
0010
0000
0000
0000
0000
0000
1000
0000
0000
0100
0000
0000
0020
0030
0000
0000
0000
0000
0200
0300
0000
0000
0000
0000
2000
3000
0000
0000
0000
0000
0010
0000
0000
0100
0000
0000
,
0001
0000
0000
0000
0000
0000
0010
0000
0000
0000
0000
0000
0002
0003
0000
0000
0000
0000
0200
0300
0000
0000
0000
0000
0020
0030
0000
0000
0000
0000
1000
0000
0000
0000
0000
0000
0001
0000
0000
0000
0000
0000
1000
0000
0000
0000
0000
0000
,
0200
0300
0000
0000
0000
0000
0020
0030
0000
0000
0000
0000
0002
0003
0000
0000
0000
0000
0000
0000
0000
0000
0000
0000
0000
0000
0000
0000
0000
0000
0000
0000
0000
0000
0000
0000
0000
0000
0000
0000
0000
0000
0000
0000
0000
0000
0000
0000
,
1000
0010
1000
0001
1000
0100
0010
0001
1000
0001
0100
0010
1000
0001
0010
0001
,
1000
0100
1000
0010
0100
0001
0010
0100
0010
0001
1000
0010
1000
0001
0100
0001
,
1000
0100
1000
0010
1000
0001
0010
0100
0010
0001
1000
0001
0100
0010
1000
0001
,
1000
0010
1000
0001
0010
0001
0100
0001
1000
0001
0100
0010
0100
0001
0010
0100
,
1000
0010
1000
0001
1000
0010
0100
0001
1000
0001
0010
0100
1000
0001
0100
0001
,
1000
0010
1000
0100
0010
0001
0100
0010
0100
0001
1000
0100
1000
0001
0010
0001
,
1000
0010
1000
0100
1000
0001
0100
0010
0100
0001
1000
0001
0010
0100
1000
0001
,
1000
0100
1000
0001
0100
0001
1000
0001
1000
0100
0010
0001
1000
0001
0100
0010
,
1000
0100
1000
0001
0100
0001
0010
0001
1000
0100
1000
0001
0010
0001
0100
0001
,
1000
0010
1000
0001
0100
0001
0010
0001
1000
0010
1000
0001
0010
0001
0100
0001
,
1000
0010
1000
0100
1000
0001
0010
0001
1000
0100
1000
0010
1000
0001
0100
0001
,
1000
0010
1000
0001
0010
0001
0100
0001
1000
0100
1000
0001
0100
0001
0010
0001
,
1000
0010
1000
0001
0010
0001
0100
0001
1000
0010
1000
0001
0100
0001
0010
0001
,
0100
0010
1000
0001
0010
0001
0100
0001
1000
0100
1000
0001
0100
0001
0010
0100
,
1000
0010
1000
0001
0010
0001
0100
0001
1000
0100
1000
0010
1000
0001
0100
0001
,
1000
0010
1000
0001
1000
0100
0010
0001
1000
0001
0100
0010
1000
0001
0010
0001
,
1000
0100
1000
0001
1000
0010
0100
0001
1000
0001
0010
0100
1000
0001
0100
0001
,
1000
0100
1000
0001
0010
0001
1000
0010
0100
0001
0010
0100
1000
0001
1000
0001
,
0200
0000
0000
0000
,
0300
0000
0000
0000
;

//---------------dance-single - Zaia - 14(low)----------------
#NOTES:
     dance-single:
     Zaia - 14(low):
     Hard:
     14:
     1.000,1.000,0.093,1.000,0.968,871.000,12.000,156.000,0.000,2.000:
0000
0000
0000
0000
,
2000
0000
0000
3002
0000
0000
2003
0000
,
0000
0000
3000
0000
0000
0000
0000
0000
0000
0000
0000
0000
0000
0000
0001
0100
,
0010
0100
0001
0010
0100
0000
1000
0000
,
0000
0000
0000
0000
,
0002
0000
0000
2003
0000
0000
3002
0000
,
0000
0000
0003
0000
0000
0000
0000
0000
0000
0000
0000
0000
0000
0000
1000
0100
,
0010
0100
1000
0010
0100
0000
0001
0000
,
0000
0000
0000
0000
,
2000
0000
0000
0020
0000
0000
0200
0000
,
3330
0000
0000
0000
0000
0000
0001
0100
0010
0000
1000
0000
0100
0000
0010
0100
,
1000
0000
0010
0000
0100
0000
0001
0000
0020
0030
0200
0300
2000
3000
0010
1000
,
0001
0000
0000
0000
0010
0000
0000
0000
0000
0000
0000
0000
0000
0000
0100
1000
,
0002
0000
0000
0020
0000
0000
0200
0000
,
0333
0000
0000
0000
0000
0000
1000
0100
0010
0000
0001
0000
0100
0000
0010
0100
,
0001
0010
0100
1000
0010
0100
0001
0000
,
0000
0000
0000
0000
,
2000
3020
0000
2030
3002
0000
2003
3200
,
0000
0320
0032
0000
0203
0302
0023
0230
,
2300
3020
0000
0230
0302
0000
2003
3002
,
0000
0023
0032
0000
0203
0320
2030
3200
,
0320
0032
0000
2003
3020
0000
2030
3002
,
0000
2003
3200
0000
0320
0032
0203
0320
,
2030
3200
0000
0320
0032
0000
2003
3002
,
0000
0203
0302
0000
0023
0230
2300
3020
,
0230
0302
0000
2003
3020
0000
2030
3002
,
0000
2003
3200
0000
0320
0230
2300
3020
,
0230
0302
0000
0023
0032
0000
2003
3002
,
0000
2003
3200
0000
0320
0032
0203
0320
,
2030
3200
0000
2300
3020
0000
0230
0302
,
0000
0023
0230
0000
2300
3020
0230
0302
,
0013
0100
1000
0001
,
0100
0000
0010
0000
1000
0000
0100
0000
0010
0001
1000
0001
0100
0010
1000
0001
,
0010
0000
0100
0000
1000
0000
0001
0000
0100
0000
0010
1000
0001
0000
0010
0000
,
0100
0000
0010
0000
0001
0000
1000
0010
0100
0000
0001
0000
0010
0000
0001
0000
,
1000
0010
0100
0010
1000
0100
1000
0001
,
0010
0100
1000
0001
0100
0001
1000
0010
1000
0100
0010
0001
0100
0010
1000
0001
,
0010
0000
0100
0000
1000
0001
0010
0000
0001
0000
0100
0010
1000
0000
0100
0000
,
0010
0000
0100
0000
1000
0000
0010
0100
0001
0000
0010
0000
0100
0000
1000
0000
,
0010
0000
1000
0100
0010
0000
0100
0000
1000
0000
0001
0000
1000
0000
0010
0000
,
0100
0010
1000
0001
0010
0001
1000
0100
1000
0010
0100
0001
0010
0100
1000
0001
,
0200
0000
0000
0000
0000
0000
0310
1000
0001
0000
0010
0000
0100
0000
2000
0000
,
0000
0000
3002
0000
0000
0000
0103
0010
1000
0000
0001
0000
0010
0000
0000
0000
,
0200
0000
0000
0000
0000
0000
0310
0001
1000
0000
0010
0000
0100
0000
0002
0000
,
0000
0000
2003
0000
0000
0000
3001
0100
0010
0000
1000
0000
0100
0000
0000
0000
,
0020
0000
0000
0000
0000
0000
0130
1000
0001
0000
0100
0000
0010
0000
2000
0000
,
0000
0000
3002
0000
0000
0000
0013
0100
1000
0000
0001
0000
0100
0000
0000
0000
,
0020
0000
0000
0000
0000
0000
0130
0001
1000
0000
0100
0000
0010
0000
0002
0000
,
0000
0000
2003
0000
0000
0000
3010
0100
0001
0000
1000
0000
0100
0000
0000
0000
,
0020
0000
0032
0000
1003
1000
0010
0100
,
0000
0001
1000
0000
0100
0100
0010
0000
,
0002
0000
2003
0000
3010
0010
0100
0001
,
0000
0010
0100
0000
1000
1000
0001
0000
,
0200
0000
0320
0000
1030
1000
0001
0010
,
0000
0000
0100
0000
1000
0000
0001
1000
0100
0000
1000
0001
0100
0000
0000
0000
,
0001
0000
0010
0001
1000
0001
0100
0010
0100
0001
1000
0001
0010
0100
1000
0010
,
0100
0000
0010
1000
0001
0010
0100
0010
0001
1000
0100
1000
0001
0100
0010
1000
,
0100
0000
0010
0001
1000
0010
0100
0001
0010
0001
1000
0010
1000
0001
0100
0010
,
1000
0100
0010
0100
1000
0001
1000
0010
0100
0001
1000
0001
0010
0100
1000
0010
,
0100
0000
0010
1000
0001
1000
0100
0010
0100
1000
0001
1000
0010
0100
0001
0010
,
0100
0000
0010
0001
1000
0010
0100
0010
1000
0001
0100
0001
1000
0100
0010
0001
,
0100
0010
0100
0001
1000
0100
0010
0001
0100
0001
1000
0100
1000
0001
0010
0100
,
1000
0010
0100
0010
1000
0001
1000
0100
0010
0001
1000
0001
0100
0010
1000
0100
,
0010
0000
0100
0000
0010
0000
0001
0000
0100
0000
0000
0010
0000
0000
1000
0000
,
0100
0000
0010
0001
1000
0001
0100
0010
0100
0001
1000
0001
0010
0100
1000
0010
,
0100
0000
0010
0000
0100
0000
0001
0000
0010
0000
0000
0100
0000
0000
1000
0000
,
0010
0000
0100
0001
1000
0001
0010
0100
0010
0001
1000
0001
0100
0010
1000
0100
,
0010
0000
0100
0000
0010
0000
0001
0000
0100
0000
0000
0010
0000
0000
1000
0000
,
0100
0000
0010
0001
1000
0001
0100
0010
0100
0001
1000
0001
0010
0100
1000
0010
,
0100
0000
0010
0000
0100
0000
0001
0000
0010
0000
0000
0100
0000
0000
1000
0000
,
0010
0000
0100
0001
1000
0001
0010
0100
0010
0001
1000
0001
0100
0010
1000
0100
,
0020
0000
0000
0032
0000
0000
2003
0000
,
0000
0000
3000
0000
0000
0000
0000
0000
0000
0000
0000
0000
0000
0000
0010
0100
,
0001
0010
0001
0100
0010
0000
1000
0000
,
0000
0000
0000
0000
,
0002
0000
0000
2003
0000
0000
3200
0000
,
0000
0000
0300
0000
0000
0000
0000
0000
0000
0000
0000
0000
0000
0000
0010
0100
,
1000
0010
1000
0100
0010
0000
0001
0000
,
0000
0000
0000
0000
,
2001
3000
0000
0000
0000
0000
0002
0003
0000
0000
0000
0000
0200
0300
0000
0000
0000
0000
0010
0000
0000
0000
0000
0000
0100
0000
0000
0000
0000
0000
0010
0000
0000
0000
0000
0000
2000
3000
0000
0000
0000
0000
0200
0300
0000
0000
0000
0000
,
0020
0030
0000
0000
0000
0000
0100
0000
0000
0000
0000
0000
0010
0000
0000
0000
0000
0000
0001
0000
0000
0100
0000
0000
0020
0030
0000
0000
0000
0000
2000
3000
0000
0000
0000
0000
0200
0300
0000
0000
0000
0000
1000
0000
0000
0010
0000
0000
,
0100
0000
0000
0000
0000
0000
0001
0000
0000
0000
0000
0000
0020
0030
0000
0000
0000
0000
0200
0300
0000
0000
0000
0000
0020
0030
0000
0000
0000
0000
0001
0000
0000
0000
0000
0000
0100
0000
0000
0000
0000
0000
0010
0000
0000
1000
0000
0000
,
0002
0003
0000
0000
0000
0000
0020
0030
0000
0000
0000
0000
0200
0300
0000
0000
0000
0000
0010
0000
0000
0000
0000
0000
0001
0000
0000
0000
0000
0000
1000
0000
0000
0000
0000
0000
0002
0003
0000
0000
0000
0000
2000
3000
0000
0010
0000
0000
,
0200
0300
0000
0000
0000
0000
0002
0003
0000
0000
0000
0000
0020
0030
0000
0000
0000
0000
0100
0000
0000
0000
0000
0000
0010
0000
0000
0000
0000
0000
0100
0000
0000
0000
0000
0000
2000
3000
0000
0000
0000
0000
0020
0030
0000
0000
0000
0000
,
0200
0300
0000
0000
0000
0000
0010
0000
0000
0000
0000
0000
0100
0000
0000
0000
0000
0000
0001
0000
0000
0010
0000
0000
0200
0300
0000
0000
0000
0000
0020
0030
0000
0000
0000
0000
0002
0003
0000
0000
0000
0000
0100
0000
0000
0010
0000
0000
,
1000
0000
0000
0000
0000
0000
0100
0000
0000
0000
0000
0000
2000
3000
0000
0000
0000
0000
0020
0030
0000
0000
0000
0000
0200
0300
0000
0000
0000
0000
0001
0000
0000
0000
0000
0000
1000
0000
0000
0000
0000
0000
0001
0000
0000
0000
0000
0000
,
0020
0030
0000
0000
0000
0000
0200
0300
0000
0000
0000
0000
2000
3000
0000
0000
0000
0000
0000
0000
0000
0000
0000
0000
0000
0000
0000
0000
0000
0000
0000
0000
0000
0000
0000
0000
0000
0000
0000
0000
0000
0000
0000
0000
0000
0000
0000
0000
,
0001
0100
0001
1000
0001
0010
0100
1000
0001
1000
0010
0100
0001
1000
0100
1000
,
0001
0010
0001
0100
0010
1000
0100
0010
0100
1000
0001
0100
0001
1000
0010
0100
,
0001
0010
0001
0100
0001
1000
0100
0010
0100
1000
0001
1000
0010
0100
0001
1000
,
0001
0100
0001
1000
0100
1000
0010
1000
0001
1000
0010
0100
0010
1000
0100
0010
,
0001
0100
0001
1000
0001
0100
0010
1000
0001
1000
0100
0010
0001
1000
0010
1000
,
0001
0100
0001
0010
0100
1000
0010
0100
0010
1000
0001
0010
0001
1000
0100
0010
,
0001
0100
0001
0010
0001
1000
0010
0100
0010
1000
0001
1000
0100
0010
0001
1000
,
0001
0000
0000
0100
0000
0000
0001
0000
0000
1000
0000
0000
0100
0000
1000
0000
,
0001
0010
0001
1000
0010
1000
0100
1000
0001
0010
0001
1000
0100
1000
0010
1000
,
0001
0100
0001
1000
0010
1000
0100
1000
0001
0100
0001
1000
0100
1000
0010
1000
,
0001
0100
0001
0010
0001
1000
0100
1000
0001
0010
0001
0100
0001
1000
0010
1000
,
0001
0100
0001
1000
0100
1000
0010
1000
0001
0010
0001
1000
0010
1000
0100
1000
,
0001
0000
0010
0000
0100
0000
1000
0000
0010
0000
0100
0000
0010
0000
1000
0100
,
0010
0000
0001
0000
0100
0000
0010
0000
1000
0000
0100
0000
0010
0000
0001
0100
,
0001
1000
0001
1000
0100
1000
0010
1000
0001
0010
0001
0100
0001
1000
0010
1000
,
0001
0000
0000
0011
0000
0000
0110
0000
0000
1100
0000
0000
1000
0000
0001
0000
,
0101
0000
0000
0110
0000
0000
1010
0000
0000
1001
0000
0000
0001
0000
0010
0000
,
0110
0000
0000
1100
0000
0000
1001
0000
0000
0101
0000
0000
0100
0001
1000
0001
,
0020
0000
0000
0000
,
0030
0000
0000
0000
;

//---------------dance-single - Zaia - 12(low)----------------
#NOTES:
     dance-single:
     Zaia - 12(low):
     Medium:
     12:
     0.999,1.000,0.023,1.000,0.502,747.000,3.000,156.000,0.000,0.000:
0000
0000
0000
0000
,
2000
0000
0000
3002
0000
0000
2003
0000
,
0000
0000
3000
0000
0000
0000
0000
0000
0000
0000
0000
0000
0000
0000
0001
0100
,
0010
0100
0001
0010
0100
0000
1000
0000
,
0000
0000
0000
0000
,
0002
0000
0000
2003
0000
0000
3002
0000
,
0000
0000
0003
0000
0000
0000
0000
0000
0000
0000
0000
0000
0000
0000
1000
0100
,
0010
0100
1000
0010
0100
0000
0001
0000
,
0000
0000
0000
0000
,
2000
0000
0000
3020
0000
0000
0230
0000
,
0300
0000
0000
0000
0000
0000
0001
0100
0010
0000
1000
0000
0100
0000
0010
0100
,
1000
0000
0010
0000
0100
0000
0001
0000
0020
0030
0200
0300
2000
3000
0010
1000
,
0001
0000
0000
0000
0010
0000
0000
0000
0000
0000
0000
0000
0000
0000
0100
1000
,
0002
0000
0000
0023
0000
0000
0230
0000
,
0300
0000
0000
0000
0000
0000
1000
0100
0010
0000
0001
0000
0100
0000
0010
0100
,
0001
0010
0100
1000
0010
0100
0001
0000
,
0000
0000
0000
0000
,
2000
3020
0000
2030
3002
0000
2003
3200
,
0000
0320
0032
0000
0203
0302
0023
0230
,
2300
3020
0000
0230
0302
0000
2003
3002
,
0000
0023
0032
0000
0203
0320
2030
3200
,
0320
0032
0000
2003
3020
0000
2030
3002
,
0000
2003
3200
0000
0320
0032
0203
0320
,
2030
3200
0000
0320
0032
0000
2003
3002
,
0000
0203
0302
0000
0023
0230
2300
3020
,
0230
0302
0000
2003
3020
0000
2030
3002
,
0000
2003
3200
0000
0320
0230
2300
3020
,
0230
0302
0000
0023
0032
0000
2003
3002
,
0000
2003
3200
0000
0320
0032
0203
0320
,
2030
3200
0000
2300
3020
0000
0230
0302
,
0000
0023
0230
0000
2300
3020
0230
0302
,
0013
0100
1000
0001
,
0100
0000
0010
0000
1000
0000
0100
0000
0010
0001
1000
0001
0100
0010
1000
0001
,
0010
0000
0100
0000
1000
0000
0001
0000
0100
0000
0010
1000
0001
0000
0010
0000
,
0100
0000
0010
0000
0001
0000
1000
0010
0100
0000
0001
0000
0010
0000
0001
0000
,
1000
0010
0100
0010
1000
0100
1000
0001
,
0010
0100
1000
0001
0100
0001
1000
0010
1000
0100
0010
0001
0100
0010
1000
0001
,
0010
0000
0100
0000
1000
0001
0010
0000
0001
0000
0100
0010
1000
0000
0100
0000
,
0010
0000
0100
0000
1000
0000
0010
0100
0001
0000
0010
0000
0100
0000
1000
0000
,
0010
0000
1000
0100
0010
0000
0100
0000
1000
0000
0001
0000
1000
0000
0010
0000
,
0100
0010
1000
0001
0010
0001
1000
0100
1000
0010
0100
0001
0010
0100
1000
0001
,
0200
0000
0000
0000
0000
0000
0310
1000
0001
0000
0010
0000
0100
0000
2000
0000
,
0000
0000
3002
0000
0000
0000
0103
0010
1000
0000
0001
0000
0010
0000
0000
0000
,
0200
0000
0000
0000
0000
0000
0310
0001
1000
0000
0010
0000
0100
0000
0002
0000
,
0000
0000
2003
0000
0000
0000
3001
0100
0010
0000
1000
0000
0100
0000
0000
0000
,
0020
0000
0000
0000
0000
0000
0130
1000
0001
0000
0100
0000
0010
0000
2000
0000
,
0000
0000
3002
0000
0000
0000
0013
0100
1000
0000
0001
0000
0100
0000
0000
0000
,
0020
0000
0000
0000
0000
0000
0130
0001
1000
0000
0100
0000
0010
0000
0002
0000
,
0000
0000
2003
0000
0000
0000
3010
0100
0001
0000
1000
0000
0100
0000
0000
0000
,
0020
0000
0032
0000
1003
1000
0010
0100
,
0000
0001
1000
0000
0100
0100
0010
0000
,
0002
0000
2003
0000
3010
0010
0100
0001
,
0000
0010
0100
0000
1000
1000
0001
0000
,
0200
0000
0320
0000
1030
1000
0001
0010
,
0000
0000
0100
0000
1000
0000
0001
1000
0100
0000
1000
0001
0100
0000
0000
0000
,
0001
1000
0100
1000
0010
0100
0001
0010
,
0100
0100
1000
0001
0100
0010
0100
0001
,
0010
0010
0100
1000
0010
0100
0010
1000
,
0100
0100
0010
0001
0100
0001
0010
0001
,
0100
0100
0010
1000
0100
0010
0001
0100
,
0010
0010
1000
0001
0010
0100
0010
0001
,
0100
0100
0010
1000
0100
0010
0100
1000
,
0010
0010
0100
0001
0010
0001
0100
0001
,
0010
0000
0100
0000
0010
0000
0001
0000
0100
0000
0000
0010
0000
0000
1000
0000
,
0100
0000
0010
0001
1000
0001
0100
0010
0100
0001
1000
0001
0010
0100
1000
0010
,
0100
0000
0010
0000
0100
0000
0001
0000
0010
0000
0000
0100
0000
0000
1000
0000
,
0010
0000
0100
0001
1000
0001
0010
0100
0010
0001
1000
0001
0100
0010
1000
0100
,
0010
0000
0100
0000
0010
0000
0001
0000
0100
0000
0000
0010
0000
0000
1000
0000
,
0100
0000
0010
0001
1000
0001
0100
0010
0100
0001
1000
0001
0010
0100
1000
0010
,
0100
0000
0010
0000
0100
0000
0001
0000
0010
0000
0000
0100
0000
0000
1000
0000
,
0010
0000
0100
0001
1000
0001
0010
0100
0010
0001
1000
0001
0100
0010
1000
0100
,
0020
0000
0000
0032
0000
0000
2003
0000
,
0000
0000
3000
0000
0000
0000
0000
0000
0000
0000
0000
0000
0000
0000
0010
0100
,
0001
0010
0001
0100
0010
0000
1000
0000
,
0000
0000
0000
0000
,
0002
0000
0000
2003
0000
0000
3200
0000
,
0000
0000
0300
0000
0000
0000
0000
0000
0000
0000
0000
0000
0000
0000
0010
0100
,
1000
0010
1000
0100
0010
0000
0001
0000
,
0000
0000
0000
0000
,
2001
3000
0000
0000
0000
0000
0002
0003
0000
0000
0000
0000
0200
0300
0000
0000
0000
0000
0010
0000
0000
0000
0000
0000
0100
0000
0000
0000
0000
0000
0010
0000
0000
0000
0000
0000
2000
3000
0000
0000
0000
0000
0200
0300
0000
0000
0000
0000
,
0020
0030
0000
0000
0000
0000
0100
0000
0000
0000
0000
0000
0010
0000
0000
0000
0000
0000
0001
0000
0000
0100
0000
0000
0020
0030
0000
0000
0000
0000
2000
3000
0000
0000
0000
0000
0200
0300
0000
0000
0000
0000
1000
0000
0000
0010
0000
0000
,
0100
0000
0000
0000
0000
0000
0001
0000
0000
0000
0000
0000
0020
0030
0000
0000
0000
0000
0200
0300
0000
0000
0000
0000
0020
0030
0000
0000
0000
0000
0001
0000
0000
0000
0000
0000
0100
0000
0000
0000
0000
0000
0010
0000
0000
1000
0000
0000
,
0002
0003
0000
0000
0000
0000
0020
0030
0000
0000
0000
0000
0200
0300
0000
0000
0000
0000
0010
0000
0000
0000
0000
0000
0001
0000
0000
0000
0000
0000
1000
0000
0000
0000
0000
0000
0002
0003
0000
0000
0000
0000
2000
3000
0000
0010
0000
0000
,
0200
0300
0000
0000
0000
0000
0002
0003
0000
0000
0000
0000
0020
0030
0000
0000
0000
0000
0100
0000
0000
0000
0000
0000
0010
0000
0000
0000
0000
0000
0100
0000
0000
0000
0000
0000
2000
3000
0000
0000
0000
0000
0020
0030
0000
0000
0000
0000
,
0200
0300
0000
0000
0000
0000
0010
0000
0000
0000
0000
0000
0100
0000
0000
0000
0000
0000
0001
0000
0000
0010
0000
0000
0200
0300
0000
0000
0000
0000
0020
0030
0000
0000
0000
0000
0002
0003
0000
0000
0000
0000
0100
0000
0000
0010
0000
0000
,
1000
0000
0000
0000
0000
0000
0100
0000
0000
0000
0000
0000
2000
3000
0000
0000
0000
0000
0020
0030
0000
0000
0000
0000
0200
0300
0000
0000
0000
0000
0001
0000
0000
0000
0000
0000
1000
0000
0000
0000
0000
0000
0001
0000
0000
0000
0000
0000
,
0020
0030
0000
0000
0000
0000
0200
0300
0000
0000
0000
0000
2000
3000
0000
0000
0000
0000
0000
0000
0000
0000
0000
0000
0000
0000
0000
0000
0000
0000
0000
0000
0000
0000
0000
0000
0000
0000
0000
0000
0000
0000
0000
0000
0000
0000
0000
0000
,
0001
0100
0001
0010
0001
1000
0100
0010
,
0100
1000
0010
1000
0100
1000
0001
1000
,
0001
0010
0001
0100
0001
1000
0010
0100
,
0010
1000
0100
1000
0010
1000
0001
0100
,
0010
1000
0100
1000
0001
0010
0100
0010
,
0001
0100
0001
0010
0001
1000
0001
1000
,
0100
1000
0010
1000
0001
0100
0010
1000
,
0001
0000
0000
0100
0000
0000
0001
0000
0000
1000
0000
0000
0100
0000
1000
0000
,
0001
0100
0001
1000
0001
0100
0001
1000
0001
0100
0001
1000
0010
0000
0000
0000
,
1000
0100
1000
0001
1000
0100
1000
0001
1000
0100
1000
0001
0100
0000
0000
0000
,
0001
0010
0001
1000
0001
0010
0001
1000
0001
0010
0001
1000
0010
0000
0000
0000
,
0100
0001
1000
0001
1000
0100
1000
0001
0010
0001
1000
0001
0010
0001
1000
0001
,
1000
0000
0010
0000
0100
0000
0001
0000
0010
0000
0100
0000
0010
0000
0001
0100
,
0010
0000
1000
0000
0100
0000
0010
0000
0001
0000
0100
0000
0010
0000
1000
0100
,
1000
0001
1000
0001
0010
0001
0100
0001
1000
0100
1000
0010
1000
0001
0100
0001
,
1000
0000
0000
0100
0000
0000
0010
0000
0000
0001
0000
0000
1000
0000
0001
0000
,
0011
0000
0000
0010
0000
0000
0100
0000
0000
1000
0000
0000
0001
0000
0100
0000
,
0110
0000
0000
0010
0000
0000
1000
0000
0000
0001
0000
0000
0010
0001
1000
0001
,
0200
0000
0000
0000
,
0300
0000
0000
0000
;
