#TITLE:Beyond The Stars;
#SUBTITLE:;
#ARTIST:NeXsard;
#TITLETRANSLIT:;
#SUBTITLETRANSLIT:;
#ARTISTTRANSLIT:;
#CREDIT:;
#BANNER:../banner.png;
#BACKGROUND:../bg.png;
#LYRICSPATH:;
#CDTITLE:;
#MUSIC:Beyond The Stars.ogg;
#OFFSET:-0.197;
#SAMPLESTART:96.200;
#SAMPLELENGTH:22.760;
#SELECTABLE:YES;
#DISPLAYBPM:170.000;
#BPMS:0.000=170.000,400.000=48.571,401.000=170.000;
#STOPS:;
#BGCHANGES:;
// cache tags:
#FIRSTBEAT:8.000;
#LASTBEAT:465.500;
#SONGFILENAME:Songs/Cirque du Lykan/Beyond The Stars - [Zeph]/Beyond The Stars.sm;
#HASMUSIC:1;
#HASBANNER:1;
#MUSICLENGTH:196.806;
// end cache tags

//---------------dance-single - Zeph - 13(high)----------------
#NOTES:
     dance-single:
     Zeph - 13(high):
     Challenge:
     13:
     1.000,0.976,0.000,0.346,1.000,1431.000,0.000,68.000,0.000,0.000:
0000
0000
0000
0000
,
0000
0000
0000
0000
,
1000
0100
1000
0001
1000
0100
1000
0001
0100
0010
0100
0001
1000
0100
0010
0001
,
1000
0100
0010
0001
0010
0100
0010
0001
1000
0010
1000
0001
0010
0100
0010
0001
,
0100
0010
0100
0001
0100
0010
0100
0001
1000
0100
1000
0001
0100
0010
0100
0001
,
1000
0010
0100
0001
1000
0010
0100
0001
1000
0100
0010
0001
1000
0100
0010
0001
,
1000
0010
0100
0010
1000
0010
0100
0010
1000
0001
0010
0100
1000
0001
0010
0001
,
1000
0100
0010
0001
1000
0100
0010
0001
1000
0010
0100
0010
1000
0001
0100
0001
,
1000
0010
0100
0001
1000
0010
0100
0001
1000
0100
0010
0100
1000
0001
0010
0001
,
1000
0100
0010
0001
1000
0100
0010
0001
1000
0010
0100
0001
1000
0010
0100
0001
,
1000
0010
0100
0010
1000
0100
1000
0001
1000
0100
0010
0001
0100
0001
1000
0010
,
1000
0001
1000
0100
0010
0001
1000
0100
1000
0010
0100
0001
0010
0001
1000
0001
,
1000
0010
0100
0001
1000
0100
1000
0001
1000
0100
0010
0001
0100
0010
1000
0001
,
1000
0001
0010
0100
1000
0001
1000
0100
1000
0001
0010
0001
0100
0010
0100
0001
,
1000
0100
1000
0001
1000
0100
1000
0001
0100
0010
0100
0001
1000
0100
1000
0001
,
0010
0100
0010
0001
0010
0100
0010
0001
0100
0010
1000
0010
0100
0001
1000
0001
,
1000
0100
1000
0001
1000
0100
1000
0001
0010
0100
1000
0001
0010
0001
1000
0100
,
0010
0001
0100
0010
1000
0001
0010
0001
1000
0100
0010
0100
1000
0100
0010
0001
,
1000
0000
0001
0100
0001
0000
1000
0000
0100
1000
0100
0000
0010
0000
0001
0000
,
1000
0000
0000
0010
0000
0000
0100
0000
0001
0000
0010
0000
0100
0000
1000
0000
,
0001
0000
1000
0100
1000
0000
0001
0000
0100
0001
0100
0000
0010
0000
1000
0000
,
0100
0000
0010
0001
0010
0000
0100
0000
1000
0001
1000
0000
0010
0000
1000
0000
,
0100
0010
0001
0100
0000
0010
1000
0001
,
1000
0001
1000
0100
1000
0100
0010
0100
1000
0001
0100
0010
0100
0001
0010
0100
,
2000
0000
0000
0000
0000
0000
0000
0000
3000
0000
0001
0100
0010
1000
0100
1000
,
0002
0000
0000
0000
0000
0000
1003
0100
0020
0000
0000
0000
0032
0000
0000
0000
,
0203
0000
0000
0000
0000
0000
0000
0000
0000
0000
0000
0000
0000
0300
0010
0100
,
0001
1000
0100
1000
0001
1000
0010
0100
,
0002
0000
0000
0023
0000
0000
0130
1000
,
0002
0000
0000
0000
0000
0003
0010
0001
1000
0000
0100
0000
1000
0000
0002
0000
,
0000
0000
0000
0000
0000
0000
0000
0000
0000
0000
0000
0000
0000
0003
1000
0100
,
0010
0001
0100
0010
1000
0001
1000
0010
0100
0001
0010
0001
1000
0010
0100
0001
,
2000
0000
0000
0000
0000
0000
0000
0000
3001
0010
0100
1000
0001
0010
0100
1000
,
0002
0000
0000
0000
0000
0000
0103
0010
1000
0000
0001
0000
0010
0000
0100
0000
,
2000
0000
3000
0002
0000
0003
0200
0000
0320
0000
0030
0000
2000
0000
3000
0000
,
0100
0010
0100
0010
0001
1000
0010
0100
0010
1000
0001
1000
0100
1000
0001
0010
,
0200
2300
3002
0203
0300
0020
0230
0320
,
2030
0000
0000
3002
0000
0000
2003
0000
,
3001
0010
0100
1000
0001
0100
0010
0100
0001
1000
0100
1000
0001
1000
0001
0010
,
0001
1000
0100
1000
0010
0100
0001
0100
0001
1000
0010
1000
0001
0100
0010
1000
,
0001
0010
0100
1000
0001
0100
0010
0100
0001
1000
0100
1000
0001
0010
0001
1000
,
0001
1000
0100
1000
0010
0100
0001
0100
0010
1000
0001
0100
0010
1000
0010
1000
,
0001
0010
0100
1000
0001
0100
0010
1000
0001
1000
0010
0100
0001
0010
0001
1000
,
0010
1000
0001
1000
0100
0010
0001
1000
0001
0010
0001
1000
0100
0010
0001
1000
,
0001
0010
0100
1000
0001
0100
0010
0100
0001
1000
0100
1000
0001
1000
0010
1000
,
0001
0010
0100
0010
0001
1000
0001
1000
0010
0100
0001
0010
0001
1000
0001
1000
,
0010
0100
0010
1000
0100
0010
0001
1000
0001
0100
0010
1000
0100
0010
0001
1000
,
0010
0100
0001
0010
0100
1000
0001
1000
0010
0100
0001
0010
0100
1000
0010
0100
,
0001
0100
0010
1000
0100
0010
0100
1000
0001
0100
0010
1000
0100
0010
0100
1000
,
0001
0010
0001
1000
0100
1000
0001
1000
0010
0100
0010
1000
0001
1000
0010
1000
,
0002
0000
0000
0000
0000
1003
1000
0100
,
2000
0000
0000
3002
0000
0000
0203
0000
,
0320
0000
0000
0000
0000
0000
0000
0000
0000
0000
0000
0000
1030
0001
1000
0010
,
1000
0001
0100
0010
0100
0001
1000
0001
0010
0100
1000
0001
0100
0010
1000
0001
,
0200
0000
0000
0000
0000
0000
0000
0000
0000
0000
0310
1000
0001
0010
0100
1000
,
0002
0000
0000
0000
0000
0003
0010
0001
2000
0000
0000
0000
3020
0000
0000
0000
,
0230
0000
0000
0000
0000
0000
0000
0000
0000
0000
0000
0000
0000
0000
0310
1000
,
0001
0010
0100
0010
0001
0100
0010
1000
,
0200
0000
0000
2300
0000
0000
3010
0100
,
0002
0000
0000
0000
0000
0000
0013
0100
1000
0000
0010
0000
0100
0000
0002
0000
,
0000
0000
0000
0000
0000
0000
0000
0000
0000
0000
0000
0000
0000
0003
1000
0001
,
1000
0100
0010
0001
0010
0100
0010
0001
1000
0010
1000
0001
0010
0001
0100
0010
,
2000
0000
0000
0000
3000
0000
0000
0000
0001
0010
0100
1000
0001
0010
0100
1000
,
0002
0000
0000
0000
0003
0000
0100
0010
1000
0000
0001
0000
0010
0000
0100
0000
,
2000
0000
3000
0002
0000
0003
0200
0000
0320
0000
0030
0000
2000
0000
3000
0000
,
0100
0010
0100
0010
0001
1000
0010
0100
0010
1000
0001
1000
0100
1000
0001
0010
,
0200
2300
3002
0203
0300
0020
0230
0320
,
2030
0000
0000
3002
0000
0000
0203
0000
,
0301
0010
0100
1000
0001
0100
0010
0100
0001
1000
0100
1000
0001
1000
0001
0010
,
0001
1000
0100
1000
0010
0100
0001
0100
0001
1000
0010
1000
0001
0100
0010
1000
,
0001
0010
0100
1000
0001
0100
0010
0100
0001
1000
0100
1000
0001
0010
0001
1000
,
0001
1000
0100
1000
0010
0100
0001
0100
0010
1000
0001
0100
0010
1000
0010
1000
,
0001
0010
0100
1000
0001
0100
0010
1000
0001
1000
0010
0100
0001
0010
0001
1000
,
0010
1000
0001
1000
0100
0010
0001
1000
0001
0010
0001
1000
0100
0010
0001
1000
,
0001
0010
0100
1000
0001
0100
0010
0100
0001
1000
0100
1000
0001
1000
0010
1000
,
0001
0010
0100
0010
0001
1000
0001
1000
0010
0100
0001
0010
0001
1000
0001
1000
,
0010
0100
0010
1000
0100
0010
0001
1000
0001
0100
0010
1000
0100
0010
0001
1000
,
0010
0100
0001
0010
0100
1000
0001
1000
0010
0100
0001
0010
0100
1000
0010
0100
,
0001
0100
0010
1000
0100
0010
0100
1000
0001
0100
0010
1000
0100
0010
0100
1000
,
0001
0010
0001
1000
0100
1000
0001
1000
0010
0100
0010
1000
0001
1000
0010
1000
,
0002
0000
0000
0000
0000
1003
1000
0001
,
0020
0000
0000
0032
0000
0000
0203
0000
,
0320
0000
0000
0000
0000
0000
0000
0000
0000
0000
0000
0000
1030
0001
0100
0001
,
1000
0001
0100
0010
0100
0001
1000
0001
0010
0100
1000
0001
0100
0010
1000
0001
,
1000
0100
1000
0001
1000
0100
1000
0001
0100
0010
0100
0001
1000
0100
0010
0001
,
1000
0100
0010
0001
0010
0100
0010
0001
1000
0010
0100
0010
1000
0100
0010
0001
,
0100
0010
0100
0001
0100
0010
0100
0001
1000
0100
1000
0001
0100
0010
0100
0001
,
1000
0010
0100
0001
1000
0010
0100
0001
1000
0100
0010
0001
1000
0100
0010
0001
,
1000
0010
0100
0010
1000
0001
0010
0001
1000
0100
0010
0100
1000
0001
0100
0001
,
1000
0100
0010
0001
1000
0100
0010
0001
1000
0010
0100
0010
1000
0001
0010
0001
,
1000
0010
0100
0001
1000
0010
0100
0001
1000
0100
0010
0100
1000
0001
0010
0001
,
1000
0100
0010
0001
1000
0100
0010
0001
1000
0010
0100
0010
1000
0001
0010
0001
,
1000
0010
0100
0010
1000
0100
0010
0001
1000
0010
0100
0010
1000
0001
0100
0010
,
1000
0100
0010
0001
1000
0100
0010
0001
1000
0010
0100
0010
1000
0001
0010
0100
,
1000
0001
0100
0001
0010
0100
0010
0001
1000
0001
0100
0001
1000
0100
1000
0010
,
0100
0001
0100
0010
1000
0100
0010
0001
1000
0010
0100
0001
1000
0010
0100
0001
,
1000
0010
1000
0001
1000
0010
1000
0001
0100
0010
1000
0001
0010
0100
0010
0001
,
1000
0100
1000
0001
1000
0100
1000
0001
1000
0010
0100
0001
0010
0100
0010
0001
,
1000
0010
0100
0001
1000
0010
0100
0010
1000
0100
0010
0001
0010
0100
1000
0001
,
1000
0010
0100
0010
1000
0001
0010
0001
1000
0100
0010
0100
1000
0001
0100
0001
,
0000
0000
0000
0000
1000
0100
0010
0001
1000
0010
0100
0010
1000
0001
0010
0001
,
1000
0001
1000
0100
1000
0001
0010
0001
0100
0010
1000
0010
1000
0001
0100
0001
,
1000
0010
0100
0001
1000
0100
0010
0001
1000
0010
0100
0010
1000
0001
0010
0001
,
1000
0100
1000
0001
1000
0001
0010
0001
0100
0010
1000
0010
0100
0001
1000
0010
,
0100
0001
0100
0001
1000
0100
0010
0001
1000
0010
0100
0001
1000
0001
0100
0010
,
1000
0100
1000
0001
0100
0001
1000
0001
0010
0100
1000
0001
1000
0100
1000
0001
,
0010
0100
1000
0001
1000
0100
0010
0001
1000
0010
0100
0010
1000
0001
0010
0001
,
1000
0001
0100
0001
1000
0100
0010
0001
1000
0010
1000
0010
0100
0001
0010
0100
,
1000
0010
1000
0010
0100
0001
1000
0001
0010
0100
1000
0001
1000
0010
0100
0001
,
0010
0100
1000
0001
0100
0010
1000
0100
0010
0001
1000
0001
0100
0010
1000
0100
,
0010
0001
0100
0010
1000
0010
1000
0001
0100
0001
0010
0001
1000
0010
1000
0001
,
0100
0001
0010
0001
1000
0100
1000
0001
0010
0001
1000
0001
0100
0010
0100
0001
,
1000
0001
0100
0001
2000
0000
0000
0000
0000
0000
3000
0000
0000
0000
0001
0000
,
0001
0010
0200
0000
0000
2300
0000
3000
,
0002
2003
0000
0000
,
3001
0010
0100
1000
0001
0100
0010
0100
0001
1000
0100
0010
0001
0010
0100
1000
,
0010
0100
0001
1000
0020
0000
0030
0000
0000
0000
0000
0000
0000
0000
0000
0000
;

//---------------dance-single - Zeph - 11(mid)----------------
#NOTES:
     dance-single:
     Zeph - 11(mid):
     Hard:
     11:
     0.877,0.976,0.005,0.346,0.912,1139.000,1.000,68.000,0.000,0.000:
0000
0000
0000
0000
,
0000
0000
0000
0000
,
1000
0100
1000
0001
1000
0100
1000
0001
0100
0000
0010
0000
1000
0000
0001
0000
,
1000
0100
0010
0001
0010
0100
0010
0001
1000
0000
0001
0000
0010
0000
0100
0000
,
1000
0010
0100
0001
0100
0010
0100
0001
1000
0000
0001
0000
1000
0000
0001
0000
,
1000
0010
0100
0001
1000
0010
0100
0001
1000
0100
0010
0001
1000
0100
0010
0001
,
1000
0010
0100
0010
1000
0010
0100
0010
1000
0000
0001
0000
0010
0000
0100
0000
,
1000
0100
0010
0001
1000
0100
0010
0001
1000
0000
0010
0000
0100
0000
0001
0000
,
1000
0010
0100
0001
1000
0010
0100
0001
1000
0000
0001
0000
1000
0000
0100
0000
,
1000
0100
0010
0001
1000
0100
0010
0001
1000
0010
0100
0001
1000
0010
0100
0001
,
1000
0010
1000
0000
0001
0100
0001
0000
1000
0000
0001
0000
0100
0000
0001
0000
,
1000
0100
1000
0000
0001
0100
0001
0000
1000
0000
0001
0000
1000
0000
0100
0000
,
1000
0001
1000
0000
0010
0100
0010
0000
1000
0000
0100
0000
0010
0000
0001
0000
,
1000
0100
1000
0000
0001
0010
0001
0000
1000
0001
1000
0000
0010
0100
0010
0000
,
1000
0100
1000
0001
1000
0100
1000
0001
0100
0000
0010
0000
1000
0000
0001
0000
,
1000
0100
0010
0001
0010
0100
0010
0001
1000
0000
0010
0000
0100
0000
0001
0000
,
1000
0100
1000
0001
1000
0100
1000
0001
1000
0000
0001
0000
0010
0000
0100
0000
,
1000
0001
0100
0010
1000
0001
0010
0001
1000
0100
0010
0100
1000
0100
0010
0001
,
1000
0000
0001
0100
0001
0000
1000
0000
0100
1000
0100
0000
0010
0000
0001
0000
,
1000
0000
0000
0010
0000
0000
0100
0000
0001
0000
0010
0000
0100
0000
1000
0000
,
0001
0000
1000
0100
1000
0000
0001
0000
0100
0001
0100
0000
0010
0000
1000
0000
,
0100
0000
0010
0001
0010
0000
0100
0000
1000
0001
1000
0000
0010
0000
1000
0000
,
0100
0010
0001
0100
0000
0010
1000
0010
,
0000
1000
0100
1000
0001
0010
0100
0000
,
2000
0000
0000
0000
0000
0000
0000
0000
3000
0000
0001
0100
0010
1000
0100
1000
,
0002
0000
0000
0000
0000
0000
1003
0100
0020
0000
0000
0000
0032
0000
0000
0000
,
0203
0000
0000
0000
0000
0000
0000
0000
0000
0000
0000
0000
0000
0300
0010
0100
,
0001
1000
0100
0010
0001
0100
0010
1000
,
0002
0000
0000
0023
0000
0000
0130
1000
,
0002
0000
0000
0000
0000
0003
1000
0001
0010
0000
0100
0000
1000
0000
0002
0000
,
0000
0000
0000
0000
0000
0000
0000
0000
0000
0000
0000
0000
0000
0003
1000
0100
,
0010
0001
0100
0010
1000
0001
0100
0010
0100
0001
0010
0001
0100
0010
1000
0001
,
2000
0000
0000
0000
0000
0000
0000
0000
3001
0010
0100
1000
0001
0010
0100
1000
,
0002
0000
0000
0000
0000
0000
0103
0010
1000
0000
0001
0000
0010
0000
0100
0000
,
2000
0000
3000
0002
0000
0003
0200
0000
0320
0000
0030
0000
2000
0000
3000
0000
,
0100
0010
0100
0010
0001
1000
0010
0100
0010
1000
0001
1000
0100
1000
0001
0010
,
0200
2300
3002
0203
0300
0020
0230
0320
,
2030
0000
0000
3002
0000
0000
2003
0000
,
3001
0100
0001
1000
0010
1000
0001
0010
,
0100
0000
1000
0000
0001
0100
0010
0100
0001
1000
0010
1000
0001
0100
0010
1000
,
0001
0010
0100
1000
0100
0010
0001
1000
,
0001
0000
0100
0000
0010
0000
1000
0000
0001
1000
0001
0100
0010
1000
0010
1000
,
0001
0010
0100
1000
0100
0010
0001
1000
,
0010
0000
1000
0000
0001
0010
0001
1000
0001
0010
0001
1000
0100
0010
0001
1000
,
0001
1000
0001
0010
0100
1000
0001
1000
,
0001
0000
0100
0000
0010
0000
1000
0000
0001
1000
0001
0100
0010
1000
0001
0010
,
0001
1000
0100
0000
0010
0000
0001
0000
1000
0100
0010
0000
0001
0000
0100
0000
,
0001
0010
0100
0000
1000
0000
0100
0000
0010
0001
1000
0000
0001
0000
0100
0000
,
0010
0100
0001
0000
1000
0000
0010
0000
0100
0001
1000
0000
0001
0000
0010
0000
,
0100
1000
0001
1000
0100
1000
0001
1000
0010
0100
0010
1000
0001
1000
0010
1000
,
0002
0000
0000
0000
0000
1003
0100
0010
,
0002
0000
0000
2003
0000
0000
3020
0000
,
0230
0000
0000
0000
0000
0000
0301
0100
,
0001
1000
0010
0100
0010
1000
0001
1000
0100
0010
0001
1000
0010
0100
0001
1000
,
0020
0000
0000
0000
0000
0000
0000
0000
0000
0000
0130
0001
1000
0100
0010
0001
,
2000
0000
0000
0000
0000
0000
3100
0010
0001
0000
0000
0000
2000
0000
0000
0000
,
3020
0000
0000
0000
0000
0000
0000
0000
0000
0000
0000
0000
0030
0000
0100
0010
,
1000
0001
1000
0100
0010
0001
1000
0001
,
0200
0000
0000
0000
0000
0000
0320
0000
0000
0000
0000
0030
1000
0000
0001
0000
,
0020
0000
0000
0000
0030
0000
0001
1000
0100
0000
0010
0000
0100
0000
2000
0000
,
0000
0000
0000
0000
0000
0000
0000
0000
0000
0000
0000
0000
3000
0000
0001
1000
,
0001
0010
0100
1000
0100
0010
0100
1000
0010
0100
0001
1000
0100
0010
0001
1000
,
0002
0000
0000
0000
0000
0000
0000
0000
1003
0100
0010
0001
1000
0100
0010
0001
,
2000
0000
0000
0000
0000
0000
3010
0100
0001
0000
1000
0000
0100
0000
0010
0000
,
0002
0000
0003
2000
0000
3000
0020
0000
0230
0000
0300
0000
0002
0000
0003
0000
,
0010
0100
0010
0100
1000
0001
0100
0010
0100
0001
1000
0001
0010
0001
1000
0100
,
0020
0032
2003
3020
0030
0200
0320
0230
,
0302
0000
0000
2003
0000
0000
3200
0300
,
1000
0100
0010
0001
1000
0010
0100
0010
1000
0001
0010
0001
1000
0001
1000
0100
,
1000
0001
0010
0001
0100
0010
1000
0010
1000
0001
0100
0001
1000
0010
0100
0001
,
1000
0100
0010
0001
1000
0010
0100
0010
1000
0001
0010
0001
1000
0100
1000
0001
,
1000
0001
0010
0001
0100
0010
1000
0010
0100
0001
0100
0001
1000
0010
0100
0001
,
1000
0001
0010
0001
1000
0010
0100
0001
1000
0001
1000
0100
0010
0001
1000
0001
,
0100
0001
1000
0001
0010
0100
1000
0001
1000
0100
1000
0001
0010
0100
1000
0001
,
1000
0100
0010
0001
1000
0010
0100
0010
1000
0001
0010
0001
1000
0001
0100
0001
,
1000
0000
0000
0000
0001
1000
0001
1000
0010
0100
0001
0010
0001
1000
0001
1000
,
0001
0010
0100
0000
1000
0000
0001
0000
1000
0100
0010
0000
0001
0000
0100
0000
,
0001
0010
0100
0000
1000
0000
0100
0000
0010
0001
1000
0000
0001
0000
0100
0000
,
0010
0100
0001
0000
1000
0000
0010
0000
0100
0001
1000
0000
0001
0000
0010
0000
,
0100
1000
0001
0100
0001
1000
0100
1000
,
0002
0000
0000
0000
0000
1003
0100
0010
,
0002
0000
0000
2003
0000
0000
3020
0000
,
0230
0000
0000
0000
0000
0000
0301
0100
,
0001
1000
0010
1000
0001
0010
0100
1000
,
0001
0010
0100
0010
0001
1000
0010
1000
,
0001
0000
0010
0000
0100
0000
1000
0000
0001
0010
0001
0000
1000
0100
1000
0000
,
0001
1000
0010
1000
0001
0010
0100
1000
,
0001
0100
0001
0000
0100
0010
0100
0000
0010
1000
0010
0000
1000
0001
1000
0000
,
0001
0010
0100
1000
0001
0100
0010
1000
,
0100
0000
1000
0000
0001
0000
1000
0000
0001
0100
0001
0000
1000
0010
1000
0000
,
0001
1000
0001
0010
0100
1000
0001
1000
,
0001
0010
0001
0000
0010
0100
0010
0000
0100
1000
0100
0000
1000
0001
1000
0000
,
0001
0010
0100
1000
0001
0010
0100
1000
0001
0000
0100
0000
0010
0000
1000
0000
,
0001
0100
0010
1000
0001
0100
0010
1000
0001
0000
0010
0000
0100
0000
1000
0000
,
0001
1000
0010
1000
0100
0010
0100
1000
0001
0000
1000
0000
0001
0000
1000
0000
,
0001
1000
0010
0100
0001
0010
0100
1000
0001
0100
0010
1000
0001
0100
0010
1000
,
0001
0000
0010
0000
0100
0000
1000
0000
0010
0100
0010
0000
1000
0010
1000
0000
,
0001
0000
0010
0000
0100
0000
1000
0000
0001
0100
0001
0000
1000
0100
1000
0000
,
0001
0000
0010
0000
0100
0000
1000
0000
0001
0010
0001
0000
1000
0100
1000
0000
,
0001
0100
0010
0100
0001
1000
0100
1000
0001
0010
0100
0010
0001
1000
0010
1000
,
0000
0000
0000
0000
0001
0010
0100
1000
0001
0100
0010
0100
0001
1000
0100
1000
,
0001
1000
0001
0010
0001
1000
0100
1000
0001
0100
0001
1000
0010
0100
0001
1000
,
0010
0100
0010
1000
0001
0010
0100
1000
0001
0100
0010
0100
0001
1000
0100
1000
,
0001
0010
0001
1000
0001
1000
0100
1000
0010
0100
0001
0100
0010
1000
0100
1000
,
0001
1000
0100
0010
0001
1000
0100
1000
0001
0100
0010
1000
0001
1000
0010
0100
,
0001
0010
0001
1000
0010
1000
0001
1000
0001
0010
0001
1000
0100
0010
0001
1000
,
0001
0010
0100
1000
0001
0010
0100
1000
0001
0100
0010
0100
0001
1000
0100
1000
,
0001
1000
0010
1000
0001
0000
0000
0000
1000
0010
1000
0010
0100
0001
0100
0010
,
1000
0001
1000
0001
1000
0100
0010
0000
0001
0000
1000
0000
0001
0010
0100
0000
,
1000
0000
0010
0000
1000
0100
0010
0000
0001
0000
0010
0000
0100
1000
0001
0000
,
1000
0000
0010
0000
0100
0010
1000
0000
0001
0000
0100
0000
0010
1000
0001
0000
,
1000
0100
0010
0001
1000
0010
1000
0001
,
0010
0001
2000
0000
0000
3000
0000
0001
,
1000
0100
0020
0000
0000
0032
0000
0003
,
2000
3002
0000
0000
,
1003
0010
1000
0100
1000
0001
0010
0100
,
1000
0001
2002
3003
0000
0000
0000
0000
;

//---------------dance-single - Zeph - 9(mid-high)----------------
#NOTES:
     dance-single:
     Zeph - 9(mid-high):
     Medium:
     9:
     0.633,0.621,0.036,0.249,0.119,816.000,7.000,49.000,0.000,0.000:
0000
0000
0000
0000
,
0000
0000
0000
0000
,
1000
0010
0100
0010
1000
0100
0010
0001
,
1000
0001
0010
0001
0100
0010
1000
0001
,
0010
0100
1000
0100
0010
0001
1000
0010
,
0100
0001
0100
0010
0100
0001
0010
0100
,
1000
0001
0100
0010
0100
0001
0010
0100
,
1000
0001
1000
0100
1000
0010
0100
0001
,
1000
0100
0010
0001
0010
0100
1000
0001
,
0100
0010
1000
0010
0100
0010
1000
0100
,
0010
0000
0011
0000
0000
1000
1001
0000
,
0001
0000
0101
0000
0000
0100
0110
0000
,
0010
0000
1010
0000
0000
1000
1001
0000
,
0001
0010
0100
1000
0001
0100
0010
1000
,
0001
0100
0001
0100
0001
0100
0001
0100
,
0010
1000
0010
1000
0010
1000
0010
1000
,
0001
1000
0001
1000
0001
1000
0001
1000
,
0100
0010
0100
0010
0100
0010
0100
0010
,
0001
0000
1000
0100
1000
0000
0001
0000
0010
0001
0010
0000
0100
0000
1000
0000
,
0001
0000
0000
0100
0000
0000
0010
0000
1000
0000
0100
0000
0010
0000
0001
0000
,
1000
0000
0001
0010
0001
0000
1000
0000
0010
1000
0010
0000
0100
0000
0001
0000
,
0010
0000
0100
1000
0100
0000
0010
0000
0001
1000
0001
0000
0100
0000
0001
0000
,
0010
0100
1000
0010
0000
0100
0001
0100
,
0000
0001
0010
0001
1000
0100
0010
0000
,
0002
0000
0000
0000
0003
1000
0010
0100
,
0002
0000
0000
0000
0000
0000
1003
0010
0200
0000
0000
0000
0302
0000
0000
0000
,
2003
0000
0000
0000
0000
0000
0000
0000
0000
0000
0000
0000
0000
0000
3010
0100
,
0001
1000
0100
0010
0001
0100
0010
1000
,
0002
0000
0000
0023
0000
0000
0130
1000
,
0002
0000
0000
0000
0000
0003
1000
0001
0010
0000
0100
0000
1000
0000
0002
0000
,
0000
0000
0000
0000
0000
0000
0000
0000
0000
0000
0000
0000
0000
0003
1000
0000
,
0100
0010
0001
0100
0010
0100
0001
1000
,
0002
0000
0000
0000
1003
0100
0010
0001
,
2000
0000
0000
0000
0000
0000
3010
0100
0001
0000
1000
0000
0100
0000
0010
0000
,
0002
0000
0003
2000
0000
3000
0010
0000
0100
0000
0000
0000
0001
0000
0000
0000
,
0010
0100
1000
0001
0100
0010
0100
0001
,
0010
0001
1000
0010
0000
0100
0010
0100
,
0002
0000
0000
2003
0000
0000
3002
0000
,
1003
0010
1000
0001
0100
0001
1000
0100
,
0010
0001
1000
0010
0100
0010
1000
0001
,
0010
0100
0010
0001
0010
0100
1000
0001
,
1000
0010
0100
0001
1000
0001
0100
0010
,
1000
0100
0010
0001
0010
0100
1000
0001
,
0100
0001
1000
0010
0100
0001
0100
0010
,
1000
0001
1000
0100
0010
0001
1000
0001
,
1000
0010
0100
0001
1000
0100
0010
0001
,
1000
0100
0010
0000
0001
0000
1000
0000
0001
0010
0100
0000
1000
0000
0010
0000
,
1000
0100
0010
0000
0001
0000
0010
0000
0100
1000
0001
0000
1000
0000
0010
0000
,
0100
0010
1000
0000
0001
0000
0100
0000
0010
1000
0001
0000
1000
0000
0100
0000
,
0010
0001
1000
0010
1000
0001
0010
0001
,
2000
0000
0000
0000
0000
3001
0010
0100
,
2000
0000
0000
3002
0000
0000
0203
0000
,
0320
0000
0000
0000
0000
0000
1030
0010
,
1000
0001
0100
0010
1000
0100
0010
0001
,
0200
0000
0000
0000
0000
0310
1000
0100
,
2000
0000
0000
0000
0000
0000
3100
0010
0001
0000
0000
0000
2000
0000
0000
0000
,
3020
0000
0000
0000
0000
0000
0000
0000
0000
0000
0000
0000
0030
0000
0100
0010
,
1000
0001
1000
0100
0010
0001
1000
0001
,
0200
0000
0000
0000
0000
0000
0320
0000
0000
0000
0000
0030
1000
0000
0001
0000
,
0020
0000
0000
0000
0030
0000
0001
1000
0100
0000
0010
0000
0100
0000
2000
0000
,
0000
0000
0000
0000
0000
0000
3000
0001
,
0010
0100
0010
0001
0100
0010
1000
0100
,
2000
0000
0000
0000
3001
0100
0010
1000
,
0002
0000
0000
0000
0000
0000
0103
0010
1000
0000
0001
0000
0010
0000
0100
0000
,
2000
0000
3000
0002
0000
0003
0100
0000
0010
0000
0000
0000
1000
0000
0000
0000
,
0100
0010
0001
0100
0010
0100
0001
1000
,
0100
1000
0001
0100
0000
0010
0100
0010
,
2000
0000
0000
3002
0000
0000
0023
0030
,
0001
0100
0001
1000
0010
1000
0001
0010
,
0100
1000
0001
0100
0010
0100
0001
1000
,
0100
0010
0100
1000
0100
0010
0001
1000
,
0001
0100
0010
1000
0001
1000
0010
0100
,
0001
0010
0100
1000
0100
0010
0001
1000
,
0010
1000
0001
0100
0010
1000
0010
0100
,
0001
1000
0001
0010
0100
1000
0001
1000
,
0001
0100
0010
1000
0001
0010
0100
1000
,
0001
0010
0100
0000
1000
0000
0001
0000
1000
0100
0010
0000
0001
0000
0100
0000
,
0001
0010
0100
0000
1000
0000
0100
0000
0010
0001
1000
0000
0001
0000
0100
0000
,
0010
0100
0001
0000
1000
0000
0010
0000
0100
0001
1000
0000
0001
0000
0010
0000
,
0100
1000
0001
0100
0001
1000
0100
1000
,
0002
0000
0000
0000
0000
1003
0100
0010
,
0002
0000
0000
2003
0000
0000
3020
0000
,
0230
0000
0000
0000
0000
0000
0301
0100
,
0001
1000
0010
0100
0001
0010
0100
1000
,
0010
0100
0010
0100
0001
1000
0010
1000
,
0001
0000
0010
0000
0100
0000
1000
0000
0001
0010
0001
0000
1000
0100
1000
0000
,
0001
1000
0010
1000
0001
0010
0100
1000
,
0001
0100
0001
0000
0100
0010
0100
0000
0010
1000
0010
0000
1000
0001
1000
0000
,
0001
0010
0100
1000
0001
0100
0010
1000
,
0100
0000
1000
0000
0001
0000
1000
0000
0001
0100
0001
0000
1000
0010
1000
0000
,
0001
1000
0001
0010
0100
1000
0001
1000
,
0001
0010
0001
0000
0010
0100
0010
0000
0100
1000
0100
0000
1000
0001
1000
0000
,
0001
0010
0100
1000
0001
0100
0010
1000
,
0001
0100
0010
1000
0001
0010
0100
1000
,
0001
0100
0010
0100
0001
1000
0001
1000
,
0001
0010
0100
0010
0001
0100
0010
1000
,
0001
0000
0010
0000
0100
0000
1000
0000
0010
0100
0010
0000
1000
0010
1000
0000
,
0001
0000
0010
0000
0100
0000
1000
0000
0001
0100
0001
0000
1000
0100
1000
0000
,
0001
0000
0010
0000
0100
0000
1000
0000
0001
0010
0001
0000
1000
0100
1000
0000
,
0001
0100
0010
1000
0100
0010
0001
1000
,
0000
0000
0001
0100
0001
1000
0100
0010
,
0100
1000
0001
0100
0010
1000
0100
0010
,
0100
1000
0001
0100
0010
1000
0001
0010
,
0100
0010
0001
1000
0010
0100
0001
0010
,
0001
0100
0010
1000
0100
0010
0001
1000
,
0010
1000
0001
0010
0001
1000
0100
0010
,
0001
1000
0010
1000
0001
1000
0100
0010
,
0001
1000
0002
0000
1003
0001
0100
0010
,
0100
0001
0010
0100
1000
0010
1000
0001
,
0100
0001
1000
0100
0010
0001
0010
0100
,
1000
0001
0100
0001
1000
0100
1000
0001
,
0010
0100
1000
0001
1000
0010
0100
0001
,
1000
0001
2000
0000
0000
3000
0000
0001
,
1000
0100
0020
0000
0000
0032
0000
0003
,
2000
3002
0000
0000
,
1003
0010
1000
0100
1000
0001
0010
0100
,
1000
0001
2002
3003
0000
0000
0000
0000
;
