#TITLE:Flying High;
#SUBTITLE:Eternity (2002);
#ARTIST:Freedom Call;
#TITLETRANSLIT:;
#SUBTITLETRANSLIT:;
#ARTISTTRANSLIT:;
#CREDIT:Dog_E;
#BANNER:banner.PNG;
#BACKGROUND:bg.PNG;
#LYRICSPATH:;
#CDTITLE:DogEtitle.PNG;
#MUSIC:02-flying high.mp3;
#OFFSET:1.192;
#SAMPLESTART:121.500;
#SAMPLELENGTH:28.220;
#SELECTABLE:YES;
#BPMS:0.000=156.900,338.000=157.000,420.000=156.900,452.000=78.450,467.000=156.900;
#STOPS:;
#BGCHANGES:;
// cache tags:
#FIRSTBEAT:4.000;
#LASTBEAT:630.250;
#SONGFILENAME:Songs/Astronomic Metal Collection/Flying High (Dog_E)/02-flying high.sm;
#HASMUSIC:1;
#HASBANNER:1;
#MUSICLENGTH:249.338;
// end cache tags

//---------------dance-single - Blank----------------
#NOTES:
     dance-single:
     Blank:
     Hard:
     12:
     1.000,1.000,1.000,0.626,1.000,1996.000,272.000,156.000,0.000,14.000:
0000
0000
0000
0000
,
1100
0011
1100
0011
0100
0010
0100
0010
1000
0100
0010
0001
0100
0010
1000
0100
0010
0001
0100
0010
1000
0001
0100
0010
,
1100
0011
1100
0011
0100
0010
0100
0010
1000
0100
0010
0001
0100
0010
1000
0100
0010
0001
0100
0010
1000
0001
0100
0010
,
0101
1000
0100
1000
0100
1000
0100
1000
0011
0100
0010
0100
0010
0100
0010
0100
,
1010
0000
0000
0100
0000
0000
0001
0000
0000
0100
0000
0000
0001
0000
0000
0100
0000
0000
0001
0000
0000
0010
0000
0000
0100
0000
0000
1100
0000
0000
0010
0000
0000
0001
0000
0000
2020
0000
0000
0031
0000
0000
0010
0000
0000
0001
3000
0000
,
0120
1000
0130
1000
0100
1000
0100
1000
0020
0032
0103
1000
0100
1000
0100
1000
,
0020
0032
0103
1000
0100
1000
0100
1000
0101
0000
0000
0110
0000
0000
1100
0000
,
1021
0100
1000
0100
1030
0100
1000
0100
2000
3002
0103
1000
0100
1000
0100
1000
,
0200
0302
0103
1000
0100
1000
0100
1000
0101
0000
0000
0000
1001
0000
0000
0000
,
1012
0100
1000
0103
1000
0100
1000
0100
0020
0032
0103
1000
0100
1000
0100
1000
,
0020
0032
0103
1000
0100
1000
0100
1000
0110
0000
0000
0011
0000
0000
0110
0000
,
1001
0100
0010
0100
0010
0100
0010
0100
1001
0010
1000
0010
1000
0010
1000
0010
,
2001
0000
0000
0000
0000
0000
3000
0000
0000
0000
0000
0000
0200
0000
0000
0000
0000
0000
0300
0000
0000
0000
0000
0000
0020
0000
0000
0000
0000
0000
0030
0000
0000
0000
0000
0000
0002
0000
0000
0000
0000
0000
0003
0000
0000
0000
0000
0000
2000
0000
0000
0000
0000
0000
3000
0000
0000
0000
0000
0000
0020
0000
0000
0000
0000
0000
0030
0000
0000
0000
0000
0000
0200
0000
0000
0000
0000
0000
0300
0000
0000
0000
0000
0000
0002
0000
0000
0000
0000
0000
0003
0000
0000
0000
0000
0000
1010
0000
0000
0000
0000
0000
0000
0000
0100
0000
0000
0000
0000
0000
0000
0000
0000
0000
0000
0000
0000
0000
0000
0000
0000
0000
0000
0000
0000
0000
0000
0000
0000
0000
0000
0000
0000
0000
0000
0000
0000
0000
0000
0000
0000
0000
0000
0000
1000
0000
0000
0000
0000
0000
0000
0000
0000
0000
0000
0000
0010
0000
0000
0000
0000
0000
0000
0000
0000
0000
0000
0000
0100
0000
0000
0000
0000
0000
0000
0000
0000
0000
0000
0000
0001
0000
0000
0000
0000
0000
0000
0000
0000
0000
0000
0000
,
0110
0000
0000
0000
0001
0000
0000
0000
2000
3000
0200
0300
0020
0030
0002
0003
0120
0030
0000
0000
0001
0000
0000
0000
1000
0000
0010
0000
0100
0000
0001
0000
,
1000
0000
0000
0000
0110
0000
0000
0000
2000
3000
0200
0300
0020
0030
0002
0003
0120
0030
0000
0000
1000
0000
0000
0000
0010
0000
1000
0000
0100
0000
0010
0000
,
0002
0000
0000
0000
0100
0000
0000
0000
2003
3000
0200
0300
0020
0030
0002
0003
2010
3000
0000
0000
0100
0000
0000
0000
0011
0000
0000
0000
1000
0000
0000
0000
,
0010
0010
1000
0100
0010
0010
0001
0100
0010
0010
1000
0100
0020
0000
0030
0000
,
0110
0000
0000
0000
1000
0000
0000
0000
0002
0003
0020
0030
0200
0300
2000
3000
0210
0300
0000
0000
0001
0000
0000
0000
1000
0000
0100
0000
0010
0000
0001
0000
,
1010
0000
0000
0000
0100
0000
0000
0000
0002
0003
0200
0300
0020
0030
2000
3000
0201
0300
0000
0000
0010
0000
0000
0000
1000
0000
0100
0000
0010
0000
0100
0000
,
0022
0000
0000
0000
0000
0000
0000
0033
0202
0000
0000
0303
2020
0000
0000
3030
,
0001
0001
0100
0010
1000
1000
0010
0100
2002
3000
0003
0000
0000
0000
0000
0000
,
0011
1000
0001
1100
0110
0001
1000
0110
,
1001
0100
0010
0001
1100
0010
0100
0001
1000
0010
0100
0001
2000
0000
3010
0000
,
0101
0010
1000
0110
1010
1000
0010
0101
,
1001
0100
0010
0001
1100
0010
0100
0001
1000
0100
0010
0001
2000
0001
3010
0100
,
1001
0010
1000
0101
1010
0100
1000
0110
,
0011
0110
1010
0110
,
0011
0100
0010
0100
1010
0100
0011
0100
1010
0100
0010
0100
0010
0100
0010
0100
,
1001
0100
0010
0100
1010
0100
0011
0100
1010
0100
0010
0100
0010
0001
1000
0001
,
0011
1000
0001
1100
0110
0001
1000
0110
,
1001
0100
1010
0001
1000
0010
0100
0001
1000
0010
0100
0001
2000
0000
3010
0000
,
0101
0010
1000
0110
1010
1000
0010
0101
,
1001
0100
0010
0001
1000
0010
0100
0001
1000
0100
0010
0001
2000
0010
3100
0010
,
0101
0001
0001
0001
0101
0001
0001
0001
,
0011
0001
0001
0001
0101
0001
0001
0001
,
1001
0100
0010
0100
1010
0100
0011
0100
1010
0100
0010
0100
0010
0100
0010
0100
,
1001
0100
0010
0100
1010
0100
0011
0100
0010
1000
0010
0100
0001
1000
0010
0100
,
1001
0010
0100
1000
0001
0100
0010
0100
0001
0010
0001
0100
0010
0100
0010
1000
,
0001
0100
0010
1000
0100
0010
0100
0010
0001
0100
0010
1000
0100
1000
0001
0010
,
0100
0010
0100
1000
0001
0010
0001
0010
0100
1000
0100
1000
0010
0100
0010
1000
,
0100
0010
0001
1000
0001
0010
0100
0010
0001
1000
0001
1000
0100
0010
0100
0010
,
1001
0100
0010
0001
1000
0100
1001
0010
0100
0010
0001
0100
1001
0010
0100
0010
,
1001
0100
0010
1000
0100
0010
1001
0100
0010
0100
0001
0010
1001
0010
0100
0010
,
1001
0100
0010
0001
0100
0010
1100
0100
0010
0001
0100
0010
1100
0100
0010
1000
,
0101
0000
0001
0001
0020
0030
0000
0010
0110
1000
0100
0010
0100
0010
0001
0100
,
1001
0010
0100
0001
0010
0100
0010
0001
1000
0100
0010
0001
0100
0010
0100
0001
,
2010
0100
0010
0001
0100
0010
0100
0001
0010
0001
0010
0001
0100
0010
0001
3010
,
0100
1000
0100
0010
0001
0100
0010
0100
0010
0100
0010
0100
0001
0010
0100
0010
,
2100
0001
0010
0001
0100
0010
0100
0010
0100
0010
0001
0010
0100
0001
0010
3001
,
0100
0010
1000
0001
0100
0010
1000
0100
0010
0001
0100
0010
1000
0100
0010
0001
,
0010
0100
1000
0100
1000
0001
0020
0030
0020
0100
1000
0100
1000
0001
0100
0031
,
0200
1000
0010
0001
0010
1000
0310
1000
0011
0000
0000
0000
0110
0000
0000
0000
,
1010
1000
0100
0010
1000
0100
0010
0001
0100
0010
0100
0010
1000
0001
1000
0001
,
0110
1000
0001
1000
0100
0010
0100
1000
0001
0010
0100
1000
0010
0100
0010
1000
,
0102
0010
0100
1000
0010
0100
0010
1000
0100
1000
0100
1000
0010
0100
1000
0103
,
0010
0001
0010
0100
1000
0010
0100
0010
0100
0010
0100
0010
1000
0100
0010
0100
,
0012
1000
0100
1000
0010
0100
0010
0100
0010
0100
1000
0100
0010
1000
0100
1003
,
0010
0100
0001
1000
0010
0100
0001
0010
0100
1000
0010
0100
0001
0010
0100
0010
,
0100
1000
0010
1000
0001
1000
0100
1000
0001
0010
0100
0010
0001
1000
0010
1000
,
0010
0100
0010
1000
0001
0010
0100
1000
0100
0010
0001
0100
0010
0100
0001
0010
,
0100
0010
0100
0010
0100
0010
0100
0010
0100
0000
0000
0000
1000
0100
0010
0001
,
2110
3000
0000
0000
0001
0100
0001
0100
0001
0000
0000
0000
1000
0100
0010
0100
,
1011
0000
0000
0000
1000
0010
1000
0010
1000
0000
0000
0000
0100
0010
0001
1000
,
0111
0000
0000
0000
0000
0000
0000
0000
2000
3000
0200
0300
0020
0030
0002
0003
1020
0030
0000
0000
0000
0000
0000
0000
0110
0000
0000
0000
0000
0000
0000
0000
,
0011
0011
0100
0010
1000
0001
0100
0010
1000
0010
1000
0010
1100
1100
1100
1100
,
0002
0000
1000
0003
0010
0000
1100
0000
0011
0000
0100
0000
0010
0000
1001
0000
,
0011
0100
0010
0001
1000
0010
0100
0001
1000
0100
0010
0001
0200
0010
1300
0001
,
0110
1000
0011
1000
0011
1100
0000
1001
,
0010
0100
0001
1000
0010
0100
0001
1000
0100
0010
0001
1000
0002
0010
0103
0010
,
1100
0010
0001
1100
1100
0010
0001
0110
,
0110
0011
1100
0110
,
1001
0010
0100
1000
0011
0100
1001
0100
0011
1000
0100
0010
0001
0010
0100
1000
,
0011
0100
1000
0100
1001
0100
0011
0100
1001
0100
0011
0100
1001
0100
0011
0100
,
0110
1000
0010
1100
0011
0010
0101
1000
,
1100
0010
0100
1000
0001
0100
0010
1000
0001
0010
0100
1000
0020
0100
0031
1000
,
0110
0001
0100
0011
1100
0001
0100
1001
,
0100
0010
1000
0001
0100
0010
1000
0001
0010
0100
1000
0001
2000
0010
3100
0000
,
0101
0100
1000
0010
0011
0100
1000
0010
,
0110
0001
1000
0001
0011
0100
0010
1000
,
1001
0100
0010
0001
1100
0010
1001
0010
1100
0001
0010
0100
1000
0100
0010
0001
,
1100
0010
0001
0010
1001
0010
1100
0010
1001
0010
1100
0010
1001
0010
1100
0001
,
1001
0010
0001
0100
0010
0100
0001
0100
0010
1000
0001
1000
0010
1000
0100
0010
,
0001
1000
0001
1000
0001
0010
0001
0010
0001
0100
0010
1000
0100
1000
0010
0100
,
0001
1000
0100
0010
0100
1000
0010
1000
0001
0100
0010
0100
0001
0010
0100
1000
,
0010
0100
0010
0100
0001
0010
0001
0010
0100
1000
0100
0010
0001
0100
0010
1000
,
1001
0100
0010
0001
1000
0100
1001
0010
0100
0010
0001
0100
1001
0010
0100
0010
,
1001
0100
0010
1000
0100
0010
1001
0100
0010
0100
0001
0010
1001
0010
0100
0010
,
1001
0100
0010
0001
0100
0010
1100
0100
0010
0001
0100
0010
1100
0100
0010
1000
,
0101
0000
0010
0010
1000
0000
0010
0100
0011
1100
0011
1100
0011
1100
0000
0000
,
1001
0010
0100
0001
0010
0100
0010
0001
1000
0100
0010
0001
0100
0010
0100
0001
,
2010
0100
0010
0001
0100
0010
0100
0001
0010
0001
0010
0001
0100
0010
0001
3010
,
0100
1000
0100
0010
0001
0100
0010
0100
0010
0100
0010
0100
0001
0010
0100
0010
,
2100
0001
0010
0001
0100
0010
0100
0010
0100
0010
0001
0010
0100
0001
0010
3001
,
0100
0010
1000
0001
0100
0010
1000
0100
0010
0001
0100
0010
1000
0100
0010
0001
,
0010
0100
1000
0100
1000
0001
0020
0030
0020
0100
1000
0100
1000
0001
0100
0031
,
0200
1000
0010
0001
0010
1000
0310
1000
0011
0000
0000
0000
0110
0000
0000
0000
,
1010
1000
0100
0010
1000
0100
0010
0001
0100
0010
0100
0010
1000
0001
1000
0001
,
0110
1000
0001
1000
0100
0010
0100
1000
0001
0010
0100
1000
0010
0100
0010
1000
,
0102
0010
0100
1000
0010
0100
0010
1000
0100
1000
0100
1000
0010
0100
1000
0103
,
0010
0001
0010
0100
1000
0010
0100
0010
0100
0010
0100
0010
1000
0100
0010
0100
,
0012
1000
0100
1000
0010
0100
0010
0100
0010
0100
1000
0100
0010
1000
0100
1003
,
0010
0100
0001
1000
0010
0100
0001
0010
0100
1000
0010
0100
0001
0010
0100
0010
,
0100
1000
0010
1000
0001
1000
0100
1000
0001
0010
0100
0010
0001
1000
0010
1000
,
0010
0100
0010
1000
0001
0010
0100
1000
0100
0010
0001
0100
0010
0100
0001
0010
,
0100
1000
0100
0010
0001
1000
1001
0000
0100
0110
1000
0001
0100
0010
1000
0001
,
0110
1000
0001
0100
0011
0100
1000
0001
,
0011
0100
1000
0100
0011
0000
0101
0000
,
0220
0000
0000
0000
0000
0330
1100
0000
,
1001
0100
0010
0001
0100
0001
0010
0101
,
1001
0000
0000
1001
0000
0000
1001
0000
,
1001
0000
0000
0101
0000
0000
0110
0000
,
2200
0000
0000
0000
0000
0000
0000
3300
,
1000
0100
0010
0002
0000
0000
0000
0000
0000
0000
0000
0000
0000
0000
0000
0000
0000
0000
0000
0000
0003
0000
0000
0000
,
1001
0010
0100
1000
0100
0010
0001
1000
0011
0100
0010
0100
0001
0010
0001
1000
0100
1000
0010
1000
0001
1000
0100
0010
0101
1000
0100
1000
0001
0010
0100
0010
,
0001
1000
0100
1000
0010
0100
0010
0100
1001
0010
0001
0100
0001
0010
0001
1000
0100
0010
0100
1000
0100
0010
0100
0010
0101
1000
0010
0100
0001
0100
0001
0010
,
0100
1000
0100
0010
0001
0010
0100
1000
0101
0010
0100
0010
0100
0010
1000
0001
0100
0010
1000
0001
0100
0010
0100
0010
1001
0100
0010
0100
0010
0100
0010
0001
,
1000
0001
1000
0001
0010
0100
0010
0001
1100
0010
1000
0100
0010
0001
1000
0100
1000
0001
0010
0100
0010
0100
0010
0100
2001
3000
0010
0000
0100
0000
0000
0000
,
2001
3000
0010
0000
0100
0000
0100
0000
1020
0000
0000
0000
0000
0000
0000
0000
0000
0000
0000
0000
0000
0000
0000
0000
0000
0000
0000
0000
0000
0000
0030
0000
,
0002
0000
0000
0003
0200
0000
0000
0000
0000
0000
0000
0000
1300
0000
0000
0100
,
0000
0010
0002
0000
0000
0000
0000
0003
,
0000
0010
0020
0000
0000
0000
0030
0000
,
1000
0100
0010
0001
0020
0000
0000
0000
0000
0000
0000
0030
0000
0000
0000
0000
,
1000
0100
0010
0001
0200
0000
0000
0000
0000
0000
0000
0000
0300
0000
0000
0000
,
1000
0010
0100
0001
0020
0000
0000
0000
0030
0000
0200
0000
0000
0000
0300
0000
,
2000
0000
0000
0000
3000
0000
0000
0000
0000
0000
0100
0000
0020
0000
0000
0000
0000
0000
0000
0000
0000
0000
0000
0000
0000
0000
0000
0000
0000
0000
0000
0000
0000
0000
0000
0000
1031
0000
0000
0100
0000
0000
0010
0000
0000
0001
0000
0000
,
0001
1000
0010
0100
0210
0000
0000
0000
0000
0000
0000
0000
0300
0000
0000
0000
,
1000
0100
0010
0001
0020
0000
0000
0000
0000
0000
0000
0000
0000
0000
0000
0030
,
1000
0000
0000
0100
0000
0000
0010
0000
0000
0001
0000
0000
0200
0000
0000
0000
0000
0000
0000
0000
0000
0000
0000
0000
0000
0000
0300
0000
0000
0000
0002
0000
0000
0000
0000
0000
0000
0000
0000
0000
0000
0000
0000
0000
0003
0000
0000
0000
,
2000
0000
0000
3000
0000
0000
0200
0002
0000
0000
0000
0000
0000
0000
0000
0000
0000
0000
0000
0000
0303
0000
0000
0000
,
1000
0010
0100
0001
2220
0000
0000
0000
0000
0000
0000
0000
3330
0000
0000
0000
,
1000
0100
0010
0100
2022
0000
0000
0000
0000
0000
0000
0000
3033
0000
0000
0000
,
1000
0100
0010
0001
2220
3330
0000
0000
0000
0000
0222
0333
0000
0000
0000
0000
,
2202
3303
0000
0000
2222
0000
0000
0000
0000
0000
0000
0000
0000
3333
0000
0000
,
0011
1100
0011
1100
0011
0000
0000
0000
1000
0100
1000
0100
0000
0000
0000
0000
,
1100
0011
1100
0011
2000
0000
0000
0000
3010
0001
0100
0001
0010
0000
0000
0000
,
1100
0000
0000
0011
0000
0000
1100
0000
0000
0011
0000
0000
2200
0000
0000
0000
0000
0000
0000
0000
0000
0000
0000
0000
0000
0000
0000
0000
0000
0000
0000
0000
0000
3300
0000
0000
2002
0000
0000
0000
0000
0000
0000
0000
0000
0000
3003
0000
,
0202
0000
0000
0303
0000
0000
0000
0000
0000
0000
0000
0000
0001
0000
0100
0000
0010
0000
1000
0000
0010
0000
1000
0000
0001
0000
0100
0000
0010
0000
1000
0000
0010
0000
1000
0000
0022
0000
0000
0000
0003
0000
0030
0000
0000
0000
0000
0000
,
2002
0000
0000
0000
0003
0000
3000
0000
0000
0000
0000
0000
1100
0000
0000
0010
0000
0000
0001
0000
0000
1000
0000
0000
0001
0000
0000
0010
0000
0000
0100
0000
0000
1000
0000
0000
0001
0000
0000
0010
0000
0000
0100
0000
0000
1000
0000
0000
,
0001
1000
0100
1000
0001
0010
0100
0010
0001
1000
0010
1000
0001
0100
0001
0100
,
0001
0010
0001
0010
0001
0100
0010
0100
0001
0010
0100
1000
0010
1000
0100
1000
,
0001
1000
0100
1000
0001
0010
0100
1000
0100
0010
0001
1000
0010
0100
0010
1000
,
0100
1000
0100
1000
0001
0010
0001
0100
0010
0100
0001
0010
0100
1000
0100
0010
,
0100
1000
0001
1000
0100
1000
0010
0100
0010
0100
0001
1000
0100
1000
0001
0010
,
0100
0010
0001
1000
0100
1000
0010
0100
0010
1000
0100
1000
0001
0010
0001
0100
,
0010
1000
0001
0100
0010
1000
0001
0100
0010
1000
0001
1000
0100
0010
0100
1000
,
0011
1100
0011
1100
0001
0100
0010
1000
0010
0100
0001
1000
0010
0100
0010
0100
,
0001
0010
0100
1000
0100
0010
0100
1000
0001
0100
0010
0100
0001
0010
0001
0100
,
0010
1000
0010
0100
0010
1000
0001
0010
0100
1000
0001
0010
0100
0010
0001
1000
,
0010
1000
0001
0010
0100
1000
0100
0010
0100
1000
0001
0010
0001
0100
0010
0100
,
0001
0010
0100
1000
0100
0010
0100
1000
0001
1000
0001
1000
0001
0010
0001
0100
,
0010
0100
0010
0100
0010
0001
0010
0100
1000
0100
0010
0100
1000
0001
1000
0100
,
0010
0100
0010
0100
0010
0001
1000
0100
0010
0100
1000
0001
0010
0100
0010
0001
,
1000
0100
0010
0100
1000
0001
0010
0100
0010
0001
1000
0100
0010
0001
0010
0100
,
1000
0000
0100
0000
0010
0000
0001
0000
0200
0000
0000
0000
0000
0000
0300
0000
2000
3000
0020
0030
0200
0300
0002
0003
0110
0000
0000
0000
0000
0000
0000
0000
,
0011
1100
0011
1100
0022
0000
0033
0000
0100
1000
0100
1000
0100
0000
0000
0000
,
0010
1000
0001
0100
1020
0000
0000
0000
0030
0000
0000
0000
1100
0000
0000
0000
,
0110
0000
0000
0000
0001
0001
0010
0100
0001
0001
1000
0100
0010
0010
0100
1000
,
0100
0100
0010
0001
2220
0300
0030
0000
0000
3000
0000
0000
0000
0000
0000
0000
;
