#TITLE:hollow retribution;
#SUBTITLE:;
#ARTIST:Vomitory;
#TITLETRANSLIT:;
#SUBTITLETRANSLIT:;
#ARTISTTRANSLIT:;
#CREDIT:;
#BANNER:logo_vomitory%20%5Bse%5D copia.jpg;
#BACKGROUND:Vomitory-Bloodrapture.jpg;
#LYRICSPATH:;
#CDTITLE:CDTITLE.jpg;
#MUSIC:hollow retribution.mp3;
#OFFSET:0.040;
#SAMPLESTART:100.000;
#SAMPLELENGTH:12.000;
#SELECTABLE:YES;
#BPMS:0.000=238.141;
#STOPS:;
#BGCHANGES:;
// cache tags:
#FIRSTBEAT:5.000;
#LASTBEAT:522.500;
#SONGFILENAME:Songs/Definitive Keyboard Megapack/Hollow Retribution - Vomitory (Leone510)/hollow retribution.sm;
#HASMUSIC:1;
#HASBANNER:1;
#MUSICLENGTH:132.238;
// end cache tags

//---------------dance-single - ----------------
#NOTES:
     dance-single:
     :
     Hard:
     14:
     1.000,1.000,1.000,1.000,0.348,975.000,541.000,296.000,0.000,282.000:
0000
0000
0000
0000
,
0000
0000
1001
0100
0011
0010
1101
0010
,
0101
1000
0111
1000
0011
0100
1011
1000
,
0101
0010
1101
0010
0101
1000
0011
1000
,
0101
0010
1101
0010
0101
1000
0111
0100
,
0110
1000
1001
0100
0011
0010
1101
0010
,
0101
1000
0111
1000
0011
0100
1011
1000
,
0101
0010
1101
0010
0101
1000
0011
1000
,
0101
0010
1101
0010
0101
1000
0111
0100
,
0110
0001
1000
0000
0022
0000
0000
0000
0000
0000
0030
0000
2203
0000
0320
0000
,
3000
0030
0202
2003
0300
3000
0022
2003
,
3000
0030
0022
0230
0003
0300
0202
0320
,
0003
0000
0030
0000
0101
1000
0001
1000
0011
0100
0001
1000
0110
0001
0100
0010
,
1001
0010
0100
1000
0011
0000
0000
0000
1001
0000
0100
0000
1010
0000
0010
0000
,
0110
1000
0101
0001
0110
0001
1010
0100
,
1001
0100
0011
0100
1010
0001
0110
1000
,
0101
0010
0011
0100
1010
0222
0333
2220
,
3330
2022
0033
3100
0101
0100
0011
1000
,
0101
0010
1100
0010
1001
0100
0011
1000
,
0110
0001
1010
0100
1001
0010
0101
1000
,
0110
0000
0001
0000
1010
0000
0100
0000
0101
0010
1000
0010
1001
0010
0100
0010
,
1100
0000
0101
0000
1101
0100
0011
1000
,
0111
0100
1001
0010
1101
0010
0101
1000
,
1110
0001
1010
0100
1011
0010
0101
1000
,
0111
1000
0101
0010
2202
3303
2022
3033
,
2202
3303
1101
0100
0011
1000
0111
0100
,
1001
0010
1101
0010
0101
1000
1110
0001
,
1010
0100
1011
0010
0101
1000
0111
1000
,
0101
0010
1101
0100
0011
1000
0111
0100
,
2002
0000
3113
1001
1110
1001
0111
1100
,
1011
0101
1011
0110
1110
0011
1110
1001
,
0111
1000
0111
1001
1110
1001
0111
1100
,
1011
0101
1011
0110
1110
0011
1110
1001
,
0111
1000
0111
1001
1110
1001
0111
1100
,
1011
0101
1011
0110
1110
0011
1110
1001
,
0111
1000
0111
1001
1110
1001
0111
1100
,
1011
0000
0101
0000
1011
0100
1000
0010
1001
0100
0001
0100
1010
0100
0001
0100
,
0011
0000
2020
0000
0000
0000
3232
2303
,
0220
0000
3300
0000
2031
0000
3002
0000
2020
0000
3000
0030
2103
0000
0220
0000
,
3302
0003
0231
2302
3220
0033
2302
3210
,
2320
0000
3003
0000
2230
0000
3322
0000
2103
0000
0030
3000
0202
0000
2303
0000
,
0220
0000
3300
0000
2031
0000
3002
0000
2020
0000
3000
0030
2103
0000
0220
0000
,
3302
0003
0231
2302
3220
0033
2302
3210
,
2320
0000
3003
0000
2230
0000
3322
0000
2103
0000
0030
3000
0202
0000
2303
0000
,
0220
0000
3300
0000
2031
0000
3002
0000
0010
0100
1000
0010
1103
0001
0010
0001
,
1100
0000
0000
0000
1101
0100
0011
1000
,
0111
0100
1001
0010
1101
0010
0101
1000
,
1110
0001
1010
0100
1011
0010
0101
1000
,
0111
1000
0101
0010
1101
0010
2202
3303
,
2022
3033
2202
3303
1101
0100
0011
1000
,
0111
0100
1001
0010
1101
0010
0101
1000
,
1110
0001
1010
0100
1011
0010
0101
1000
,
0111
1000
0101
0010
1101
0100
0011
1000
,
0111
0100
2002
0000
3113
0000
1101
0100
,
0011
1000
0111
0100
1001
0010
1101
0010
,
0101
1000
1110
0001
1010
0100
1011
0010
,
0101
1000
0111
1000
0101
0010
2022
3033
,
2202
3303
2022
3033
0011
0100
1101
0100
,
0011
1000
0111
0100
1001
0010
1101
0010
,
0101
1000
1110
0001
1010
0100
1011
0010
,
0101
1000
0111
1000
0101
0010
1101
0100
,
0011
1000
0002
0000
0100
1000
0100
1000
,
0200
1300
0100
1000
0100
1000
0100
1000
,
0100
0000
0010
0000
1003
0000
0010
0100
1000
0000
0020
0000
0000
0000
2030
0000
,
0000
3002
0000
0203
0000
0320
0000
2030
,
0000
0000
0000
3010
0101
0010
1001
0010
,
0101
0010
1001
0010
0101
0010
1001
0200
,
0302
0000
0203
0000
2300
0000
3010
0100
2000
0000
3001
0010
2000
0000
3100
0010
,
0002
0000
1003
0010
0200
0000
0310
0100
0020
0000
1030
0001
2000
0000
3001
0010
,
2000
0000
3010
0100
0001
0000
1100
0000
0100
0000
1101
0000
0100
0000
0110
0000
,
0010
1011
0010
0110
0100
1100
0100
1101
,
0100
0110
0010
1011
0010
0110
0100
1100
,
0100
1101
0100
0110
0010
1011
0010
0110
,
0100
1100
0100
1101
0100
0110
0010
1011
,
0010
0110
0100
1100
0100
1101
0100
0110
,
0010
1011
0010
0110
0100
0001
1000
0001
,
1000
0000
0001
0000
1000
0000
0101
0010
1000
0100
0011
0000
1100
0000
0101
0000
,
1001
0110
1001
0100
1011
0100
1010
0001
,
0111
1000
0011
0100
1011
0010
1100
0001
,
1110
0001
0110
1000
0111
1000
1011
0100
,
1010
0001
0111
1000
0011
0100
1011
0010
,
1100
0001
1110
0001
0110
1000
0111
1000
,
1011
0100
1010
0001
0111
1000
0011
0100
,
1011
0010
1100
0001
1110
0001
0110
1000
,
0111
1000
1011
0100
1010
0001
0111
1000
,
0011
0100
2022
3033
2202
3303
2220
3330
,
0222
0333
2022
3033
2202
3303
0222
0333
,
2202
3303
1001
0100
1010
0010
0110
1000
,
0101
0001
0110
0001
1010
0100
1001
0100
,
0011
0100
1010
0001
0110
1000
0101
0010
,
0011
0100
1010
0100
0222
0333
2220
3330
,
2022
3033
0100
0101
0100
0011
1000
0101
,
0010
1100
0010
1001
0100
0011
1000
0110
,
0001
1010
0100
1001
0010
0101
1000
0110
,
0001
0000
1010
0000
0100
0000
0011
0000
1100
0000
0010
0000
0101
0010
1000
0010
,
1001
0010
0100
0010
0001
0000
1101
0000
0100
0000
0011
0000
1000
0000
0111
0000
,
0100
1001
0010
1101
0010
0101
1000
1110
,
0001
1010
0100
1011
0010
0101
1000
0111
,
1000
0101
0010
2202
3303
2022
3033
2202
,
3303
1001
0100
1010
0010
0110
1000
0101
,
0001
0110
0001
1010
0100
1001
0100
0011
,
0100
1010
0001
0110
1000
0101
0010
0011
,
0100
1010
0100
0222
0333
2220
3330
2022
,
3033
0110
1001
1110
1001
0111
1100
1011
,
0101
1011
0110
1110
0011
1110
1001
0111
,
1000
0111
1001
1110
1001
0111
1100
1011
,
0101
1011
0110
1110
0011
1110
1001
0111
,
1000
0111
1001
1110
1001
0111
1100
1011
,
0101
1011
0110
1110
0011
1110
1001
0111
,
1000
0111
1001
1110
1001
0111
1100
1011
,
0101
0000
1011
0100
1000
0010
1001
0100
0001
0100
1010
0100
0001
0100
0011
0000
,
0000
0000
0000
2020
0000
0000
0000
0000
0000
0000
0000
3232
0000
2303
0000
0220
,
0000
3300
0000
2031
0000
3002
0000
2020
0000
3000
0030
2103
0000
0220
0000
3302
,
0000
0003
0000
0231
0000
2302
0000
3220
0000
0033
0000
2302
0000
3210
0000
2320
,
0000
3003
0000
2230
0000
3322
0000
2103
0000
0030
3000
0202
0000
2303
0000
0220
,
0000
3300
0000
2031
0000
3002
0000
2020
0000
3000
0030
2103
0000
0220
0000
3302
,
0000
0003
0000
0231
0000
2302
0000
3220
0000
0033
0000
2302
0000
3210
0000
2320
,
0000
3003
0000
2230
0000
3322
0000
2103
0000
0030
3000
0202
0000
2303
0000
0220
,
0000
3300
0000
2031
0000
3002
0000
0010
0100
1000
0010
1103
0001
0010
0001
1100
,
0000
0000
1001
0100
0011
0010
1101
0010
,
0101
1000
0111
1000
0011
0100
1011
1000
,
0101
0010
1101
0010
0101
1000
0011
1000
,
0101
0010
1101
0010
0101
1000
0111
0100
,
0110
1000
1001
0100
0011
0010
1101
0010
,
0101
1000
0111
1000
0011
0100
1011
1000
,
0101
0010
1101
0010
0101
1000
0111
1000
,
0110
0010
1101
0010
0110
1000
0111
1000
,
0101
0010
1101
0100
2022
3033
2202
3303
,
0222
0333
2220
3330
2022
3033
2202
3303
,
2022
3033
0222
0333
2220
0000
0000
3330
,
2022
0000
0000
0000
3033
0000
0000
0000
0222
0000
0333
0000
2022
0000
0000
3033
0000
0000
2220
0000
3330
0000
0000
0000
0000
0000
0000
0000
0000
0000
0000
0000
;
