#TITLE:Charlotte(Gaussian Blur);
#SUBTITLE:;
#ARTIST:Kil;
#TITLETRANSLIT:;
#SUBTITLETRANSLIT:;
#ARTISTTRANSLIT:;
#CREDIT:;
#BANNER:Charlotte(Gaussian Blur).png;
#BACKGROUND:Charlotte(Gaussian Blur)-bg.png;
#LYRICSPATH:;
#CDTITLE:Kil.png;
#MUSIC:Charlotte(Gaussian Blur).mp3;
#OFFSET:0.542;
#SAMPLESTART:75.068;
#SAMPLELENGTH:11.580;
#SELECTABLE:YES;
#BPMS:0.000=100.020,158.000=105.060;
#STOPS:;
#BGCHANGES:;
// cache tags:
#FIRSTBEAT:4.000;
#LASTBEAT:182.125;
#SONGFILENAME:Songs/IzzySM Keyboard Mega Pack/Charlotte 2/Charlotte(Gaussian Blur).sm;
#HASMUSIC:1;
#HASBANNER:1;
#MUSICLENGTH:112.645;
// end cache tags

//---------------dance-single - Somewhat paddable.----------------
#NOTES:
     dance-single:
     Somewhat paddable.:
     Medium:
     9:
     0.791,0.908,0.710,0.968,0.741,435.000,80.000,109.000,0.000,1.000:
0000
0000
0000
0000
,
0200
0000
0310
0000
0012
0010
0103
0000
,
2000
0000
3010
0000
0210
0310
0101
0000
,
0020
0000
1030
0000
2000
3200
0320
0032
,
2103
0000
0000
0000
3100
0000
0000
0000
0010
0100
0010
0100
0010
0100
0001
1000
0110
0000
0000
0000
0000
0000
0010
0000
1100
0000
0000
0000
0000
0000
0000
0000
,
2002
3003
2002
3003
0101
0110
2100
0000
,
3020
0000
1030
0000
2100
0010
3001
0000
,
2002
3003
2002
3003
0101
0010
1000
0110
,
0200
0000
0300
0000
2001
0000
0000
0000
3010
0000
0000
0001
1000
0000
0000
0000
,
0010
1000
0010
0100
0010
0001
0010
0100
0001
1000
0010
1000
0100
1000
0010
1000
,
0010
0100
0010
0100
0010
0100
1001
0100
0010
0001
1000
0100
0010
0100
1000
0100
,
0001
0100
0001
0100
0010
0100
0010
1001
0100
0010
0100
0010
0100
1000
0100
1001
,
0010
0001
1000
0100
0010
0001
0010
1001
0100
1000
0001
0010
0100
1000
0100
1001
,
0001
0010
0100
1000
0001
1000
0100
0010
0001
1000
0001
0010
0100
1000
0001
0010
,
0100
0010
0100
1000
0100
0010
0100
0001
0100
0010
0001
1000
0010
1000
0100
0001
,
2000
0100
0010
0001
0100
0001
0010
0100
0100
0010
0001
3100
0012
0100
0103
0100
,
2002
0000
0000
0000
0000
3003
0000
0000
,
0102
0100
0010
1000
0010
0100
1000
0100
0100
0010
1000
0010
0100
1000
0010
0103
,
0020
1000
0100
0001
0130
1000
0100
0010
0100
0001
1000
0100
2200
0000
0000
3300
,
2002
0000
0000
3003
0000
0000
0000
0000
0011
0000
1001
0000
0200
0000
0000
0300
,
2100
0000
0000
0000
0000
0000
0100
0000
0010
3000
0001
0000
1020
0000
0000
0000
0000
0000
0030
0000
0000
0000
0000
0000
0220
0000
0000
0000
0000
0000
0300
0000
0000
0000
0000
0000
1000
0000
0000
0000
0000
0000
0030
0000
0000
0000
0000
0000
,
1010
0000
0110
0000
0101
0000
0000
0000
1002
0000
0000
0000
0203
0000
0000
0300
,
0200
0000
0000
0000
0000
0000
0000
0300
2002
0000
0000
0000
0000
0000
0000
3003
,
0020
0000
0000
0000
0000
0000
0000
0030
2002
0000
0000
3003
0000
0000
0000
0000
,
1000
1000
0010
0100
1000
0100
0010
0001
0100
0001
0100
1000
0010
0100
0010
0100
,
2000
3100
1000
0100
0020
0000
0031
0000
0020
0000
1030
0000
2000
0000
3100
0000
,
0220
0000
0330
0000
1010
0000
0000
0000
0220
0000
0330
0000
1100
0000
0000
0000
0202
0000
0303
0000
0110
0000
0000
0000
2020
3030
0000
0000
2002
3003
0000
0000
,
1001
0000
0001
0000
0010
0000
2000
0000
3100
0000
0000
0000
0002
0000
0000
0000
0013
0000
0000
0000
2000
0000
0000
0000
3100
0000
0000
0000
0022
0033
0000
0000
,
0202
0303
0000
0000
0022
0033
0000
0000
0202
0303
0000
0000
0202
0303
0000
0000
0010
0000
0001
0000
0100
0000
1000
0000
2020
0000
0000
0000
0000
0030
0000
0000
,
3100
0001
0020
0130
2010
0000
0000
0000
0010
0010
0010
0100
0020
0000
0000
3030
,
0020
2030
3020
0031
1002
0000
0003
0000
1001
0000
1001
0000
1001
0000
0101
0000
,
0001
1000
0010
0100
0001
1000
0010
0100
2000
0000
3100
0000
0002
0000
0013
0000
,
0100
1000
0100
0100
0000
0100
0101
0000
1001
0000
0010
0000
1000
0000
0100
0000
,
0001
0100
0010
1000
0001
0100
0020
0030
1001
0000
0000
1010
0000
0000
0100
0000
,
0110
0000
0000
0010
0000
0000
1100
0000
1100
0000
0000
0010
0000
0000
0001
0000
,
1001
0000
0000
0000
0101
0000
0000
0000
1001
0000
0000
0000
0010
1000
0010
1000
0020
0000
0000
0000
0000
0000
2030
0000
0002
0000
3000
0000
0200
0000
0003
0000
,
0020
0000
0030
0320
2000
0000
0000
3030
2020
3030
0000
0200
0002
0003
0310
0000
,
0020
0000
2000
0000
0000
3030
0000
0000
1002
0003
1002
0003
1020
0030
2001
3000
,
2001
0010
3001
2001
0010
0001
3001
0000
0202
0000
0303
0000
0210
0000
0301
0000
,
1001
0000
0000
0000
0020
0000
0000
0030
0010
1000
0001
0100
0010
1000
0001
0100
,
1000
0100
0010
0001
1000
0100
0010
0001
0010
0100
1000
0001
0010
0100
1000
0010
,
1000
0000
0000
0100
0000
0000
1000
0000
0000
0001
0000
0000
0010
0000
0000
0001
0000
0000
0100
0000
0000
0010
0000
0000
0100
0000
0000
0010
0000
0000
1001
0000
0000
0000
1000
0000
0000
0000
0001
0000
0000
0000
1000
0000
0000
0000
0001
0000
,
0000
1000
0000
0001
0000
1000
0000
0001
0000
1000
0000
0001
0000
1000
0000
0001
0000
1000
0000
0001
0000
1000
0000
0001
,
0000
0000
1000
0000
0000
0000
0001
0000
0000
0000
1000
0000
0000
0000
0001
0000
0000
0000
1000
0000
0000
0000
0001
0000
0000
0000
1000
0000
0000
0000
0001
0000
0000
0000
1000
0000
0000
0000
0001
0000
0000
0000
1000
0000
0000
0001
0000
0000
,
1000
0000
0000
0001
0000
0000
1000
0000
0000
0001
0000
0000
1000
0000
0000
0001
0000
0000
1000
0000
0001
0000
1000
0000
0001
0000
1000
0000
0001
0000
0000
0000
0000
0000
0000
0000
0000
0000
0000
0000
0000
0000
0000
0000
0000
0000
0000
0000
,
0000
0000
0000
0000
0000
0000
0000
0000
0000
0000
0000
0000
0000
0000
0000
0000
0000
0000
0000
2000
0000
0000
3001
0000
0000
0000
0000
0000
0000
0000
0000
0000
0000
0000
0000
0000
0000
0000
0000
0000
0000
0000
0000
0000
0000
0000
0000
0000
;

//---------------dance-single - [Keyboard Only] Hard----------------
#NOTES:
     dance-single:
     [Keyboard Only] Hard:
     Hard:
     12:
     1.000,1.000,0.968,0.417,1.000,994.000,109.000,47.000,0.000,0.000:
0000
0000
0000
0000
,
0010
1000
0100
0010
0100
0010
0001
0010
0100
1000
0010
0100
0001
0010
1000
0010
0100
0001
0010
0100
1000
0010
0100
1000
0001
0100
1000
0001
0010
0100
1000
0100
,
0010
1000
0100
1000
0100
0010
0100
0010
0001
0010
0001
1000
0001
0010
1000
0100
0001
0010
0100
1000
0010
0001
1000
0100
0010
0001
0100
0010
1000
0100
0010
0001
,
0010
1000
0010
0001
0100
0001
0100
1000
0100
0001
0100
1000
0100
0010
0001
1000
0001
0010
0100
1000
0010
0100
1000
0001
0010
0100
1000
0100
0001
0100
1000
0100
,
0001
0010
1000
0010
0001
0010
1000
0100
0010
0100
0010
0100
0010
0100
0001
1000
0110
0000
0000
0000
0000
0000
0010
0000
1100
0000
0000
0000
1001
0000
0000
0000
,
1001
0010
0100
0010
0100
0010
0100
0001
0100
0010
0100
1000
0001
0100
0001
0010
0100
1000
0100
1000
0100
0010
0100
0010
0001
0010
0001
0010
0100
1000
0010
0100
,
0001
0010
0100
1000
0100
0010
0001
0100
0010
1000
0010
0100
0001
0100
0010
1000
0100
0010
0001
0100
0010
0100
0001
0100
0010
0100
1000
0100
1000
0100
0010
0100
,
1000
0100
0001
0100
1000
0100
0001
0100
0010
0100
0001
0100
0010
0100
0001
0100
0001
1000
0001
1000
0010
0100
0010
0100
0001
0100
0001
0100
0010
1000
0010
0100
,
1000
0100
0010
0001
0100
0010
0001
0010
0100
1000
0001
0010
0100
1000
0001
0010
0100
0000
0000
0000
0000
0000
0101
0000
2020
0000
0000
3030
0000
0000
0000
0000
,
0010
1001
0010
0110
0010
1001
0010
0110
0001
1001
0010
1001
0100
1001
0010
1001
,
0010
0110
0010
0110
0010
0110
1001
0110
0010
1001
1000
0110
0010
0110
1001
0100
,
0001
0100
0001
0100
0001
0100
0001
0000
1000
0010
1000
0000
0100
0010
1001
0000
0100
0010
0100
0010
1000
0001
1000
0000
0001
0010
1000
0000
1000
0010
1001
0000
,
1000
0010
1000
0010
1000
0010
1000
0000
0001
0100
0001
0000
1000
0001
1001
0000
0001
0010
0001
0100
0001
1000
0001
0000
0001
0010
0001
0000
0001
0010
1001
0000
,
0001
0010
0100
0001
0010
1000
0001
0010
0100
0001
0010
0100
0001
0010
1000
0010
0001
0010
1000
0001
0010
1000
0001
0010
1000
0001
0010
0100
0010
0100
1000
0100
,
1000
0100
0010
1000
0100
0001
1000
0100
0010
1000
0100
0010
0001
0010
0100
0001
1000
0100
0001
1000
0100
0001
1000
0100
0001
1000
0100
0001
1000
0100
0010
0001
,
0010
0100
0010
0001
0100
0010
1000
0100
0010
0001
0100
0010
0001
0100
0010
1000
0010
0100
1000
0010
0100
1000
0010
0100
1000
0010
0100
0001
0010
0100
1000
0100
,
1000
0100
0010
1000
0100
0010
0001
0010
0100
0001
0010
0100
1000
0001
0100
0010
0001
1000
0010
1000
0100
1000
0010
0100
0001
0010
0001
0100
0001
1000
0001
0100
,
0010
0100
0100
0010
0100
0100
0010
0100
0100
0010
0100
0100
0001
0010
1000
0010
0001
1000
1000
0001
1000
1000
0001
1000
1000
0001
1000
1000
0100
0010
0100
0010
,
0001
0010
1000
0001
0010
1000
1000
0010
0001
1000
0010
0001
0010
0100
1000
0100
0001
0010
0001
1000
0100
1000
0001
0010
0001
1000
0100
0010
0100
1000
0010
0100
,
2002
0000
0000
3003
0000
0000
0000
0000
0011
0000
1001
0000
0220
0000
0000
0330
,
2100
0000
0000
0000
0000
0000
0100
0000
0010
3000
0001
0000
1020
0000
0000
0000
0000
0000
0030
0000
0000
0000
0000
0000
0220
0000
0000
0000
0000
0000
0300
0000
0000
0000
0000
0000
1000
0000
0000
0000
0000
0000
0030
0000
0000
0000
0000
0000
,
2010
0000
3000
0000
0000
0000
1000
0001
0200
0300
0010
0001
1000
0010
0100
0010
2002
0000
0000
0000
0000
0000
3003
0000
0202
0000
0003
0000
0000
0000
0300
0000
,
0200
0000
0000
0000
0000
0000
0000
0300
2002
0000
0000
0000
0000
0000
0000
3003
,
0020
0000
0000
0000
0000
0000
0000
0030
2002
0000
0000
3003
0000
0000
0000
0000
,
0001
0000
1000
0100
1000
0000
0001
0010
0001
0000
0100
0010
0100
0000
0010
0100
0010
0000
0100
0100
0010
0000
0010
0010
0100
0000
0100
1000
0100
0000
0010
0001
,
0001
0000
0010
0100
0110
0000
1000
0010
1010
0000
0001
1000
1001
0000
0100
0001
0101
0000
0010
0100
0110
0000
1000
0010
1010
0000
0001
1000
1001
0000
1000
0001
,
1001
0000
0000
0000
0101
0000
0000
0000
0011
0000
0000
0000
0101
0000
0000
0000
1010
0000
0000
0000
1100
0000
0000
0000
2002
3003
0220
0330
1001
0000
0000
0000
,
1000
0000
0100
1000
1100
0000
1000
0010
1010
0000
0010
0001
0011
0000
0001
0100
0101
0000
0100
0010
0110
0000
0010
0100
0110
0000
0001
0000
1010
0000
0000
0000
,
1001
0000
0000
0000
0101
0000
0000
0000
1001
0000
0000
0000
0011
0000
0000
0000
1010
0000
0110
0000
1001
0000
2020
3030
1010
0000
0000
0000
0000
0000
0000
0000
,
0101
0000
0110
0000
1001
0000
0202
0303
0101
0000
0000
0000
0000
0000
0000
0000
1010
0000
0110
0000
1001
0000
2020
3030
1010
0000
0000
0000
0000
0000
0000
0000
,
1010
0000
0110
0000
1001
0000
2020
3030
2002
0000
3003
0000
0000
0000
0000
0000
1001
0000
0000
0000
1001
0000
0000
0000
1001
0000
0000
0000
0101
0000
0000
0000
,
1001
0000
1001
0000
0101
0000
1001
0000
1010
0000
1001
0000
0110
0000
1010
0000
0100
1000
0100
0010
0002
0003
0100
1000
0100
0010
0002
0003
0010
1000
0100
0001
,
0010
0100
1000
0001
0020
0030
0100
1000
0100
0001
0020
0030
1000
0001
0100
0010
0001
1000
0001
1000
1001
0000
1001
1000
0001
1000
0001
0000
0010
1000
0010
0100
,
0010
0000
1000
0000
0001
0000
0100
0000
0010
0000
1000
0000
0001
0000
0100
0000
1000
0000
0001
0000
0100
0000
0010
0000
1000
0100
0010
0001
1000
0100
0010
0001
0010
0000
0100
0000
1000
0000
0100
0000
0110
0000
0000
0000
0100
0000
0010
0000
0001
0000
0010
0000
0110
0000
0000
0000
0001
0000
0010
0000
0100
0000
1000
0000
,
0010
0001
1000
0100
0011
0000
0100
1000
0001
0010
1100
0000
0010
0100
0010
0100
0010
1000
0010
0001
0020
0030
0100
0001
0100
1000
0200
0300
0100
1000
0100
1000
,
0100
0000
0001
0000
0010
0000
1000
0000
0100
0000
0001
0000
1000
0000
0010
0000
1000
0000
0100
0000
0010
0000
0001
0000
1000
0001
0100
0010
1000
0001
0100
0010
0001
0000
0010
0000
0100
0000
1000
0000
0001
0000
0010
0000
0100
0000
1000
0000
0001
0000
0010
0000
0100
0000
1000
0000
0100
0000
0010
0000
0001
0000
1000
0000
,
0100
0010
0001
1000
0100
0010
0001
0010
0100
1000
0100
0010
0001
0010
0100
1000
0001
0010
0100
1000
0100
1000
0100
0010
0001
0010
0001
0010
0100
1000
0100
0010
,
0001
0100
0010
1000
0100
0010
0001
0100
0010
1000
0100
0010
0001
0100
0010
0001
0010
1000
0010
1000
0100
0001
0100
0001
0010
1000
0100
0001
0010
1000
0100
0010
,
0001
0010
1000
0100
0001
0010
1000
0100
0010
0001
0100
1000
0010
0001
0100
1000
0010
0100
0010
0100
0010
0100
0010
0200
0000
0000
0300
0000
0000
0000
1001
0110
,
1001
0000
0000
0000
0000
0000
0000
0000
0202
0000
0000
0000
0303
0000
0000
0000
0001
0010
0100
1000
0001
1000
0100
0010
0001
1000
0001
0010
0100
1000
0001
1000
,
0100
0010
0001
1000
0001
0010
0100
1000
0001
0010
0001
1000
0001
1000
0001
0100
0001
0010
0001
0100
0001
1000
0001
0100
0001
0010
0001
0010
0001
1000
0001
0010
,
0001
0000
0000
0000
0000
0000
1000
0000
0000
0000
0000
0000
0100
0000
0000
0000
0000
0000
1000
0000
0000
0000
0000
0000
0001
0000
0000
0000
0000
0000
0010
0000
0000
0000
0000
0000
0100
0000
0000
0000
0000
0000
0010
0000
0000
0000
0000
0000
0001
0000
0000
0000
0000
0000
1000
0000
0000
0000
0000
0000
0100
0000
0000
0000
0000
0000
0010
0000
0000
0000
0000
0000
0100
0000
0000
0000
0000
0000
0010
0000
0000
0000
0000
0000
0001
0000
0000
0000
0000
0000
1000
0000
0000
0000
0000
0000
0100
0000
0000
0000
0000
0000
0010
0000
0000
0000
0000
0000
0001
0000
0000
0000
0000
0000
0100
0000
0000
0000
0000
0000
1001
0000
0000
0000
0000
0000
0000
0000
0000
0000
0000
0000
0000
0000
0000
0000
0001
0000
0000
0000
0000
0000
0000
0000
0000
0000
0000
0000
0000
0000
0000
0000
1000
0000
0000
0000
0000
0000
0000
0000
0000
0000
0000
0000
0000
0000
0000
0000
0001
0000
0000
0000
0000
0000
0000
0000
0000
0000
0000
0000
0000
0000
0000
0000
1000
0000
0000
0000
0000
0000
0000
0000
,
0000
0001
0000
1000
0000
0001
0000
1000
0000
0001
0000
1000
0000
0001
0000
1000
0000
0001
0000
1000
0000
0001
0000
1000
,
0000
0000
0001
0000
0000
0000
1000
0000
0000
0000
0001
0000
0000
0000
1000
0000
0000
0000
0001
0000
0000
0000
1000
0000
0000
0000
0001
0000
0000
0000
1000
0000
0000
0000
0001
0000
0000
0000
1000
0000
0000
0000
0001
0000
0000
1000
0000
0000
,
0001
0000
0000
1000
0000
0000
0001
0000
0000
1000
0000
0000
0001
0000
0000
1000
0000
0000
0001
0000
1000
0000
0001
0000
1000
0000
0001
0000
1000
0000
0001
0000
0000
0000
0000
0000
0000
0000
0000
0000
0000
0000
0000
0000
0000
0000
0000
0000
,
0000
0000
0000
0000
0000
0000
0000
0000
0000
0000
0000
0000
0000
0000
0000
0000
0000
0000
0000
0000
0000
0000
0000
0000
0000
0000
0000
0000
0000
0000
0000
0000
0000
0000
0000
0000
0000
0000
0000
0000
0000
0000
0000
0000
0000
0000
0000
0000
0000
0000
0000
0000
0000
0000
0000
0000
0000
0000
0000
0000
0000
0000
0000
0000
0000
0000
0000
0000
0000
0000
0000
0000
0000
0000
0000
0000
0000
0000
0000
0000
0000
0000
0000
0000
2000
0000
0000
0000
0100
0000
0000
0000
0010
0000
0000
0000
0002
0000
0000
0000
0003
0000
3000
0000
0000
0000
0000
0000
0000
0000
0000
0000
0000
0000
0000
0000
0000
0000
0000
0000
0000
0000
0000
0000
0000
0000
0000
0000
0000
0000
0000
0000
0000
0000
0000
0000
0000
0000
0000
0000
0000
0000
0000
0000
0000
0000
0000
0000
0000
0000
0000
0000
0000
0000
0000
0000
0000
0000
0000
0000
0000
0000
0000
0000
0000
0000
0000
0000
0000
0000
0000
0000
0000
0000
0000
0000
0000
0000
0000
0000
0000
0000
0000
0000
0000
0000
0000
0000
0000
0000
0000
0000
;

//---------------dance-single - [Keyboard Only] BS----------------
#NOTES:
     dance-single:
     [Keyboard Only] BS:
     Challenge:
     13:
     1.000,1.000,1.000,0.515,1.000,1007.000,143.000,58.000,0.000,79.000:
0000
0000
0000
0000
,
0011
1000
0100
0010
0100
0010
0001
0010
0100
1000
0010
0100
0001
0010
1000
0010
0100
0001
0010
0100
1000
0010
0100
1000
0001
0100
1000
0001
0010
0100
1000
0100
,
0010
1000
0100
1000
0100
0010
0100
0010
0001
0010
0001
1000
0001
0010
1000
0100
0001
0010
0100
1000
0010
0001
1000
0100
0010
0001
0100
0010
1000
0100
0010
0001
,
0010
1000
0010
0001
0100
0001
0100
1000
0100
0001
0100
1000
0100
0010
0001
1000
0001
0010
0100
1000
0010
0100
1000
0001
0010
0100
1000
0100
0001
0100
1000
0100
,
0001
0010
1000
0010
0001
0010
1000
0100
0010
0100
0010
0100
0010
0100
0001
1000
0111
0000
0000
0000
0000
0000
0010
0000
1101
0000
0000
0000
0000
0000
0000
0000
,
1001
0010
0100
0010
0100
0010
0100
0001
0100
0010
0100
1000
0001
0100
0001
0010
0100
1000
0100
1000
0100
0010
0100
0010
0001
0010
0001
0010
0100
1000
0010
0100
,
0001
0010
0100
1000
0100
0010
0001
0100
0010
1000
0010
0100
0001
0100
0010
1000
0100
0010
0001
0100
0010
0100
0001
0100
0010
0100
1000
0100
1000
0100
0010
0100
,
1000
0100
0001
0100
1000
0100
0001
0100
0010
0100
0001
0100
0010
0100
0001
0100
0001
1000
0001
1000
0010
0100
0010
0100
0001
0100
0001
0100
0010
1000
0010
0100
,
1000
0100
0010
0001
0100
0010
0001
0010
0100
1000
0001
0010
0100
1000
0001
0010
0100
0000
0000
0000
0000
0000
0111
0000
2120
0000
0000
3030
0000
0000
0000
0000
,
1010
1001
1010
0110
1010
1001
1010
0110
0101
1001
1010
1001
0101
1001
1010
1001
,
1010
0110
1010
0110
1010
0110
1111
0110
1010
1001
1000
0110
0011
0110
1001
0101
,
0001
0100
0001
0100
0001
0100
0001
0000
1000
0010
1000
0000
0100
0010
1001
0000
0100
0010
0100
0010
1000
0001
1000
0000
0001
0010
1000
0000
1000
0010
1001
0000
,
1000
0010
1000
0010
1000
0010
1000
0000
0001
0100
0001
0000
1000
0001
1001
0000
0001
0010
0001
0100
0001
1000
0001
0000
0001
0010
0001
0000
0001
0010
1001
0000
,
0001
0010
0100
0001
0010
1000
0001
0010
0100
0001
0010
0100
0001
0010
1000
0010
0001
0010
1000
0001
0010
1000
0001
0010
1000
0001
0010
0100
0010
0100
1000
0100
,
1000
0100
0010
1000
0100
0001
1000
0100
0010
1000
0100
0010
0001
0010
0100
0001
1000
0100
0001
1000
0100
0001
1000
0100
0001
1000
0100
0001
1000
0100
0010
0001
,
0010
0100
0010
0001
0100
0010
1000
0100
0010
0001
0100
0010
0001
0100
0010
1000
0010
0100
1000
0010
0100
1000
0010
0100
1000
0010
0100
0001
0010
0100
1000
0100
,
1000
0100
0010
1000
0100
0010
0001
0010
0100
0001
0010
0100
1000
0001
0100
0010
0001
1000
0010
1000
0100
1000
0010
0100
0001
0010
0001
0100
0001
1000
0001
0100
,
0010
0100
0100
0010
0100
0100
0010
0100
0100
0010
0100
0100
0001
0010
1000
0010
0001
1000
1000
0001
1000
1000
0001
1000
1000
0001
1000
1000
0100
0010
0100
0010
,
0001
0010
1000
0001
0010
1000
1000
0010
0001
1000
0010
0001
0010
0100
1000
0100
0001
0010
0001
1000
0100
1000
0001
0010
0001
1000
0100
0010
0100
1000
0010
0100
,
2002
0000
0000
3003
0000
0000
0000
0000
0011
0000
1001
0000
0220
0000
0000
0330
,
2100
0000
0000
0000
0000
0000
0100
0000
0010
3000
0001
0000
1020
0000
0000
0000
0000
0000
0030
0000
0000
0000
0000
0000
0220
0000
0000
0000
0000
0000
0300
0000
0000
0000
0000
0000
1000
0000
0000
0000
0000
0000
0030
0000
0000
0000
0000
0000
,
2010
0000
3000
0000
0000
0000
1000
0001
0200
0300
0010
0001
1000
0010
0100
0010
2002
0000
0000
0000
0000
0000
3003
0000
0202
0000
0003
0000
0000
0000
0300
0000
,
0200
0000
0000
0000
0000
0000
0000
0300
2002
0000
0000
0000
0000
0000
0000
3003
,
0020
0000
0000
0000
0000
0000
0000
0030
2002
0000
0000
3003
0000
0000
0000
0000
,
0001
0000
0001
0010
0001
0000
0001
0010
0001
0000
0001
0010
0001
0000
0001
0010
0001
0000
0001
0010
0001
0000
0001
0010
0001
0000
0001
0010
0001
0000
0001
0010
,
0001
0000
1001
0010
0101
0000
1001
0010
1001
0000
0001
0010
0101
0000
0001
0010
1001
0000
0001
0010
0101
0000
0001
0010
1001
0000
0001
0010
0101
0000
0001
0010
,
1100
0000
0100
0010
0101
0000
0100
0010
0101
0000
0100
0010
1100
0000
0100
0010
0101
0000
0100
0010
1100
0000
0100
0010
2102
3003
0000
0000
1011
0000
0000
0000
,
1000
0000
1010
0100
1001
0000
1010
0100
1010
0000
1000
0100
1010
0000
1000
0100
1001
0000
1000
0100
1010
0000
1000
0100
1010
0000
1000
0100
1001
0000
1000
0100
,
1011
0000
0000
0000
0111
0000
0000
0000
1011
0000
0000
0000
1110
0000
0000
0000
1011
0000
0110
0000
1011
0000
2020
3030
2220
0030
0000
0300
0000
0000
3000
0000
,
1101
0000
0110
0000
1101
0000
0202
0303
0222
0300
0000
0030
0000
0000
0003
0000
1011
0000
0110
0000
1101
0000
2020
3030
2220
0030
0000
0300
0000
0000
3000
0000
,
1011
0000
0110
0000
1011
0000
2020
3030
2112
0000
0000
0000
0000
3003
0000
0000
1011
0000
0000
0000
1011
0000
0000
0000
1011
0000
0000
0000
1011
0000
0000
0000
,
1011
0000
1011
0000
1011
0000
1011
0000
0111
0000
1110
0000
1011
0000
0111
0000
0100
1000
0100
0010
0002
0003
0100
1000
0100
0010
0002
0003
0010
1000
0100
0001
,
0010
0100
1000
0001
0020
0030
0100
1000
0100
0001
0020
0030
1000
0001
0100
0010
0001
1000
0001
1000
1001
0000
1001
1000
0001
1000
0001
0000
0010
1000
0010
0100
,
0010
0000
1000
0000
0001
0000
0100
0000
0010
0000
1000
0000
0001
0000
0100
0000
1000
0000
0001
0000
0100
0000
0010
0000
1000
0100
0010
0001
1000
0100
0010
0001
0010
0000
0100
0000
1000
0000
0100
0000
0110
0000
0000
0000
0100
0000
0010
0000
0001
0000
0010
0000
0110
0000
0000
0000
0001
0000
0010
0000
0100
0000
1000
0000
,
0010
0001
1000
0100
0011
0000
0100
1000
0001
0010
1100
0000
0010
0100
0010
0100
0010
1000
0010
0001
0020
0030
0100
0001
0100
1000
0200
0300
0100
1000
0100
1000
,
0100
0000
0001
0000
0010
0000
1000
0000
0100
0000
0001
0000
1000
0000
0010
0000
1000
0000
0100
0000
0010
0000
0001
0000
1000
0001
0100
0010
1000
0001
0100
0010
0001
0000
0010
0000
0100
0000
1000
0000
0001
0000
0010
0000
0100
0000
1000
0000
0001
0000
0010
0000
0100
0000
1000
0000
0100
0000
0010
0000
0001
0000
1000
0000
,
0100
0010
0001
1000
0100
0010
0001
0010
0100
1000
0100
0010
0001
0010
0100
1000
0001
0010
0100
1000
0100
1000
0100
0010
0001
0010
0001
0010
0100
1000
0100
0010
,
0001
0100
0010
1000
0100
0010
0001
0100
0010
1000
0100
0010
0001
0100
0010
0001
0010
1000
0010
1000
0100
0001
0100
0001
0010
1000
0100
0001
0010
1000
0100
0010
,
0001
0010
1000
0100
0001
0010
1000
0100
0010
0001
0100
1000
0010
0001
0100
1000
0010
0100
0010
0100
0010
0100
0010
0200
0000
0000
0300
0000
0000
0000
1001
0110
,
1001
0000
0000
0000
0000
0000
0000
0000
0202
0000
0000
0000
0303
0000
0000
0000
1001
0010
0100
1000
0101
1000
0100
0010
0011
1000
0001
0010
0101
1000
0001
1000
,
1100
0010
0001
1000
0101
0010
0100
1000
0011
0010
0001
1000
0011
1000
0001
0100
0101
0010
0001
0100
1001
1000
0001
0100
0101
0010
0001
0010
0011
1000
0001
0010
,
0101
0000
0000
0000
0000
0000
1000
0000
0000
0000
0000
0000
0100
0000
0000
0000
0000
0000
1000
0000
0000
0000
0000
0000
0101
0000
0000
0000
0000
0000
0010
0000
0000
0000
0000
0000
0100
0000
0000
0000
0000
0000
0010
0000
0000
0000
0000
0000
0011
0000
0000
0000
0000
0000
1000
0000
0000
0000
0000
0000
0100
0000
0000
0000
0000
0000
0010
0000
0000
0000
0000
0000
0100
0000
0000
0000
0000
0000
0010
0000
0000
0000
0000
0000
0101
0000
0000
0000
0000
0000
1000
0000
0000
0000
0000
0000
0100
0000
0000
0000
0000
0000
0010
0000
0000
0000
0000
0000
0011
0000
0000
0000
0000
0000
0100
0000
0000
0000
0000
0000
1221
0000
0000
0000
0000
0000
0000
0000
0000
0000
0000
0000
0000
0000
0000
0000
0001
0000
0000
0000
0000
0000
0000
0000
0000
0000
0000
0000
0000
0000
0000
0000
1000
0000
0000
0000
0000
0000
0000
0000
0000
0000
0000
0000
0000
0000
0000
0000
0001
0000
0000
0000
0000
0000
0000
0000
0000
0000
0000
0000
0000
0000
0000
0000
1000
0000
0000
0000
0000
0000
0000
0000
,
0000
0001
0000
1000
0000
0001
0000
1000
0000
0001
0000
1000
0000
0001
0000
1000
0000
0001
0000
1000
0000
0001
0000
1000
,
0000
0000
0001
0000
0000
0000
1000
0000
0000
0000
0001
0000
0000
0000
1000
0000
0000
0000
0001
0000
0000
0000
1000
0000
0000
0000
0001
0000
0000
0000
1000
0000
0000
0000
0001
0000
0000
0000
1000
0000
0000
0000
0001
0000
0000
1000
0000
0000
,
0001
0000
0000
1000
0000
0000
0001
0000
0000
1000
0000
0000
0001
0000
0000
1000
0000
0000
0001
0000
1000
0000
0001
0000
1000
0000
0001
0000
1000
0000
0001
0000
0000
0000
0000
0000
0000
0000
0000
0000
0000
0000
0000
0000
0000
0000
0000
0000
,
0330
0000
0000
0000
0000
0000
0000
0000
0000
0000
0000
0000
0000
0000
0000
0000
0000
0000
0000
0000
0000
0000
0000
0000
0000
0000
0000
0000
0000
0000
0000
0000
0000
0000
0000
0000
0000
0000
0000
0000
0000
0000
0000
0000
0000
0000
0000
0000
0000
0000
0000
0000
0000
0000
0000
0000
0000
0000
0000
0000
0000
0000
0000
0000
0000
0000
0000
0000
0000
0000
0000
0000
0000
0000
0000
0000
0000
0000
0000
0000
0000
0000
0000
0000
2000
0000
0000
0000
0200
0000
0000
0000
0020
0000
0000
0000
0002
0000
0000
0000
0333
0000
3000
0000
0000
0000
0000
0000
0000
0000
0000
0000
0000
0000
0000
0000
0000
0000
0000
0000
0000
0000
0000
0000
0000
0000
0000
0000
0000
0000
0000
0000
0000
0000
0000
0000
0000
0000
0000
0000
0000
0000
0000
0000
0000
0000
0000
0000
0000
0000
0000
0000
0000
0000
0000
0000
0000
0000
0000
0000
0000
0000
0000
0000
0000
0000
0000
0000
0000
0000
0000
0000
0000
0000
0000
0000
0000
0000
0000
0000
0000
0000
0000
0000
0000
0000
0000
0000
0000
0000
0000
0000
;
