#TITLE:Sublimation;
#SUBTITLE:The Second BOSS Song of Kirby5464;
#ARTIST:Xystran;
#TITLETRANSLIT:;
#SUBTITLETRANSLIT:;
#ARTISTTRANSLIT:;
#CREDIT:;
#BANNER:../BN.png;
#BACKGROUND:../BG.png;
#LYRICSPATH:;
#CDTITLE:../CDTitleKIRBY.png;
#MUSIC:Xystran - Sublimation.ogg;
#OFFSET:-0.346;
#SAMPLESTART:142.037;
#SAMPLELENGTH:25.000;
#SELECTABLE:YES;
#DISPLAYBPM:325.000;
#BPMS:0.000=162.501,64.000=325.002,448.000=162.501,511.500=325.002;
#STOPS:;
#BGCHANGES:;
// cache tags:
#FIRSTBEAT:0.000;
#LASTBEAT:1312.000;
#SONGFILENAME:Songs/Index Gradation/Sublimation - [Kirby5464]/Sublimation.sm;
#HASMUSIC:1;
#HASBANNER:1;
#MUSICLENGTH:268.260;
// end cache tags

//---------------dance-single - ----------------
#NOTES:
     dance-single:
     :
     Challenge:
     33:
     1.000,1.000,0.186,0.183,1.000,2980.000,50.000,49.000,1.000,0.000:
2001
0000
0000
0000
,
3002
0000
0000
0000
,
0203
0000
0000
0000
,
0320
0000
0000
0000
,
2030
0000
0000
0000
,
3200
0000
0000
0000
,
0320
0000
0000
0000
,
0032
0000
0000
0000
2003
0000
3020
0000
0230
0000
0302
0000
2003
3000
0000
0000
,
1010
0000
0010
0100
0110
0000
1000
0001
,
0100
0010
1000
0001
0101
0000
1000
0001
,
0011
0000
1000
0010
0110
0000
1000
0100
,
0010
0001
1000
0010
1010
0000
0001
0100
,
0101
0000
1000
0001
0011
0000
1000
0010
,
0100
0001
1000
0010
0110
0000
0001
1000
,
1010
0000
0001
1000
1100
0000
0001
1000
,
0010
0100
0001
0010
0011
0000
1000
0001
,
1000
0100
0010
0001
,
1000
0010
0100
0001
,
0010
0001
1000
0100
,
0010
0000
0100
0000
1000
0001
0010
0001
,
1000
0100
1000
0001
,
0100
0001
0010
0100
,
1000
0001
0100
0010
,
1000
0000
0100
0000
0010
0001
1000
0010
,
0100
0001
1000
0001
,
0010
0100
1000
0010
,
0100
0010
1000
0100
,
1000
0000
0001
0000
0010
0000
0001
0100
,
0010
0000
1000
0000
0100
0000
1000
0001
,
0100
0000
0010
0000
1000
0000
0001
0100
,
0010
1000
0100
0010
,
0001
1000
0040
0000
,
0130
0001
0010
0100
,
1000
0001
0100
0010
,
1000
0100
1000
0001
,
0100
0000
0001
0000
0010
0100
1000
0001
,
0100
0010
1000
0100
,
0010
0001
1000
0100
,
0010
0100
1000
0001
,
0100
0001
0010
0100
,
1000
0002
0000
0003
,
0000
0020
0000
0030
,
0000
0200
0000
0300
,
0000
2000
0000
3000
,
0000
0020
0000
0030
,
0000
0200
0000
0300
,
0000
0002
0000
0000
,
0003
0000
0000
0000
,
1000
0100
0010
0001
1000
0010
0100
0001
0010
0001
1000
0100
1000
0001
0010
0100
,
0010
0001
1000
0010
1000
0100
0010
0001
1000
0010
0100
0001
1000
0001
0010
0100
,
1000
0010
0100
0010
1000
0100
1000
0001
0010
0001
1000
0010
1000
0001
0010
0100
,
0010
0001
1000
0010
0100
0001
0010
0100
1000
0000
0010
0000
0100
0000
0001
0000
,
1000
0001
1000
0100
0010
0001
1000
0010
1000
0001
0010
0100
0010
0001
1000
0100
,
1000
0001
0010
0001
1000
0010
0100
0001
0010
0100
1000
0001
0010
0001
1000
0100
,
1000
0001
0010
0100
0010
0001
1000
0100
1000
0001
0100
0010
1000
0001
0010
0100
,
1000
0001
0010
0100
0010
0001
1000
0010
0100
0000
0001
0000
1000
0000
0001
0000
,
0100
0010
1000
0100
1000
0001
0100
0001
0010
0100
1000
0001
0010
0001
1000
0010
,
0100
0001
0010
0100
0010
0001
1000
0100
0010
0001
1000
0010
1000
0001
0010
0100
,
1000
0001
0100
0010
1000
0100
1000
0001
0010
0001
1000
0010
0100
0001
1000
0001
,
0010
0100
1000
0001
0100
0010
1000
0100
1000
0001
0100
0001
1000
0000
0010
0000
,
0100
0001
0010
0100
1000
0001
0100
0010
1000
0001
0010
0100
1000
0000
0001
0000
,
0100
0010
1000
0001
1000
0100
0010
0001
1000
0010
0100
0001
0010
0100
0010
0000
,
0001
0100
0010
1000
0100
0010
0001
1000
0100
1000
0001
0010
0001
1000
0010
1000
,
0001
0010
0100
1000
0001
0100
0010
1000
0100
0010
0001
0100
0010
1000
0001
1000
,
0010
0100
0001
0010
,
0100
1000
0001
0100
,
0010
1000
0100
1000
,
0001
0000
0100
0000
0001
1000
0010
0100
,
0001
1000
0010
0100
,
0001
0010
0100
1000
,
0001
0010
0100
0010
,
0001
0000
1000
0000
0010
0100
0010
1000
,
0001
0010
0100
1000
,
0001
0100
0010
1000
,
0100
1000
0001
0100
,
0001
0000
0010
0000
0100
0000
1000
0010
,
0100
0000
0001
0000
1000
0000
0001
0100
,
0010
0000
1000
0000
0001
0000
0100
0010
,
1000
0001
0010
0100
,
4000
0000
0000
0000
,
3001
0100
0001
0010
0100
1000
0001
0100
0010
1000
0100
1000
0001
0010
0001
1000
,
0010
0100
0001
0010
0100
0010
0001
1000
0010
1000
0100
0010
0001
1000
0010
0100
,
0001
1000
0001
0010
0100
1000
0010
0100
0010
1000
0100
1000
0001
0010
0001
1000
,
0010
0100
0001
0010
0100
0010
0001
1000
0010
0000
0100
0000
0001
0000
1000
0000
,
0010
0100
0001
1000
0100
0010
0001
1000
0100
1000
0001
0010
0100
0010
0001
1000
,
0010
0100
0010
1000
0001
0100
0010
1000
0100
0010
0001
1000
0010
0100
0001
0010
,
0001
1000
0100
1000
0010
0100
0010
1000
0001
1000
0100
0010
0001
1000
0010
0100
,
0001
0010
0100
0010
0001
1000
0100
1000
0001
0000
0100
0000
0010
0000
1000
0000
,
0001
0010
0100
1000
0001
0010
0001
1000
0100
1000
0001
0100
0010
1000
0100
0010
,
0001
1000
0010
0100
0010
1000
0001
0010
0100
0010
0001
1000
0100
1000
0001
0100
,
0001
0010
0100
1000
0010
0100
0010
1000
0100
1000
0001
0010
0001
1000
0010
0100
,
0001
1000
0100
0010
0001
1000
0010
0100
0001
0010
0001
1000
0100
1000
0001
0000
,
0100
0010
1000
0100
1000
0001
0010
0100
1000
0001
0010
0001
1000
0010
0100
0000
,
0001
1000
0100
0010
0001
1000
0100
1000
0001
0010
0100
0010
0001
1000
0010
0000
,
0100
0001
0010
0100
1000
0001
0100
0010
1000
0100
1000
0001
0010
0100
0010
0001
,
1000
0010
1000
0100
0010
0001
1000
0010
0100
0000
0001
0000
0010
0000
0100
0000
,
1000
0001
0100
0010
1000
0100
0010
0001
1000
0100
1000
0001
0100
0001
0010
0100
,
1000
0001
0010
0001
1000
0010
1000
0100
0010
0001
1000
0010
0100
0001
1000
0001
,
0010
0100
1000
0010
0100
0010
1000
0100
1000
0001
0010
0001
1000
0010
1000
0100
,
0010
0001
1000
0010
0100
0001
0010
0100
0010
0000
0001
0000
1000
0000
0010
0000
,
0100
0001
1000
0100
0010
0001
1000
0100
1000
0001
0010
0001
1000
0010
0100
0001
,
0010
0100
1000
0001
0010
0100
0010
0001
1000
0010
1000
0100
0010
0001
1000
0100
,
1000
0001
0010
0001
1000
0010
0100
0001
1000
0100
0010
0001
1000
0010
1000
0001
,
0010
0100
1000
0001
0010
0100
0010
0001
1000
0000
0100
0000
1000
0000
0001
0000
,
0100
0010
1000
0100
0010
0001
1000
0010
1000
0001
0010
0001
1000
0010
0100
0001
,
0010
0100
1000
0001
0010
0100
0010
0001
1000
0100
1000
0010
0100
0010
1000
0001
,
0010
0100
1000
0001
0100
0001
1000
0100
1000
0001
0010
0100
0010
0001
1000
0010
,
0100
0001
0010
0100
1000
0001
0100
0010
1000
0100
0010
0001
1000
0001
0010
0000
,
0100
2000
0000
3000
,
0000
0020
0000
0030
,
0000
0200
0000
0300
,
0004
0000
0000
0000
,
1003
0000
0001
0100
0110
0000
1000
0001
,
0100
0010
1000
0001
0101
0000
1000
0001
,
0011
0000
1000
0010
0110
0000
1000
0100
,
0010
0001
1000
0010
1010
0000
0001
0100
,
0101
0000
1000
0001
0011
0000
1000
0010
,
0100
0001
1000
0010
0110
0000
0001
1000
,
1010
0000
0001
1000
1100
0000
0001
1000
,
0002
0000
0000
0000
2003
0000
3200
0000
0320
0000
0032
0000
2003
3000
0000
0000
,
0001
0010
0100
1000
,
0001
0100
0010
0000
,
2000
0000
0000
0000
,
3020
0000
0000
0000
,
0230
0000
0000
0000
,
0302
0000
0000
0000
,
2003
0000
0000
0000
,
3002
0003
0000
0000
,
1000
0100
0010
0001
1000
0100
1000
0001
,
0100
0001
0010
0100
1000
0010
0100
0010
,
1000
0100
1000
0001
0010
0100
1000
0001
,
0100
0010
1000
0100
0010
0100
1000
0001
,
0010
0001
1000
0100
1000
0001
0100
0010
,
1000
0100
0010
0001
1000
0100
0010
0100
,
1000
0001
0010
0100
1000
0001
0010
0001
,
1000
0100
1000
0001
0100
0010
1000
0100
,
0010
0001
1000
0010
0100
0001
1000
0001
,
0010
0100
1000
0001
0010
0100
0010
0001
,
1000
0100
1000
0001
0100
0010
1000
0100
,
0010
0100
1000
0001
0010
0001
1000
0010
,
0100
0001
0010
0100
1000
0001
0100
0010
,
2000
0000
3001
0010
0100
1000
0001
0100
,
0020
0000
1030
0001
0010
0100
1000
0001
,
0200
0000
0310
1000
0100
0010
0001
1000
,
0001
0000
0100
0000
,
0010
0000
1000
0000
,
0100
0000
0010
0000
,
0001
0000
1000
0000
,
0010
0000
0100
0000
,
0001
0000
0010
0000
,
0100
0000
0010
0000
,
0001
0000
1000
0000
,
0010
0100
0001
1000
,
0001
0010
0100
1000
,
0001
0100
0010
1000
,
0001
1000
0100
0010
,
0001
1000
0100
0010
0100
1000
0001
0100
,
0001
0010
0100
1000
0001
0100
0010
1000
,
0002
0003
0000
0000
0000
0000
0000
0000
,
1000
0001
0100
0020
2030
3000
0001
0100
,
0010
0100
0001
1000
0100
0010
0001
1000
0100
1000
0001
0010
0100
0010
0001
1000
,
0010
0100
0010
1000
0001
0100
0010
1000
0100
0010
0001
1000
0010
0100
0001
0010
,
0001
1000
0100
1000
0010
0100
0010
1000
0001
1000
0100
0010
0001
1000
0010
0100
,
0001
0010
0100
0010
0001
1000
0100
1000
0001
0010
0100
1000
0001
0100
0010
1000
,
0001
0010
0100
1000
0001
0100
0010
1000
0001
1000
0100
0010
0001
1000
0010
0100
,
0001
0010
0100
0010
0001
1000
0100
0010
0001
1000
0010
0100
0001
0010
0001
1000
,
0100
1000
0001
0010
0100
0010
0001
1000
0010
1000
0100
0010
0001
1000
0010
0100
,
0001
1000
0001
0010
0100
1000
0010
0100
0010
1000
0100
1000
0001
0010
0001
1000
,
0010
1000
0001
0010
0100
0010
0001
1000
0010
0100
0001
0010
0100
1000
0001
0100
,
0001
1000
0010
0100
0001
0010
0001
1000
0100
1000
0001
0010
0100
0010
0001
1000
,
0010
1000
0100
0010
0001
1000
0010
0100
0001
1000
0001
0010
0100
1000
0010
0100
,
0010
1000
0100
1000
0001
0010
0001
1000
0010
1000
0001
0010
0100
0010
0001
1000
,
0010
0100
0001
1000
0100
0010
0001
1000
0100
1000
0001
0010
0100
0010
0001
1000
,
0010
0100
0010
1000
0001
0100
0010
1000
0100
0010
0001
1000
0010
0100
0001
0010
,
0001
1000
0100
1000
0010
0100
0010
1000
0001
1000
0100
0010
0001
1000
0010
0100
,
0001
0010
0100
0010
0001
1000
0100
1000
0001
0010
0100
1000
0001
0100
0010
1000
,
0001
0010
0100
1000
0001
0100
0010
1000
0001
1000
0100
0010
0001
1000
0010
0100
,
0001
0010
0100
0010
0001
1000
0100
0010
0001
1000
0010
0100
0001
0010
0001
1000
,
0100
1000
0001
0010
0100
0010
0001
1000
0010
1000
0100
0010
0001
1000
0010
0100
,
0001
1000
0001
0010
0100
1000
0010
0100
0010
1000
0100
1000
0001
0010
0001
1000
,
0010
1000
0001
0010
0100
0010
0001
1000
0010
0100
0001
0010
0100
1000
0001
0100
,
0001
1000
0010
0100
0001
0010
0001
1000
0100
1000
0001
0010
0100
0010
0001
1000
,
0010
1000
0100
0010
0001
1000
0010
0100
0001
1000
0001
0010
0100
1000
0010
0100
,
0010
1000
0100
1000
0001
0010
0001
1000
0010
1000
0001
0010
0100
0010
0001
1000
,
0010
0100
0001
0010
0100
1000
0001
0100
0010
1000
0001
0010
0100
1000
0001
0100
,
0010
1000
0001
1000
0100
0010
0001
1000
0010
0100
0001
0010
0100
0010
0001
1000
,
0100
0010
0001
1000
0010
0100
0001
0010
0001
1000
0100
1000
0001
0010
0100
0010
,
0001
1000
0010
1000
0100
0010
0001
1000
0010
0100
0001
1000
0001
0010
0100
1000
,
0010
0100
0010
1000
0100
1000
0001
0010
0001
1000
0010
1000
0001
0010
0100
0010
,
0001
1000
0010
0100
0001
0010
0100
1000
0001
0100
0001
1000
0010
0100
0001
0010
,
0001
1000
0100
1000
0001
0010
0100
0010
0001
1000
0010
1000
0100
0010
0001
1000
,
0040
0000
0000
0030
,
1000
0100
0010
0001
1000
0010
0100
0001
0010
0001
1000
0100
1000
0010
0100
0010
,
1000
0001
1000
0100
0010
0001
1000
0010
0100
0001
0010
0100
0010
0001
1000
0100
,
1000
0001
0010
0100
1000
0001
0100
0010
1000
0001
0010
0100
1000
0001
0100
0010
,
1000
0001
1000
0100
0010
0001
1000
0010
0100
0001
0010
0100
0010
0001
1000
0100
,
0010
0001
1000
0010
0100
0001
0010
0001
1000
0100
1000
0001
0010
0100
0010
0001
,
1000
0010
1000
0100
0010
0001
1000
0010
0100
0001
1000
0001
0010
0100
1000
0010
,
0100
0010
1000
0100
1000
0001
0010
0001
1000
0010
1000
0001
0010
0100
0010
0001
,
1000
0010
0100
0001
0010
0100
1000
0001
0100
0001
1000
0010
0100
0001
0010
0001
,
1000
0100
1000
0001
0010
0100
0010
0001
1000
0010
1000
0100
0010
0001
1000
0010
,
0100
0001
1000
0001
0010
0100
1000
0010
0100
0010
1000
0100
1000
0001
0010
0001
,
1000
0010
1000
0001
0010
0100
0010
0001
1000
0010
0100
0001
0010
0100
1000
0001
,
0100
0010
1000
0001
0010
0100
1000
0001
0100
0010
1000
0001
1000
0100
0010
0001
,
1000
0010
0100
0001
0010
0100
0010
0001
1000
0100
0010
0001
1000
0010
0100
0001
,
0010
0001
1000
0100
1000
0001
0100
0001
2000
0000
0000
0000
0000
0000
0000
0000
,
3020
0000
0230
0000
,
0302
0000
2003
0000
,
3001
0010
0100
1000
0001
0010
0001
1000
,
0010
1000
0100
0010
0001
0100
0010
0100
,
0001
0010
0001
1000
0100
0010
0001
1000
,
0010
0100
0001
0010
0100
0010
0001
1000
,
0100
1000
0001
0010
0001
1000
0010
0100
,
0001
0010
0100
1000
0001
0010
0100
0010
,
0001
1000
0100
0010
0001
1000
0100
1000
,
0001
0010
0001
1000
0010
0100
0001
0010
,
0100
1000
0001
0100
0010
1000
0001
1000
,
0100
0010
0001
1000
0100
0010
0100
1000
,
0001
0010
0001
1000
0010
0100
0001
0010
,
0100
0010
0001
1000
0100
1000
0001
0100
,
0010
1000
0100
0010
0001
1000
0010
0100
,
0002
0000
1003
0100
0010
0001
1000
0010
,
0200
0000
0301
1000
0100
0010
0001
1000
,
0020
0000
0130
0001
0010
0100
1000
0001
,
0100
0010
1000
0001
0100
0010
1000
0100
0010
0001
1000
0010
0100
0001
0010
0001
,
1000
0100
1000
0010
0100
0010
1000
0001
1000
0100
0010
0001
1000
0010
0100
0001
,
0010
0100
0010
0001
1000
0100
1000
0001
0010
0100
1000
0001
0100
0010
1000
0001
,
0010
0100
1000
0001
0100
0010
1000
0001
1000
0100
0010
0001
1000
0010
0100
0001
,
0010
0100
0010
0001
1000
0100
0010
0001
1000
0010
0100
0001
0010
0001
1000
0100
,
1000
0001
0010
0100
0010
0001
1000
0010
1000
0100
0010
0001
1000
0010
0100
0001
,
1000
0001
0010
0100
1000
0010
0100
0010
1000
0100
1000
0001
0010
0001
1000
0010
,
1000
0001
0010
0100
0010
0001
1000
0010
0100
0001
0010
0100
1000
0001
0100
0001
,
1000
0010
0100
0001
0010
0001
1000
0100
1000
0001
0010
0100
0010
0001
1000
0010
,
1000
0100
0010
0001
1000
0010
0100
0001
1000
0001
0010
0100
1000
0010
0100
0010
,
1000
0100
1000
0001
0010
0001
1000
0010
1000
0001
0010
0100
0010
0001
1000
0010
,
0100
0001
1000
0100
0010
0001
1000
0100
1000
0001
0010
0100
0010
0001
1000
0010
,
0100
0010
1000
0001
0100
0010
1000
0100
0010
0001
1000
0010
0100
0001
0010
0001
,
1000
0100
1000
0010
0100
0010
1000
0001
1000
0100
0010
0001
1000
0010
0100
0001
,
0010
0100
0010
0001
1000
0100
1000
0001
0010
0100
1000
0001
0100
0010
1000
0001
,
0010
0100
1000
0001
0100
0010
1000
0001
1000
0100
0010
0001
1000
0010
0100
0001
,
0010
0100
0010
0001
1000
0100
0010
0001
1000
0010
0100
0001
0010
0001
1000
0100
,
1000
0001
0010
0100
0010
0001
1000
0010
1000
0100
0010
0001
1000
0010
0100
0001
,
1000
0001
0010
0100
1000
0010
0100
0010
1000
0100
1000
0001
0010
0001
1000
0010
,
1000
0001
0010
0100
0010
0001
1000
0010
0100
0001
0010
0100
1000
0001
0100
0001
,
1000
0010
0100
0001
0010
0001
1000
0100
1000
0001
0010
0100
0010
0001
1000
0010
,
1000
0100
0010
0001
1000
0010
0100
0001
1000
0001
0010
0100
1000
0010
0100
0010
,
1000
0100
1000
0001
0010
0001
1000
0010
1000
0001
0010
0100
0010
0001
1000
0010
,
0400
0000
0000
0000
,
0301
0010
0100
1000
,
0001
0100
0010
1000
,
0100
0010
0100
1000
,
0001
0100
0001
1000
,
0010
0100
0001
0010
0100
1000
0001
0100
,
0010
1000
0100
0010
0100
1000
0001
0100
,
0001
0010
0100
1000
0010
0100
0010
1000
,
0004
0000
0000
0003
,
1000
0100
0010
0001
1000
0010
0100
0001
0010
0001
1000
0100
1000
0010
0100
0010
,
1000
0001
1000
0100
0010
0001
1000
0010
0100
0001
0010
0100
0010
0001
1000
0100
,
1000
0001
0010
0100
1000
0001
0100
0010
1000
0001
0010
0100
1000
0001
0100
0010
,
1000
0001
1000
0100
0010
0001
1000
0010
0100
0001
0010
0100
0010
0001
1000
0100
,
0010
0001
1000
0010
0100
0001
0010
0001
1000
0100
1000
0001
0010
0100
0010
0001
,
1000
0010
1000
0100
0010
0001
1000
0010
0100
0001
1000
0001
0010
0100
1000
0010
,
0100
0010
1000
0100
1000
0001
0010
0001
1000
0010
1000
0001
0010
0100
0010
0001
,
1000
0010
0100
0001
0010
0100
1000
0001
0100
0001
1000
0010
0100
0001
0010
0001
,
1000
0100
1000
0001
0010
0100
0010
0001
1000
0010
1000
0100
0010
0001
1000
0010
,
0100
0001
1000
0001
0010
0100
1000
0010
0100
0010
1000
0100
1000
0001
0010
0001
,
1000
0010
1000
0001
0010
0100
0010
0001
1000
0010
0100
0001
1000
0100
0010
0001
,
1000
0100
1000
0001
0010
0100
0010
0001
1000
0010
0100
0010
1000
0001
0100
0010
,
1000
0100
0010
0001
1000
0010
0100
0001
0010
0001
1000
0100
1000
0010
0100
0010
,
1000
0001
1000
0100
0010
0001
1000
0010
0100
0001
0010
0100
0010
0001
1000
0100
,
1000
0001
0010
0100
1000
0001
0100
0010
1000
0001
0010
0100
1000
0001
0100
0010
,
1000
0001
1000
0100
0010
0001
1000
0010
0100
0001
0010
0100
0010
0001
1000
0100
,
0010
0001
1000
0010
0100
0001
0010
0001
1000
0100
1000
0001
0010
0100
0010
0001
,
1000
0010
1000
0100
0010
0001
1000
0010
0100
0001
1000
0001
0010
0100
1000
0010
,
0100
0010
1000
0100
1000
0001
0010
0001
1000
0010
1000
0001
0010
0100
0010
0001
,
1000
0010
0100
0001
0010
0100
1000
0001
0100
0001
1000
0010
0100
0001
0010
0001
,
1000
0100
1000
0001
0010
0100
0010
0001
1000
0010
1000
0100
0010
0001
1000
0010
,
0100
0001
1000
0001
0010
0100
1000
0010
0100
0010
1000
0100
1000
0001
0010
0001
,
1000
0010
1000
0001
0010
0100
0010
0001
1000
0100
0010
0001
1000
0010
0100
0001
,
0010
0001
1000
0100
1000
0010
0100
0010
1000
0001
1000
0100
0010
0001
1000
0010
,
0100
0001
0010
0100
0010
0001
1000
0100
1000
0001
0010
0100
1000
0001
0100
0010
,
1000
0001
0010
0100
1000
0001
0100
0010
1000
0001
1000
0100
0010
0001
1000
0010
,
0100
0001
0010
0100
0010
0001
1000
0100
0010
0001
1000
0010
0100
0001
0010
0001
,
1000
0100
1000
0001
0010
0100
0010
0001
1000
0010
1000
0100
0010
0001
1000
0010
,
0100
0001
1000
0001
0010
0100
1000
0010
,
0100
0010
1000
0100
1000
0001
0010
0001
,
1000
0100
0010
0100
1000
0001
0100
0001
,
0010
0100
1000
0001
0100
0010
1000
0001
,
0100
0010
1000
0100
,
0010
0100
1000
0001
,
0100
0001
0010
0100
,
1000
0000
0001
0000
0100
0010
1000
0001
,
0100
0001
1000
0100
,
0010
0001
1000
0100
,
0010
0100
1000
0001
,
0100
0000
0001
0000
1000
0001
0010
0100
,
1000
0001
0100
0010
,
1000
0100
0010
0001
,
1000
0100
0010
0100
,
1000
0001
0100
0001
,
0010
0100
1000
0001
,
0100
0010
1000
0100
,
0010
0001
1000
0010
,
0100
0001
1000
0010
,
1010
0000
0011
0000
,
0110
0000
1100
0000
,
0101
0000
1001
0000
,
0110
0000
1100
0000
,
0110
0000
0011
0000
,
1010
0000
1001
0000
,
0110
0000
1100
0000
,
0011
0000
1010
0000
,
1001
0000
0110
0000
,
1010
0000
0101
0000
,
1001
0000
0110
0000
,
1100
0000
0000
0000
,
0000
0000
0000
0000
,
0000
0000
0000
0000
,
0000
0000
0000
0000
,
0000
0000
0000
0000
,
0000
0000
0000
0000
,
0000
0000
0000
0000
,
0000
0000
0000
0000
,
0000
0000
0000
0000
,
0000
0000
0000
0000
,
0000
0000
0000
0000
,
0000
0000
0000
0000
,
0000
0000
0000
0000
,
00M0
0000
0000
0000
,
0000
0000
0000
0000
,
0000
0000
0000
0000
,
0000
0000
0000
0000
;
