#TITLE:Attitude;
#SUBTITLE:;
#ARTIST:Y & Co.;
#TITLETRANSLIT:;
#SUBTITLETRANSLIT:;
#ARTISTTRANSLIT:;
#CREDIT:;
#BANNER:Attitude BN.png;
#BACKGROUND:Attitude BG.png;
#LYRICSPATH:;
#CDTITLE:ncdx_cdtitle.png;
#MUSIC:Attitude.mp3;
#OFFSET:-0.120;
#SAMPLESTART:38.539;
#SAMPLELENGTH:16.000;
#SELECTABLE:YES;
#BPMS:0.000=145.000,85.000=72.500,89.000=145.000,185.000=72.500,201.000=145.000;
#STOPS:;
#BGCHANGES:;
// cache tags:
#FIRSTBEAT:37.000;
#LASTBEAT:269.000;
#SONGFILENAME:Songs/NC.DX Originals/Attitude/Attitude.sm;
#HASMUSIC:1;
#HASBANNER:1;
#MUSICLENGTH:126.884;
// end cache tags

//---------------dance-single - basic----------------
#NOTES:
     dance-single:
     basic:
     Easy:
     3:
     0.170,0.239,0.126,0.032,0.000,131.000,16.000,4.000,0.000,0.000:
0000
0000
0000
0000
,
0000
0000
0000
0000
,
0000
0000
0000
0000
,
0000
0000
0000
0000
,
0000
0000
0000
0000
,
0000
0000
0000
0000
,
0000
0000
0000
0000
,
0000
0000
0000
0000
,
0000
0000
0000
0000
,
0000
0010
0000
0000
,
0000
1000
0000
0000
,
0000
0001
0000
0000
,
0000
0100
0000
0000
,
0000
0010
0000
0000
,
0000
0010
0000
0000
,
0000
0100
0000
0000
,
0000
1001
0000
0000
,
0000
0010
0000
1001
,
0000
0100
0000
1001
,
0000
1000
0100
0010
,
0001
0010
0100
1000
,
0001
2002
0000
3003
,
0000
0001
1001
0000
0000
0000
0010
0000
,
0000
1000
0000
0001
,
0000
0100
0000
0001
,
0000
1000
0000
0010
,
0000
1000
0000
1000
,
0000
0100
0000
0100
,
0000
0010
0000
0010
,
0000
0001
0000
0001
,
0000
1001
0000
0010
,
0000
1000
0000
0001
,
0000
0100
0000
0001
,
0000
1000
0000
0010
,
0000
0001
0000
0001
,
0000
0010
0000
0010
,
0000
0100
0000
0100
,
0000
1000
0000
1000
,
0000
1001
0000
0010
,
0000
1000
0000
0001
,
0000
0100
0000
0000
,
0010
0100
0000
0000
,
0001
1000
0000
0010
,
0000
0100
0000
0000
,
1000
0001
0000
0000
,
0001
1000
0000
1000
,
0001
1001
0000
0010
,
0000
0100
0000
0001
,
0000
1000
0000
0010
,
1000
0001
1000
0000
0000
0000
0000
0000
,
0000
0001
1001
0000
0000
0000
0010
0000
,
0000
1000
0000
0001
,
0100
0001
0000
1000
,
0000
0010
0000
1000
,
0100
1000
1000
0100
,
0100
0010
0010
0001
,
0001
1000
0001
1000
,
0001
1000
0100
0010
,
0001
1001
0000
0010
,
0000
1000
0001
0100
,
0010
1001
0000
1000
,
0000
0001
0010
0100
,
1000
1001
0000
0010
,
0000
0110
0000
0001
,
1000
1001
0000
0100
,
0000
1001
0010
1000
,
0001
2002
0000
0000
,
0000
3003
0000
0000
;

//---------------dance-single - ----------------
#NOTES:
     dance-single:
     :
     Hard:
     7:
     0.438,0.557,0.315,0.150,0.118,330.000,40.000,19.000,0.000,0.000:
0000
0000
0000
0000
,
0000
0000
0000
0000
,
0000
0000
0000
0000
,
0000
0000
0000
0000
,
0000
0000
0000
0000
,
0000
0000
0000
0000
,
0000
0000
0000
0000
,
0000
0000
0000
0000
,
0000
0000
0000
0000
,
0000
0000
0000
0000
1000
0000
0000
0001
0000
0000
1000
0000
0001
0000
0000
1000
,
0000
0000
0001
0000
0001
0000
0000
0101
0000
0000
0000
0000
1000
0000
0000
1100
,
0000
0000
0000
0000
0001
0000
0000
1000
0000
0000
0001
0000
1000
0000
0000
0001
,
0000
0000
1000
0000
1000
0000
0000
1100
0000
0000
0000
0000
0001
0000
0000
0101
,
0000
0000
0100
0000
0010
0000
0000
0010
0000
0000
0010
0000
0100
0000
0000
0100
,
0000
0000
0100
0000
0010
0000
0000
1001
0000
0000
0000
0000
0100
0000
0000
1001
,
0000
0000
0001
0000
1000
0000
0000
1000
0000
0000
1000
0000
0001
0000
0000
0001
,
0000
0000
0001
0000
1000
0000
0000
0110
0000
0000
0000
0000
0001
0000
0000
0110
,
0000
0000
0000
0000
2000
0000
0000
3001
0000
0000
0000
0000
0020
0000
0000
0130
,
0000
0000
0000
0000
0002
0000
0000
1003
0000
0000
0000
0000
0200
0000
0000
0310
,
0000
0001
0010
0100
,
1000
0000
0100
0010
0001
0010
0100
1000
,
0100
0010
2002
0000
0000
0000
3003
0000
,
0000
0000
1000
0001
1000
0000
0000
0000
0001
0000
0000
0000
1000
0000
0010
0000
,
1000
0000
0001
1000
0001
0000
2000
0000
,
3100
0000
0010
0001
1000
0000
0001
0000
,
0101
0000
1000
0001
1000
0010
0100
0000
,
1100
0000
0010
0001
0100
0000
0001
0010
,
0100
0000
1000
0010
0100
0000
0001
1000
,
0010
0000
1000
0001
0101
0000
0001
1000
,
1100
0000
0001
0000
1000
0000
0001
0010
,
0011
1100
0011
1010
,
0101
0000
1000
0001
0100
0000
0001
1000
,
0100
0000
1000
0001
0100
0000
1001
0000
,
0110
0000
0001
1000
0010
0000
1001
0000
,
0110
0000
1000
0100
0010
0001
0010
0100
,
1000
0000
0001
0100
0001
1000
0100
1000
,
0100
0010
0010
0100
,
0100
0000
0001
1000
0001
0000
0010
0100
,
0010
0000
2000
0000
3100
0000
0010
1001
,
0000
0100
1001
0000
0100
0000
0010
0001
,
1000
0001
0200
0000
0001
0000
0001
0000
,
0301
0000
1000
0001
0100
0000
0001
1000
,
0010
1000
0010
1000
0001
0000
0100
0000
,
0001
1000
0100
0000
0101
0000
1000
0000
,
0101
0000
1000
0100
0010
0000
0001
0010
,
0100
0000
1000
0010
0100
0000
0001
1000
,
0010
0000
0100
0000
1001
0000
0000
0000
0000
1000
0000
0000
0010
0000
0010
0000
,
0100
0000
0001
1000
0001
0000
0001
0000
0001
1000
0100
0010
0001
0000
0001
0000
,
0001
1000
0010
0100
0010
0000
0010
0000
0010
0000
1000
0100
1000
0000
1000
0000
,
1000
0000
1000
0000
0001
0000
0001
0000
1000
0000
0001
0100
0001
0000
1000
0000
,
0001
0000
1000
1000
0001
0000
0000
0000
1100
0000
0000
0000
0001
0000
0000
0000
,
1100
0000
1000
0001
0100
0001
1000
0010
,
1000
0001
1100
0001
,
1100
0000
2000
0100
3100
0000
0002
0100
,
0103
0000
1000
0100
0010
0000
1000
0000
,
0101
0000
1000
0001
0100
0000
0001
0000
,
0011
1000
1100
0001
,
0101
1000
1010
0001
,
0011
0000
1001
0000
0101
0000
1000
0100
,
0010
0001
0010
0100
1000
0000
0002
0100
,
0103
0000
1000
0100
0010
0001
1000
0010
,
0100
0010
1000
0100
0010
0000
2000
0100
,
3100
0000
0200
0001
0301
0000
2000
0010
,
3010
0000
0002
0010
0013
0000
2000
0010
,
3010
0000
1000
0001
0100
0001
1000
0100
,
1000
0010
0100
0001
1000
0010
0100
0001
,
0010
0001
2002
0000
0000
0000
0000
0000
,
0000
3003
0000
0000
;

//---------------dance-single - ----------------
#NOTES:
     dance-single:
     :
     Medium:
     5:
     0.310,0.424,0.095,0.032,0.075,259.000,12.000,4.000,0.000,0.000:
0000
0000
0000
0000
,
0000
0000
0000
0000
,
0000
0000
0000
0000
,
0000
0000
0000
0000
,
0000
0000
0000
0000
,
0000
0000
0000
0000
,
0000
0000
0000
0000
,
0000
0000
0000
0000
,
0000
0000
0000
0000
,
0000
0010
0000
1000
,
0000
0001
0001
1000
,
1000
0100
0000
0001
,
0000
1000
1000
0010
,
0010
0100
0000
0001
,
0000
1000
1001
0001
,
1001
0010
0000
1000
,
0000
0100
0110
0010
,
0110
0000
1000
0001
1000
0000
0010
0100
,
0010
0000
0001
1000
0001
0000
0100
0010
,
0100
1000
0100
0010
,
0001
0000
0010
0100
1000
0100
0010
0001
,
0010
0100
2002
0000
0000
0000
3003
0000
,
0000
1000
1001
0000
1000
0000
0010
0000
,
1000
0001
0100
0001
,
0010
0001
1000
0100
,
1000
0010
1000
0001
,
0100
0001
0001
0010
,
0010
0000
0100
0000
0100
0000
1000
0100
,
1000
0001
1000
0010
,
0100
0001
1000
0100
,
0010
1001
0001
0010
,
0001
1000
0100
1000
,
0010
1000
1000
0100
,
0100
0000
0010
0000
0010
0000
0001
0100
,
0001
1000
0010
1000
,
0001
0100
0010
0100
,
0001
1000
0100
0010
,
0001
1000
0001
0010
,
0100
0000
1001
0000
0010
0000
0000
0100
,
0000
0010
0000
1000
,
0001
1000
0000
0000
0000
0000
0000
0001
,
0000
0100
0000
0000
0000
0000
0000
1000
,
0001
1000
0001
1000
0000
0000
0010
0000
,
0100
0010
0000
0000
0000
0000
0000
0100
,
0000
1000
0000
0000
0000
0000
0000
0010
,
0000
0001
0000
0000
0000
0000
0000
1000
,
0100
0000
0010
0000
1001
0000
0000
0000
0000
0010
0000
0000
0100
0000
0000
0000
,
0001
0000
1000
0001
0000
0000
0000
0000
0000
0010
0000
0100
0000
0000
0000
0000
,
0000
0001
1000
0001
1000
0001
0000
0000
0100
0000
0010
0001
0000
0000
0000
1000
,
0000
0010
0000
0100
0000
0000
0000
0000
0000
0000
0000
0000
0000
0000
0000
0000
,
0000
1000
1001
0000
1000
0000
0010
0000
,
1000
0000
0001
0100
0001
0000
1000
0100
,
1000
0010
1000
0000
0001
0000
0100
0000
,
0001
0000
1000
0001
1000
0000
0001
0010
,
0001
0100
0001
0000
1000
0000
0010
0000
,
0100
0000
0010
1000
0100
0000
1000
0010
,
0100
0010
1000
0000
0001
0000
0010
0000
,
0100
0000
1000
0001
1000
0000
0001
0100
,
0001
0000
1000
0000
1001
0000
0000
0001
0000
0000
1000
0000
0010
0000
0100
0000
,
0001
0000
1000
0000
0100
0000
0000
0100
0000
0000
1000
0000
0001
0000
0010
0000
,
0001
0000
0100
0000
0010
0000
0000
0010
0000
0000
1000
0000
0001
0000
0100
0000
,
0001
0000
1000
0000
0100
0000
0000
0100
0000
0000
1000
0000
0010
0000
0100
0000
,
0001
0000
1000
0000
0001
0000
0000
0001
0000
0000
0010
0000
0001
0000
1000
0000
,
0010
0000
0100
0000
0010
0000
0000
0010
0000
0000
1000
0000
0001
0000
0010
0000
,
0001
0000
1000
0000
0100
0000
0000
0100
0000
0000
1000
0000
0010
0000
0000
0010
,
0000
1000
0001
0000
0001
0000
1000
0100
,
0010
0001
2002
0000
0000
0000
0000
0000
,
0000
3003
0000
0000
;
