#TITLE:Stronger;
#SUBTITLE:;
#ARTIST:Stonebank feat. EMEL;
#TITLETRANSLIT:;
#SUBTITLETRANSLIT:;
#ARTISTTRANSLIT:;
#CREDIT:Braeden47;
#BANNER:../Banner.png;
#BACKGROUND:../BG.PNG;
#LYRICSPATH:;
#CDTITLE:../CDTitleBRAEDEN.png;
#MUSIC:Stonebank - Stronger (feat. EMEL).ogg;
#OFFSET:-0.075;
#SAMPLESTART:113.016;
#SAMPLELENGTH:29.999;
#SELECTABLE:YES;
#BPMS:0.000=170.000;
#STOPS:;
#BGCHANGES:;
// cache tags:
#FIRSTBEAT:0.000;
#LASTBEAT:896.000;
#SONGFILENAME:Songs/Index Fusion/Stronger - [Braeden]/Stronger.sm;
#HASMUSIC:1;
#HASBANNER:1;
#MUSICLENGTH:320.417;
// end cache tags

//---------------dance-single - ----------------
#NOTES:
     dance-single:
     :
     Challenge:
     19:
     1.000,1.000,0.109,0.190,1.000,2603.000,35.000,61.000,0.000,2.000:

1000
0100
0010
0001
0010
0100
1000
0001
0100
0010
1000
0100
0010
0001
0010
0100
,
1000
0001
0100
0010
1000
0100
0010
0001
0010
0100
1000
0001
0100
0010
1000
0100
,
0010
0001
0010
0100
1000
0001
0100
0010
1000
0100
0010
0001
0010
0100
1000
0100
,
0010
0001
0010
0100
1000
0001
0100
0010
1000
0100
0010
0001
0010
0100
1000
0001
,
0100
0010
1000
0100
0010
0100
1000
0001
0100
0010
1000
0100
0010
0001
0100
0010
,
1000
0001
0010
0100
1000
0100
0010
0001
0100
0010
1000
0010
0100
0001
1000
0100
,
0010
0001
0010
0100
1000
0001
0100
0010
1000
0001
0010
0100
1000
0100
0010
0001
,
0010
0100
1000
0001
0100
0010
1000
0100
0010
0001
0100
0010
1000
0001
0010
0100
,
1000
0100
0010
0001
0100
0010
1000
0001
0010
0100
1000
0100
0010
0001
1000
0010
,
0100
0001
0010
0001
0100
0010
0100
0001
0010
0100
1000
0001
0010
0001
1000
0100
,
0010
0001
0100
0010
1000
0001
0010
0100
1000
0010
0100
0001
1000
0010
0100
0001
,
1000
0100
0010
0100
1000
0001
0010
0100
1000
0100
0010
0001
0100
0010
0100
0001
,
0010
0100
1000
0001
0100
0010
1000
0100
0010
0001
0100
0010
1000
0100
1000
0001
,
0100
0010
0100
0001
0010
0100
1000
0100
0010
0001
0100
0010
1000
0010
0100
0001
,
0010
0100
1000
0100
0010
0001
1000
0010
0100
0001
0010
0100
1000
0100
0010
0001
1000
0010
0100
0001
0010
0100
1000
0001
,
0100
0010
1000
0001
0010
0100
1000
0100
0010
0001
1000
0010
0100
0001
0010
0100
1000
0001
1000
0000
0000
0000
0000
0000
,
0000
0000
0000
0000
0000
0000
1000
0001
,
1000
0001
0000
0100
0000
0010
0000
0000
,
1010
0000
1000
0000
0000
0000
0001
0100
,
0001
0100
0000
0000
0020
0000
0000
0030
,
1010
0000
0010
0000
0000
1000
0001
1000
,
0000
0000
0010
0000
0000
0100
0000
0000
0010
0000
0000
0000
1000
0000
0000
0000
,
0011
0000
0000
0000
0001
0000
0000
0000
0010
0000
0000
0000
0010
0000
0000
0100
,
1000
0001
1000
0001
,
1001
0000
0000
0000
0010
0000
0000
0000
0000
0000
0000
0010
0100
0000
0000
0000
,
1000
0000
0000
1000
0100
0000
0000
0100
0020
0000
0000
0000
0032
0000
0000
0000
,
1013
0000
0000
0000
0010
0000
0000
0000
0000
0000
0000
1000
0100
0000
0000
0000
,
0010
0000
0000
0001
0100
0000
0000
0000
0020
0000
0000
0000
2030
0000
0000
0000
,
3101
0000
0000
0000
0001
0000
0000
0000
0100
0000
0000
0100
0010
0000
0000
0010
,
1000
0000
0000
0000
0001
0000
0000
0000
0000
0000
0000
0000
0001
0000
0000
1000
,
1001
0000
0000
0001
0100
0000
0000
0100
0020
0000
0000
0000
2030
0000
0000
0000
,
3000
0001
0000
1000
,
2001
0000
0000
3002
0000
0000
0203
0000
,
0000
0300
0010
0000
1000
0010
2000
0000
,
0020
0000
3030
0000
0010
0100
0020
0000
,
0000
0000
0030
0000
0010
1000
0000
0000
,
0002
0000
0000
0100
,
0000
1000
0000
0000
1000
0000
0000
0000
,
0200
0000
0300
1003
,
0000
0000
0000
0000
0100
0000
0001
0100
,
0020
0000
0000
2030
0000
0000
3010
0000
,
0000
0000
0200
0000
0301
0010
0001
0000
,
0200
0000
0000
0000
0301
1000
0002
0000
,
0000
0000
0000
0000
1003
0010
0000
1000
,
0020
0000
0000
2030
0000
0000
3002
0000
,
0000
0203
0000
0000
0320
0000
0000
0000
,
2030
0000
0000
0000
,
3000
0000
0001
0000
0100
0010
0000
0000
,
4000
0000
0000
3010
0000
0000
0100
0004
,
0000
0000
1003
0000
0010
0000
0100
0040
,
0000
0000
1030
0000
0001
0000
1000
0200
,
0000
0000
1300
0000
0004
0000
0013
0100
,
4000
0000
0000
3010
0000
0000
0100
0004
,
0000
0000
1003
0000
0020
0000
0130
0001
,
0200
0000
0310
0000
1000
0001
0100
0002
,
0003
2000
3000
0010
0100
0001
1000
0100
,
0040
0000
0000
0031
0000
0000
1000
0400
,
0000
0000
1300
0000
0002
0000
0103
0040
,
0000
0000
0130
0000
2000
0000
3001
0400
,
0000
0000
0310
0000
1000
0000
0001
0100
,
0040
0000
0000
1030
0000
0000
0010
0400
,
0000
0000
0301
0000
1000
0000
0001
0100
,
0020
0000
2030
0000
3010
0100
0001
1000
,
0000
0010
0000
0100
0001
1000
0100
0010
,
0001
0010
0100
1000
0001
0100
0010
1000
0100
0010
0001
0010
0100
1000
0001
0100
,
0010
1000
0100
0010
0100
1000
0001
0100
0010
1000
0100
0010
0001
0100
0010
1000
,
0001
0000
0100
0000
0010
0000
1000
0000
0010
0000
0100
0000
0001
0000
0000
0010
0000
0000
0100
0000
0000
1000
0000
0000
0001
0000
0000
0100
0000
0000
0010
0000
0000
1000
0000
0000
0100
0000
0000
0010
0000
0000
0001
0000
0000
0010
0000
0000
,
0100
1000
0001
0100
0010
1000
0100
0010
0100
1000
0001
0100
0010
1000
0001
0010
,
0100
0000
1000
0000
0010
0000
0100
0000
0001
0000
1000
0000
0100
0000
0000
0010
0000
0000
0001
0000
0000
0010
0000
0000
0100
0000
0000
1000
0000
0000
0001
0000
0000
0100
0000
0000
0010
0000
0000
1000
0000
0000
0100
0000
0000
0010
0000
0000
,
0001
0010
0100
1000
0001
0100
0010
1000
0100
0010
0001
0010
0100
1000
0001
0100
,
0001
0000
0010
0000
0100
0000
1000
0000
0100
0000
0010
0000
0001
0000
0000
0100
0000
0000
0010
0000
0000
1000
0000
0000
0010
0000
0000
0100
0000
0000
0001
0000
0000
1000
0000
0000
0100
0000
0000
0010
0000
0000
0001
0000
0000
0010
0000
0000
,
0100
1000
0001
0100
0010
1000
0100
0010
0001
0010
0100
1000
0100
0010
0001
1000
,
0010
0000
0100
0000
0001
0000
0100
0000
0010
0000
1000
0000
0001
0000
0000
0010
0000
0000
0100
0000
0000
1000
0000
0000
0001
0000
0000
0100
0000
0000
0010
0000
0000
1000
0000
0000
0100
0000
0000
0010
0000
0000
0001
0000
0000
0010
0000
0000
,
0100
1000
0001
0100
0010
1000
0100
0010
0001
0010
0100
1000
0001
0100
0010
1000
,
0100
1000
0001
0010
0100
1000
0001
0100
0010
1000
0100
0010
0001
0010
0100
1000
,
0001
0100
0010
1000
0100
0010
0001
0010
0100
1000
0001
0100
0010
1000
0100
0010
,
0001
0010
0100
1000
0100
0010
0001
0100
0010
0100
0001
0010
0100
1000
0001
0100
,
0010
1000
0100
0010
0001
0010
0100
1000
0001
0100
0010
1000
0100
0010
0001
1000
,
0001
0010
0100
1000
0100
0010
0001
0100
0010
1000
0100
0010
0001
0010
0100
1000
0001
0100
0010
1000
0100
0010
0001
0100
,
0001
0000
0100
0010
0100
0000
0010
1000
0100
0010
0100
1000
0001
0100
0010
1000
,
0100
0010
0001
0010
0100
1000
0001
0100
0010
1000
0100
0010
0001
0010
0100
1000
,
0001
0100
0010
1000
0100
0010
0001
0010
0100
1000
0001
0100
0010
1000
0100
0010
,
0001
0010
0100
1000
0001
0100
0010
1000
0100
0010
0001
0010
0100
1000
0001
0100
,
0010
1000
0100
0010
0001
0010
0100
1000
0001
0100
0010
0100
0001
0010
0100
1000
,
0001
0100
0010
1000
0100
0010
0001
0010
0100
1000
0001
0100
0010
0100
0001
0010
,
0100
1000
0001
0100
0010
1000
0100
0010
0001
0100
0010
1000
0001
0010
0001
1000
,
0010
0100
0010
1000
0100
0010
0100
1000
0001
0100
0010
0100
0001
0010
0100
1000
,
0001
0100
0010
1000
0100
0010
0100
1000
0001
0100
0010
0100
0001
0010
0100
1000
,
0001
0100
0010
1000
0100
0010
0001
0010
0100
1000
0001
0100
0010
0100
0001
0010
,
0100
1000
0001
0100
0010
1000
0100
0010
0001
0010
0100
1000
0001
0100
0010
1000
,
0100
0010
0001
0010
0100
1000
0001
0100
0010
1000
0100
0010
0001
0010
0100
1000
,
0001
0100
0010
1000
0100
0010
0001
0010
0100
1000
0001
0100
0010
1000
0100
0010
,
0100
1000
0001
0010
0100
1000
0001
0100
0010
1000
0001
0010
0100
1000
0001
0100
,
0010
1000
0100
1000
0010
1000
0100
1000
0001
0100
0010
0100
0001
0100
0010
0100
,
0001
1000
0001
1000
0010
0100
0010
0100
,
0001
0010
0100
1000
0100
0010
0001
0010
0100
1000
0100
0010
0001
0010
0100
1000
,
0001
0000
0010
0000
0100
0000
1000
0000
0100
0000
0010
0000
0001
0000
0000
0100
0000
0000
0010
0000
0000
1000
0000
0000
0001
0000
0000
0010
0000
0000
0100
0000
0000
1000
0000
0000
0100
0000
0000
0010
0000
0000
0001
0000
0000
0100
0000
0000
,
0010
0100
0001
0010
0100
1000
0100
0010
0001
0100
0010
1000
0001
0100
0010
1000
,
0100
0010
0001
0010
0100
1000
0001
0100
0010
1000
0100
0010
0001
0010
0100
1000
,
0001
0100
0010
1000
0100
0010
0001
0010
0100
1000
0001
0100
0010
1000
0001
0100
,
0001
0000
0010
0000
0100
0000
1000
0000
0100
0000
0010
0000
0100
0000
0000
1000
0000
0000
0001
0000
0000
0100
0000
0000
0010
0000
0000
1000
0000
0000
0001
0000
0000
0010
0000
0000
0100
0000
0000
1000
0000
0000
0100
0000
0000
0010
0000
0000
,
0001
0100
0010
1000
0001
0010
0100
1000
0001
0100
0010
1000
0100
0010
0001
0010
,
0100
1000
0001
0100
0010
1000
0100
0010
0001
0100
0010
1000
0001
0010
0100
1000
,
0001
0100
0010
1000
0100
0010
0001
0010
0100
0000
0000
1000
0010
1000
0010
0000
,
0100
0001
0100
0010
1000
0100
0010
0001
0010
0100
1000
0001
0100
0010
1000
0100
,
0010
0001
0010
0100
1000
0001
0100
0010
1000
0100
0010
0001
0010
0100
1000
0001
,
0100
0010
1000
0100
0010
0100
1000
0001
0010
0100
1000
0001
0100
0010
1000
0100
,
0010
0100
1000
0001
0100
0010
0100
0001
0100
0001
0010
0001
1000
0010
0100
0001
,
1000
0100
0010
0100
1000
0001
0100
0010
1000
0100
0010
0001
0010
0100
1000
0001
,
0100
0010
1000
0100
0010
0100
1000
0001
0010
0100
1000
0001
0100
0010
1000
0100
,
0010
0001
0100
0010
1000
0000
0001
0000
,
0000
0000
0100
0000
0000
0000
0100
0000
0000
0000
0000
0010
1000
0000
0001
0000
,
1100
0010
0001
0100
0010
1000
0100
0010
,
0001
1000
0010
0100
0001
0010
0001
1000
,
0110
0001
0100
0010
1000
0100
0010
0001
,
0100
0010
1000
0100
0010
0001
0100
0010
,
1001
0010
0100
1000
0100
0010
0001
1000
,
0100
0010
0100
1000
0001
0100
0010
1000
,
1001
0001
0100
0010
1000
0100
0010
0100
,
1000
0001
0010
0100
1000
0001
0100
0010
,
1010
0100
0001
0100
0010
1000
0100
0010
,
0001
0010
0100
1000
0001
0100
0010
0100
,
0101
0000
0001
0000
0010
0000
0100
0000
1000
0000
0001
1000
0001
0000
0010
0000
,
0100
0000
1000
0010
1000
0000
0010
0000
0100
0000
0100
0000
0001
0000
0001
0000
,
1001
0000
0000
0000
1000
0000
0000
1000
0001
0000
0000
0001
0100
0000
0000
0100
,
0020
0000
2030
0000
3010
0000
0100
0001
,
0101
0010
1000
0100
0020
0000
0032
0000
,
0003
1000
0000
0010
,
0120
0000
0000
2030
0000
0000
3002
0000
,
0000
0000
0203
0000
0310
1000
0020
0000
,
0000
0000
0230
0000
0310
1000
0020
0000
,
0000
0000
0130
0000
0001
0010
0000
0002
,
0000
0100
0000
1000
,
0000
0100
0000
0010
,
2003
0100
0000
0010
,
0000
0010
3010
0001
,
0201
0000
0000
0320
0000
0000
2030
0000
,
0000
0000
3002
0000
0103
0010
0200
0000
,
0000
0000
0000
0000
0310
1000
0020
0000
,
0000
0000
0000
0000
1030
0001
0000
0200
,
0000
0010
1000
0010
,
0001
0010
1000
0010
,
0320
0000
0000
0000
,
0030
0000
1000
0000
0001
1000
0000
0000
,
0001
0000
0010
0000
0100
0000
1000
0000
0100
0000
0010
0000
0001
0000
0000
0100
0000
0000
0010
0000
0000
1000
0000
0000
0001
0000
0000
0010
0000
0000
0100
0000
0000
1000
0000
0000
0100
0000
0000
0010
0000
0000
0001
0000
0000
0100
0000
0000
,
0010
1000
0001
0010
0100
1000
0001
0100
0010
1000
0100
0010
0100
1000
0001
0100
,
0010
0000
1000
0000
0001
0000
0100
0000
0010
0000
1000
0000
0010
0000
0000
0100
0000
0000
0001
0000
0000
0010
0000
0000
0100
0000
0000
1000
0000
0000
0001
0000
0000
0100
0000
0000
0010
0000
0000
1000
0000
0000
0100
0000
0000
0010
0000
0000
,
0001
0100
0010
1000
0001
0100
0010
1000
0001
0010
0100
1000
0100
0010
0001
0100
,
0010
1000
0001
0020
0130
1000
0001
0100
0010
1000
0100
0010
0100
1000
0001
0010
,
0100
1000
0001
0100
0010
1000
0100
0010
0100
1000
0001
0010
0100
1000
0010
0100
,
0001
0000
0010
0000
0100
0000
1000
0000
0100
0000
0010
0000
0001
0000
0000
0100
0000
0000
0010
0000
0000
1000
0000
0000
0001
0000
0000
0010
0000
0000
0001
0000
0000
0100
0000
0000
0010
0000
0000
1000
0000
0000
0001
0000
0000
0010
0000
0000
,
0001
0100
0010
1000
0001
0010
0100
1000
0001
1000
0001
0100
0010
1000
0100
0010
,
0001
0000
0000
0100
0000
0000
0010
0000
0000
1000
0000
0000
0100
0000
0001
0000
0100
0000
0010
0000
1000
0000
0010
0000
1000
0000
0000
0100
0000
0000
0010
0000
0000
0001
0000
0000
0010
0000
0000
0100
0000
0000
1000
0000
0000
0001
0000
0000
,
0100
0010
1000
0100
0010
0100
1000
0001
0010
0100
1000
0001
0100
0010
1000
0100
,
0010
0100
1000
0001
0100
0010
1000
0100
0010
0100
1000
0001
0010
0100
1000
0001
,
0100
0010
1000
0100
0010
0100
1000
0001
0100
0010
1000
0100
0010
0100
1000
0001
,
0010
0001
0100
0010
1000
0100
0010
0001
0010
0100
1000
0001
0100
0010
0100
0001
,
0010
0100
1000
0100
0010
0001
0100
0010
1000
0100
0010
0001
0010
0100
1000
0001
,
1000
0100
0010
0001
0010
0100
1000
0001
0100
0010
1000
0100
0010
0100
1000
0001
0010
0100
1000
0001
0100
0010
1000
0010
,
1000
0000
0010
0100
0010
0000
1000
0100
0010
0001
1000
0010
0100
0000
0000
0000
,
0020
0000
0000
0000
0130
1000
0100
1000
0001
1000
0100
1000
0100
1000
0001
0100
,
0010
1000
0010
1000
0001
1000
0010
1000
0010
1000
0001
0100
0010
1000
0100
0010
,
0001
0100
0010
1000
0001
0010
0001
0010
0100
1000
0001
0100
0010
1000
0010
1000
,
0100
0010
0100
1000
0001
0100
0010
1000
0100
0010
0100
1000
0001
0010
0100
1000
,
0001
0100
0010
1000
0100
0010
0100
1000
0001
0100
0010
1000
0100
0010
0100
1000
,
0001
0010
0100
1000
0100
0010
0001
0100
0010
1000
0100
0010
0001
0010
0100
1000
,
0040
0000
0000
0000
1030
0100
0010
0001
0010
0100
1000
0001
0100
0010
1000
0100
,
0010
0000
0000
0001
0000
0000
0010
0000
0000
0100
0000
0000
1000
0000
0000
0010
0000
0000
1000
0000
0001
0000
0100
0000
0001
0000
0100
0000
0010
0000
1000
0000
0000
0010
0000
0000
0100
0000
0000
0001
0000
0000
0100
0000
0000
0010
0000
0000
,
4000
0000
0000
0000
3010
0100
0001
1000
0100
0010
0100
1000
0001
0100
0010
1000
,
0100
0010
0100
1000
0001
0010
0100
1000
0001
0100
0010
1000
0100
0010
0100
1000
,
0001
0100
0010
1000
0100
0010
0100
1000
0001
0100
0010
1000
0100
0010
0100
1000
,
0001
0010
0100
1000
0001
0100
0010
1000
0100
0010
0100
1000
0001
0100
0010
1000
,
0001
0010
0100
1000
0100
0010
0001
0100
0010
1000
0001
0010
0100
1000
0001
0100
0010
1000
0100
0010
0001
0010
0100
1000
,
0001
0100
0010
1000
0100
0010
0100
1000
0001
0100
0010
1000
0100
0010
0001
0010
0100
1000
0001
0100
0010
1000
0100
0010
,
0001
0000
0000
0000
0000
0000
0010
0000
0000
0001
0100
0010
1000
0001
0010
0100
1000
0100
0010
0001
0100
0010
1000
0100
,
0010
0100
0010
0100
1000
0001
0100
0010
1000
0100
0010
0100
1000
0001
0100
0010
1000
0100
0010
0000
0000
0001
0000
0000
,
1000
0100
0010
0001
0010
0100
1000
0001
0010
0100
1000
0001
0010
0100
1000
0100
0010
0001
0100
0010
1000
0100
0010
0100
,
1000
0001
0010
0100
1000
0001
0100
0010
1000
0100
0010
0001
0010
0100
1000
0001
0100
0010
1000
0000
0000
0010
0000
0000
,
0100
0001
0100
0010
0000
0000
1000
0000
0000
0010
0100
0001
1000
0100
0010
0001
0010
0100
1000
0001
0100
0010
1000
0100
,
0010
0001
0010
0100
1000
0001
0100
0010
1000
0100
0010
0001
0010
0100
1000
0001
0010
0100
1000
0001
0100
0001
0100
0010
,
1000
0100
0010
0001
0010
0100
1000
0001
0010
0100
1000
0001
0100
0010
0100
0001
0010
0100
1000
0001
0100
0010
0100
0001
,
0010
0100
1000
0001
0100
0010
1000
0100
0010
0001
0010
0100
1000
0001
0100
0010
1000
0100
0010
0100
1000
0001
0010
0100
,
1000
0001
0100
0010
1000
0100
0010
0001
0010
0100
1000
0001
0100
0010
0100
0001
0100
0010
1000
0100
0010
0001
0010
0100
,
1000
0001
0100
0010
1000
0100
0010
0001
0010
0100
1000
0001
0100
0010
1000
0100
0010
0001
0010
0100
1000
0010
0000
0000
,
1000
0010
0100
0001
1000
0100
0010
0001
0010
0100
1000
0001
0100
0010
1000
0100
0010
0001
0010
0100
1000
0001
0100
0010
,
1000
0100
0010
0001
0010
0100
1000
0001
0100
0010
0100
0001
0010
0100
1000
0001
0100
0010
1000
0100
0010
0001
0010
0100
,
1000
0001
0100
0010
1000
0100
0010
0001
0010
0100
1000
0001
0100
0010
1000
0100
0010
0001
0010
0100
1000
0001
0100
0010
,
1000
0100
0010
0001
0010
0100
1000
0001
0100
0010
1000
0100
0010
0001
0010
0100
1000
0001
0100
0010
1000
0100
0010
0001
,
0100
0010
0010
1000
,
0001
0100
0010
1000
,
0040
0000
0000
0000
0000
0000
0000
1030
,
0000
0010
0000
0010
0100
0010
1000
0010
,
1000
0001
0100
0010
1000
0100
0010
0001
0010
0100
1000
0001
0100
0010
1000
0001
,
0010
0100
1000
0001
0100
0010
1000
0100
0010
0001
0010
0100
1000
0001
0100
0010
,
1000
0100
0010
0001
0010
0100
1000
0001
0100
0010
0100
0001
0010
0100
1000
0001
,
0100
0010
1000
0100
0010
0001
0010
0100
1000
0001
0100
0010
1000
0100
0010
0001
,
0010
0100
1000
0001
0100
0010
1000
0100
0010
0001
0010
0100
1000
0001
0100
0010
,
1000
0100
0010
0001
0010
0100
1000
0001
0100
0010
0100
0001
0010
0100
1000
0001
,
0100
0010
1000
0100
0010
0100
1000
0001
0010
0100
1000
0001
0100
0010
1000
0100
,
0010
0001
0010
0100
1000
0001
0100
0010
1000
0100
0010
0001
0010
0100
1000
0001
,
0100
0010
1000
0100
0010
0100
1000
0001
0010
0100
1000
0001
0100
0010
1000
0100
,
0010
0001
0010
0100
1000
0001
0100
0010
1000
0100
0010
0001
0010
0100
1000
0001
,
0100
0010
1000
0100
0010
0100
1000
0001
0010
0100
1000
0001
0100
0010
1000
0100
,
0010
0001
0010
0100
1000
0001
0100
0010
1000
0100
0010
0001
0010
0100
1000
0001
,
0100
0010
1000
0100
0010
0100
1000
0001
0010
0100
1000
0001
0010
0100
1000
0001
,
0100
0010
1000
0100
0010
0100
1000
0001
0100
0010
1000
0100
0010
0001
0010
0100
,
0010
0100
1000
0001
0100
0010
1000
0100
,
0010
0100
1000
0001
0100
0010
1000
0100
0010
0001
0010
0100
1000
0001
0100
0010
,
1000
0100
0010
0002
0013
0100
1000
0001
,
0100
0010
1000
0100
0010
0001
0100
0010
,
1000
0100
0010
0200
1300
0001
0100
0010
,
1000
0001
0010
0100
1000
0001
0100
0010
,
1000
0100
0010
0002
0103
0010
1000
0100
,
0010
0100
1000
0001
0100
0010
1000
0100
,
0010
0001
0100
0010
1000
0100
0010
0001
,
0100
0000
0010
0000
1000
0000
0100
0000
0010
0001
0010
0100
1000
0001
0100
0010
,
1000
0100
0010
0100
1000
0001
0100
0010
0100
0001
0010
0100
1000
0100
0010
0001
,
0100
0010
1000
0001
0010
0100
1000
0001
0100
0010
1000
0100
0010
0001
0010
0100
,
1000
0001
0100
0010
1000
0100
0010
0001
0010
0100
1000
0001
0100
0010
1000
0100
,
0010
0001
0010
0100
1000
0001
0100
0010
1000
0001
0010
0100
1000
0001
0100
0010
,
1000
0100
0010
0100
1000
0001
0010
0100
1000
0001
0100
0010
1000
0100
0010
0001
,
0010
0100
1000
0001
0100
0010
1000
0100
0010
0100
1000
0001
0010
0100
1000
0001
,
4000
0000
0000
0000
,
0000
0000
0000
3010
,
1010
0000
0000
0000
;

//---------------dance-single - ----------------
#NOTES:
     dance-single:
     :
     Hard:
     15:
     0.933,1.000,0.215,0.490,0.757,1856.000,69.000,157.000,0.000,2.000:
1000
1000
1000
1000
,
0001
0010
0001
0100
0010
1000
0010
0100
,
0002
0003
0010
0000
0200
0300
1000
0000
0200
0300
0010
0000
0002
0003
0010
0000
,
0200
0300
1000
0000
0002
0003
0100
0000
0020
0030
1000
0000
0002
0003
0100
0000
,
0020
0030
1000
0000
0002
0003
0100
0000
0020
0030
1000
0000
0002
0003
0100
0000
,
0020
0030
1000
0000
0020
0030
0100
0000
0001
0000
0100
0000
0020
0030
1000
0000
,
0010
0000
0100
0000
0002
0003
0010
0000
0100
0000
1000
0000
0200
0300
0010
0000
,
0001
0100
0010
1000
0000
0001
1000
0000
,
1001
0000
0002
0000
0103
0000
0000
0000
0010
0000
1000
0010
1000
0000
0010
0000
,
0100
0000
0001
0100
0001
0000
1000
0000
0010
0000
0100
0001
0100
0000
0010
0000
,
4000
0000
3001
0100
0010
0000
4000
0000
3001
0000
0010
0100
1000
0000
0001
0000
,
0100
0000
0010
1000
0010
0000
0100
0000
0001
0000
1000
0001
1000
0000
0010
0000
,
0400
0000
0340
0000
1030
0000
0001
0000
1000
0000
0010
0100
0010
0000
1000
0000
,
0100
0000
0010
0001
0010
0000
0001
0000
1000
0000
0010
0100
0010
0000
1000
0000
,
0100
0010
0001
0010
0100
1000
0001
0100
0010
1000
0100
0010
0001
0010
0100
1000
0001
0100
0010
1000
0100
0010
0001
1000
,
0010
0100
0001
1000
0100
0010
0001
0010
0100
1000
0001
0100
0010
1000
0100
0010
0001
1000
0001
0000
0000
0000
0000
0000
,
0000
0000
0000
0000
0000
0000
1000
0001
,
1000
0001
0000
0100
0000
0010
0000
0000
,
1010
0000
1000
0000
0000
0000
0001
0100
,
0001
0100
0000
0000
0020
0000
0000
0030
,
1010
0000
0010
0000
0000
1000
0001
1000
,
0000
0000
0010
0000
0000
0100
0000
0000
0010
0000
0000
0000
1000
0000
0000
0000
,
0011
0000
0000
0000
0001
0000
0000
0000
0010
0000
0000
0000
0010
0000
0000
0100
,
1000
0001
1000
0001
,
1001
0000
0000
0000
0010
0000
0000
0000
0000
0000
0000
0010
0100
0000
0000
0000
,
1000
0000
0000
1000
0100
0000
0000
0100
0020
0000
0000
0000
0032
0000
0000
0000
,
1013
0000
0000
0000
0010
0000
0000
0000
0000
0000
0000
1000
0100
0000
0000
0000
,
0010
0000
0000
0001
0100
0000
0000
0000
0020
0000
0000
0000
2030
0000
0000
0000
,
3101
0000
0000
0000
0001
0000
0000
0000
0100
0000
0000
0100
0010
0000
0000
0010
,
1000
0000
0000
0000
0001
0000
0000
0000
0000
0000
0000
0000
0001
0000
0000
1000
,
1001
0000
0000
0001
0100
0000
0000
0100
0020
0000
0000
0000
2030
0000
0000
0000
,
3000
0001
0000
1000
,
2001
0000
0000
3002
0000
0000
0203
0000
,
0000
0300
0010
0000
1000
0010
2000
0000
,
0020
0000
3030
0000
0010
0100
0020
0000
,
0000
0000
0030
0000
0010
1000
0000
0000
,
0002
0000
0000
0100
,
0000
1000
0000
0000
1000
0000
0000
0000
,
0200
0000
0300
1003
,
0000
0000
0000
0000
0100
0000
0001
0100
,
0020
0000
0000
2030
0000
0000
3010
0000
,
0000
0000
0200
0000
0301
0010
0001
0000
,
0200
0000
0000
0000
0301
1000
0002
0000
,
0000
0000
0000
0000
1003
0010
0000
1000
,
0020
0000
0000
2030
0000
0000
3002
0000
,
0000
0203
0000
0000
0320
0000
0000
0000
,
2030
0000
0000
0000
,
3000
0000
0001
0000
0100
0010
0000
0000
,
4000
0000
0000
3010
0000
0000
0100
0004
,
0000
0000
1003
0000
0010
0000
0100
0040
,
0000
0000
1030
0000
0001
0000
1000
0200
,
0000
0000
1300
0000
0004
0000
0013
0100
,
4000
0000
0000
3010
0000
0000
0100
0004
,
0000
0000
1003
0000
0020
0000
0130
0001
,
0200
0000
0310
0000
1000
0001
0100
0002
,
0003
2000
3000
0010
0100
0001
1000
0100
,
0040
0000
0000
0031
0000
0000
1000
0400
,
0000
0000
1300
0000
0002
0000
0103
0040
,
0000
0000
0130
0000
2000
0000
3001
0400
,
0000
0000
0310
0000
1000
0000
0001
0100
,
0040
0000
0000
1030
0000
0000
0010
0400
,
0000
0000
0301
0000
1000
0000
0001
0100
,
0020
0000
2030
0000
3010
0100
0001
1000
,
0000
0010
0000
0100
0001
1000
0100
0010
,
0001
1000
0001
0000
0100
0000
0010
0000
1000
0000
0001
0100
0001
0000
1000
0000
,
0001
0100
0001
0000
1000
0010
1000
0000
0001
0000
0100
0010
0100
0000
0001
0000
,
1000
0000
0100
0000
0010
0000
0001
0000
0010
0000
0100
0000
1000
0000
0000
0000
0000
0000
0001
0000
0000
0000
0000
0000
0100
0000
0000
0000
0000
0000
0010
0000
0000
1000
0000
0000
0010
0000
0000
0000
0000
0000
0100
0000
0000
0001
0000
0000
,
0100
0010
1000
0000
0001
0100
0001
0000
1000
0000
0010
0100
0001
0000
0100
0000
,
0010
1000
0010
0000
0400
0000
0304
0000
1003
0000
0000
0001
1000
0000
0010
0000
,
0100
0001
0100
0000
0010
1000
0010
0000
0100
0001
0100
0000
0010
0000
1000
0000
,
0001
0000
0010
0000
0100
0000
1000
0000
0100
0000
0010
0000
0001
0000
0000
0000
0000
0000
1000
0000
0000
0000
0000
0000
0001
0000
0000
0000
0000
0000
0000
0000
0000
0010
0000
0000
0100
0000
0000
0000
0000
0000
1000
0000
0000
0000
0000
0000
,
0001
0000
1000
0001
1000
0000
0010
0000
0100
0000
0001
1000
0001
0000
0100
0000
,
1040
0130
0001
0100
0010
1000
0100
0010
,
0001
0100
0010
1000
0001
0010
0100
1000
,
0001
0100
0010
1000
0100
0010
0100
1000
,
0001
0100
0010
1000
0100
0010
0001
1000
,
0001
0010
0100
1000
0100
0010
0001
0100
0010
0100
0001
0010
0100
1000
0001
0100
,
0010
1000
0100
0010
0001
0010
0100
1000
0001
0100
0010
1000
0100
0010
0001
1000
,
0400
0000
0340
0000
0034
0403
0340
4030
,
3001
0000
0100
0010
0100
0000
0010
1000
0100
0010
0100
1000
0001
0100
0010
1000
,
0100
0010
0001
0010
0100
1000
0001
0100
0010
1000
0100
0010
0001
0010
0100
1000
,
0001
0100
0010
1000
0100
0010
0001
0010
0100
1000
0001
0100
0010
1000
0100
0010
,
0001
0010
0100
1000
0001
0100
0010
1000
0100
0010
0001
0010
0100
1000
0001
0100
,
0010
1000
0100
0010
0001
0010
0100
1000
0001
0100
0010
0100
0001
0010
0100
1000
,
0001
0100
0010
1000
0100
0010
0001
0010
0100
1000
0001
0100
0010
0100
0001
0010
,
0100
1000
0001
0100
0010
1000
0100
0010
0001
0100
0010
1000
0001
0010
0001
1000
,
0010
0100
0010
1000
0100
0010
0100
1000
0001
0100
0010
0100
0001
0010
0100
1000
,
0001
0100
0010
1000
0100
0010
0100
1000
0001
0100
0010
0100
0001
0010
0100
1000
,
0001
0100
0010
1000
0100
0010
0001
0010
0100
1000
0001
0100
0010
0100
0001
0010
,
0100
1000
0001
0100
0010
1000
0100
0010
0001
0010
0100
1000
0001
0100
0010
1000
,
0100
0010
0001
0010
0100
1000
0001
0100
0010
1000
0100
0010
0001
0010
0100
1000
,
0001
0100
0010
1000
0100
0010
0001
0010
0100
1000
0001
0100
0010
1000
0100
0010
,
0100
1000
0001
0010
0100
1000
0001
0100
0010
1000
0001
0010
0100
1000
0001
0100
,
0010
1000
0100
1000
0010
1000
0100
1000
0001
0100
0010
0100
0001
0100
0010
0100
,
0001
1000
0001
1000
0010
0100
0010
0100
,
0001
0010
0100
1000
0100
0010
0001
0010
0100
1000
0100
0010
0001
0010
0100
1000
,
0004
0000
1003
0010
0200
0301
0200
0310
,
1000
0002
0013
0200
1300
0001
0020
0130
,
2000
3100
0010
0002
0013
0100
2000
3010
,
0100
0002
0103
0020
1030
0100
0010
0001
,
0400
0000
0310
0100
0001
0010
0200
1300
,
0010
0200
0301
0200
0300
0001
0200
0310
,
2000
3100
0010
0002
0013
0100
2000
3100
,
0010
0000
0002
0000
0103
0000
0020
0000
1030
0000
0000
0001
0100
0010
1000
0000
,
1001
0001
0100
0020
1030
0100
0020
0031
,
0010
0200
1300
0020
0130
0001
2000
3100
,
0010
0001
0100
0020
1030
0100
0020
0031
,
0100
0020
1030
0020
0130
0001
0020
0130
,
1000
1000
0001
0200
0310
1000
0020
0130
,
0001
2000
3010
2000
3100
0010
0002
0103
,
0010
1000
0100
0010
0001
0000
0001
0000
,
0000
0000
0100
0000
0000
0000
0100
0000
0000
0000
0000
0010
1000
0000
0001
0000
,
1100
0010
0001
0100
0010
1000
0100
0010
,
0001
1000
0010
0100
0001
0010
0001
1000
,
0110
0001
0100
0010
1000
0100
0010
0001
,
0100
0010
1000
0100
0010
0001
0100
0010
,
1001
0010
0100
1000
0100
0010
0001
1000
,
0100
0010
0100
1000
0001
0100
0010
1000
,
1001
0001
0100
0010
1000
0100
0010
0100
,
1000
0001
0010
0100
1000
0001
0100
0010
,
1010
0100
0001
0100
0010
1000
0100
0010
,
0001
0010
0100
1000
0001
0100
0010
0100
,
0101
0000
0001
0000
0010
0000
0100
0000
1000
0000
0001
1000
0001
0000
0010
0000
,
0100
0000
1000
0010
1000
0000
0010
0000
0100
0000
0100
0000
0001
0000
0001
0000
,
1001
0000
0000
0000
1000
0000
0000
1000
0001
0000
0000
0001
0100
0000
0000
0100
,
0020
0000
2030
0000
3010
0000
0100
0001
,
0101
0010
1000
0100
0020
0000
0032
0000
,
0003
1000
0000
0010
,
0120
0000
0000
2030
0000
0000
3002
0000
,
0000
0000
0203
0000
0310
1000
0020
0000
,
0000
0000
0230
0000
0310
1000
0020
0000
,
0000
0000
0130
0000
0001
0010
0000
0002
,
0000
0100
0000
1000
,
0000
0100
0000
0010
,
2003
0100
0000
0010
,
0000
0010
3010
0001
,
0201
0000
0000
0320
0000
0000
2030
0000
,
0000
0000
3002
0000
0103
0010
0200
0000
,
0000
0000
0000
0000
0310
1000
0020
0000
,
0000
0000
0000
0000
1030
0001
0000
0200
,
0000
0010
1000
0010
,
0001
0010
1000
0010
,
0320
0000
0000
0000
,
0030
0000
1000
0000
0001
1000
0000
0000
,
0001
0000
0010
0000
0100
0000
1000
0000
0100
0000
0010
0000
0001
0000
0000
0000
0000
0000
1000
0000
0000
0000
0000
0000
0010
0000
0000
0000
0000
0000
0100
0000
0000
0010
0000
0000
1000
0000
0000
0010
0000
0000
1000
0000
0000
0000
0000
0000
,
0001
0100
0010
0000
0100
0000
0010
0000
1000
0000
0100
0010
0100
1000
0001
0000
,
1000
0100
1000
0000
0001
0010
0001
0000
0100
0000
0010
1000
0010
1000
0001
0000
,
0100
0010
0100
0000
0001
1000
0001
0000
1000
0000
0100
0010
0001
0100
0010
0000
,
1000
0001
1000
0000
0001
1000
0001
0000
0100
0000
0010
1000
0100
1000
0010
0000
,
0100
0000
0001
0100
0010
0000
1000
0000
0001
0000
0100
0010
1000
0100
0010
0000
,
0004
0000
1003
0100
0010
0000
0001
0000
0100
0000
0010
1000
0100
1000
0001
0000
,
0100
0000
0010
1000
0100
1000
0001
0000
0100
0000
0010
1000
0100
1000
0001
0000
,
1000
0000
0000
0000
0000
0000
0010
0000
0000
0000
0000
0000
0100
0000
0001
0000
0100
0000
0010
0000
1000
0000
0010
0000
0100
0000
0000
0000
0000
0000
0010
0000
0000
1000
0000
0000
0100
0000
0000
1000
0000
0000
0001
0000
0000
0000
0000
0000
,
0100
0000
0010
1000
0100
1000
0001
0000
0100
0000
0010
1000
0001
0100
0010
0000
,
1000
0000
0100
0010
0001
0010
0100
0000
1000
0000
0001
0100
0010
1000
0100
0000
,
0010
0000
0001
0100
0010
1000
0100
0000
0010
0000
0001
0100
0010
1000
0100
0000
,
0010
0001
0100
0010
1000
0100
0010
0001
0010
0100
1000
0001
0100
0010
0100
0001
,
0010
0100
1000
0100
0010
0001
0100
0010
1000
0100
0010
0001
0010
0100
1000
0001
,
4000
3040
0430
0304
,
1003
0000
0010
0100
0010
0000
1000
0100
0010
0001
1000
0010
0100
0000
0000
0000
,
0004
0000
1003
0020
0130
0001
0020
0130
,
1000
0020
0130
0002
0103
0010
2000
3100
,
0010
0001
0100
0020
1030
0100
0020
0031
,
0100
0020
1030
0020
0130
0001
0200
0310
,
0200
0310
1000
0020
0130
0001
0020
0031
,
1000
0020
0130
0002
0103
0010
2000
3100
,
0040
0000
0031
2000
3001
0010
0200
1300
,
0001
0000
0000
0100
0000
0000
0010
0000
0000
1000
0001
0100
0001
0100
0010
1000
0000
0000
0001
0000
0000
0000
0000
0000
,
4001
0000
3010
0200
0301
0010
0200
1300
,
0001
0020
0130
0020
0130
1000
0020
0130
,
0001
0100
0010
2000
3100
0010
0002
0103
,
0010
2000
3010
0200
0301
1000
0200
0310
,
0004
0000
0013
0400
1300
0010
0400
0301
,
0010
0400
1300
0040
0130
0001
0040
0130
,
1000
0100
0010
0002
0103
0010
2000
3100
,
0010
0002
0103
0020
1030
0100
0010
0001
,
1000
0100
0010
0001
0010
0100
1000
0000
0000
0020
0000
0000
0130
0000
0000
0001
0000
0000
0200
0000
0000
0310
0000
0000
,
1000
0020
0130
0002
0013
0100
2000
3010
,
0100
0001
0100
0010
0000
0000
1000
0000
0000
0040
0000
0000
0130
0000
0000
0001
0000
0000
0040
0000
0000
0130
0000
0000
,
1000
0040
0130
0040
1030
0100
0040
0031
,
1000
0100
0010
0001
0010
0100
1000
0000
0000
0040
0000
0000
0130
0000
0000
0001
0000
0000
0040
0000
0000
0130
0000
0000
,
1000
0040
0130
0004
1003
0100
1000
0001
,
0400
0310
1000
0400
0310
0001
0040
0130
,
1000
0004
0013
0400
1300
0001
0100
0010
,
1000
0010
0100
0001
1000
0100
0010
0000
0000
0001
0000
0000
0010
0000
0000
0100
0000
0000
2000
0000
0000
3010
0000
0000
,
0100
0002
0013
0200
1300
0100
0020
0031
,
0020
0031
1000
0200
0310
0001
0020
0130
,
1000
0020
0130
0002
0013
0100
1000
0010
,
0110
0010
0010
1000
,
0001
0100
0010
1000
,
0040
0000
0000
0000
0000
0000
0000
1030
,
0000
0010
0000
0010
0100
0010
1000
0010
,
1000
0001
0100
0010
1000
0100
0010
0001
0010
0100
1000
0001
0100
0010
1000
0001
,
0010
0100
1000
0001
0100
0010
1000
0100
0010
0001
0010
0100
1000
0001
0100
0010
,
1000
0100
0010
0001
0010
0100
1000
0001
0100
0010
0100
0001
0010
0100
1000
0001
,
0100
0010
1000
0100
0010
0001
0010
0100
1000
0001
0100
0010
1000
0100
0010
0001
,
0010
0100
1000
0001
0100
0010
1000
0100
0010
0001
0010
0100
1000
0001
0100
0010
,
1000
0100
0010
0001
0010
0100
1000
0001
0100
0010
0100
0001
0010
0100
1000
0001
,
0100
0010
1000
0100
0010
0100
1000
0001
0010
0100
1000
0001
0100
0010
1000
0100
,
0010
0001
0010
0100
1000
0001
0100
0010
1000
0100
0010
0001
0010
0100
1000
0001
,
0100
0010
1000
0100
0010
0100
1000
0001
0010
0100
1000
0001
0100
0010
1000
0100
,
0010
0001
0010
0100
1000
0001
0100
0010
1000
0100
0010
0001
0010
0100
1000
0001
,
0100
0010
1000
0100
0010
0100
1000
0001
0010
0100
1000
0001
0100
0010
1000
0100
,
0010
0001
0010
0100
1000
0001
0100
0010
1000
0100
0010
0001
0010
0100
1000
0001
,
0100
0010
1000
0100
0010
0100
1000
0001
0010
0100
1000
0001
0010
0100
1000
0001
,
0100
0010
1000
0100
0010
0100
1000
0001
0100
0010
1000
0100
0010
0001
0010
0100
,
0010
0100
1000
0001
0100
0010
1000
0100
,
0010
0100
1000
0001
0100
0010
1000
0100
0010
0001
0010
0100
1000
0001
0100
0010
,
1000
0100
0010
0002
0013
0100
1000
0001
,
0100
0010
1000
0100
0010
0001
0100
0010
,
1000
0100
0010
0200
1300
0001
0100
0010
,
1000
0001
0010
0100
1000
0001
0100
0010
,
1000
0100
0010
0002
0103
0010
1000
0100
,
0010
0100
1000
0001
0100
0010
1000
0100
,
0010
0001
0100
0010
1000
0100
0010
0001
,
0100
0000
0010
0000
1000
0000
0100
0000
0010
0001
0010
0100
1000
0001
0100
0010
,
1000
0100
0010
0100
1000
0001
0100
0010
0100
0001
0010
0100
1000
0100
0010
0001
,
0100
0010
1000
0001
0010
0100
1000
0001
0100
0010
1000
0100
0010
0001
0010
0100
,
1000
0001
0100
0010
1000
0100
0010
0001
0010
0100
1000
0001
0100
0010
1000
0100
,
0010
0001
0010
0100
1000
0001
0100
0010
1000
0001
0010
0100
1000
0001
0100
0010
,
1000
0100
0010
0100
1000
0001
0010
0100
1000
0001
0100
0010
1000
0100
0010
0001
,
0010
0100
1000
0001
0100
0010
1000
0100
0010
0100
1000
0001
0010
0100
1000
0001
,
4000
0000
0000
0000
,
0000
0000
0000
3010
,
1010
0000
0000
0000
;
