#TITLE:Dynablade Area 1;
#SUBTITLE:;
#ARTIST:Kirby Superstar;
#TITLETRANSLIT:;
#SUBTITLETRANSLIT:;
#ARTISTTRANSLIT:;
#CREDIT:;
#BANNER:banner.PNG;
#BACKGROUND:background.jpg;
#LYRICSPATH:;
#CDTITLE:;
#MUSIC:16- Kirby Super Star - Dynablade Area 1.mp3;
#OFFSET:0.000;
#SAMPLESTART:5.500;
#SAMPLELENGTH:23.000;
#SELECTABLE:YES;
#BPMS:0.000=166.000;
#STOPS:;
#BGCHANGES:;
// cache tags:
#FIRSTBEAT:16.500;
#LASTBEAT:327.500;
#SONGFILENAME:Songs/toune 4/Dynablade 1/Dynablade 1.sm;
#HASMUSIC:1;
#HASBANNER:1;
#MUSICLENGTH:126.482;
// end cache tags

//---------------dance-single - Blank----------------
#NOTES:
     dance-single:
     Blank:
     Hard:
     8:
     0.660,0.647,0.024,0.229,0.510,552.000,3.000,29.000,0.000,0.000:

0000
0000
0000
0000
,
0000
0000
0000
0000
,
0000
0000
0000
0000
,
0000
0000
0000
0000
,
0000
0000
1000
0000
0010
0100
0010
0000
0001
0000
0010
0000
0100
0000
1000
0000
,
0100
0000
0010
0000
0001
0010
0001
0000
0010
0000
0100
0000
0000
0000
1000
0100
,
1000
0000
0001
0000
0010
0001
0010
0000
0100
0000
1000
0000
0100
0000
0010
0000
,
0001
0000
0010
0000
0100
1000
0100
0000
0010
0000
0001
0000
0010
0000
0100
0010
,
0100
0000
1000
0000
0100
0010
0001
0000
0010
0000
0100
0000
1000
0000
0100
0000
,
1000
0000
0010
0000
0100
0001
0100
0000
0010
0000
2000
0000
0000
0000
3002
0000
,
0000
0000
0103
0000
0010
0100
0010
0000
0001
0000
0010
0000
0100
0000
1000
0000
,
0100
0000
0020
0000
0000
0000
0000
0000
0000
0000
0030
0000
0100
0000
1000
0100
,
1000
0000
0010
0000
0001
0010
0001
0000
0100
0000
0010
0000
1000
0000
0010
0000
,
0100
0000
0001
0000
0010
0100
0010
0000
1000
0000
0010
0000
0000
0000
0001
0010
,
0001
0000
0100
0000
1000
0100
1000
0000
0010
0000
0100
0000
0001
0000
0010
0000
,
1000
0000
0100
0000
0010
0100
0001
0000
0010
0000
0100
0000
1000
0000
0100
0010
,
0100
0000
1000
0000
0100
0010
0100
0000
0001
0000
0010
0000
0100
0000
0010
0000
,
1000
0000
0100
0000
0010
0100
1000
0000
0100
0000
0020
0000
0000
0000
0230
0000
,
0000
0000
1300
0000
0100
0010
0001
0000
0010
0000
0100
0000
0010
0000
0001
0000
,
0010
0000
2000
0000
0000
0000
0000
0000
3001
0010
0002
0000
0000
0000
0000
0000
,
0000
0000
2003
0000
0000
0000
0000
0000
0000
3100
0010
0001
0000
0000
0010
0000
,
0000
0100
0000
1000
0000
0000
0000
0100
0000
0020
0000
0000
0000
0000
0000
0000
0000
0000
0000
0000
0000
0000
0000
0000
,
0000
0000
0000
0000
0000
0000
0000
0000
0032
0000
0000
0000
0000
0000
0000
0000
0000
0000
0000
0000
0000
0000
0000
0000
1003
0000
0000
0100
0000
0000
0010
0000
0000
0000
0000
0000
0000
0000
0000
0000
0001
0000
0000
0000
0000
0000
0000
0000
,
0010
0200
0000
0000
0000
0000
0000
0000
0000
0000
0000
0000
,
0310
0001
0010
0000
0000
0000
0000
0000
1000
0100
1000
0000
0000
0000
0010
0000
,
0000
0000
0100
0000
0010
0000
0000
0000
1000
0000
0100
0000
0000
0000
0000
0000
0000
0000
0000
0000
0000
0001
0000
0000
,
0000
0010
0000
0100
0000
0000
0000
0000
0000
0000
0000
0000
0000
1000
0000
0100
0000
0000
0000
0001
0000
0010
0000
0000
,
0000
0000
0000
0000
0000
0000
0000
0100
0000
1000
0000
0000
0000
0001
0000
0010
0000
0000
0000
0000
0000
0000
0000
0000
,
1000
0100
0010
0000
0000
0000
0000
0000
0010
0100
1000
0000
0000
0000
0000
0000
,
1000
0100
0010
0000
0000
0000
0000
0000
0010
0100
1000
0000
0000
0000
1001
0000
,
0000
0000
1000
0000
0010
0100
0010
0000
0001
0000
0010
0000
0100
0000
1000
0000
,
0100
0000
0010
0000
0001
0010
0001
0000
0010
0000
0100
0000
0000
0000
1000
0100
,
1000
0000
0001
0000
0010
0001
0010
0000
0100
0000
1000
0000
0100
0000
0010
0000
,
0001
0000
0010
0000
0100
1000
0100
0000
0010
0000
0001
0000
0010
0000
0100
0010
,
0100
0000
1000
0000
0100
0010
0001
0000
0010
0000
0100
0000
1000
0000
0100
0000
,
1000
0000
0010
0000
0100
0001
0100
0000
0010
0000
2000
0000
0000
0000
3002
0000
,
0000
0000
0103
0000
0010
0100
0010
0000
0001
0000
0010
0000
0100
0000
1000
0000
,
0100
0000
0020
0000
0000
0000
0000
0000
0000
0000
0030
0000
0100
0000
1000
0100
,
1000
0000
0010
0000
0001
0010
0001
0000
0100
0000
0010
0000
1000
0000
0010
0000
,
0100
0000
0001
0000
0010
0100
0010
0000
1000
0000
0010
0000
0000
0000
0001
0010
,
0001
0000
0100
0000
1000
0100
1000
0000
0010
0000
0100
0000
0001
0000
0010
0000
,
1000
0000
0100
0000
0010
0100
0001
0000
0010
0000
0100
0000
1000
0000
0100
0010
,
0100
0000
1000
0000
0100
0010
0100
0000
0001
0000
0010
0000
0100
0000
0010
0000
,
1000
0000
0100
0000
0010
0100
1000
0000
0100
0000
0020
0000
0000
0000
0230
0000
,
0000
0000
1300
0000
0100
0010
0001
0000
0010
0000
0100
0000
0010
0000
0001
0000
,
0010
0000
0100
0000
0000
0000
0000
0000
1000
0100
0010
0000
0000
0000
0000
0000
,
0000
0000
2000
0000
0000
0000
0000
0000
0000
3100
0010
0001
0000
0000
0010
0000
,
0000
0100
0000
1000
0000
0000
0000
0100
0000
0020
0000
0000
0000
0000
0000
0000
0000
0000
0000
0000
0000
0000
0000
0000
,
0000
0000
0000
0000
0000
0000
0000
0000
0032
0000
0000
0000
0000
0000
0000
0000
0000
0000
0000
0000
0000
0000
0000
0000
1003
0000
0000
0100
0000
0000
0010
0000
0000
0000
0000
0000
0000
0000
0000
0000
0001
0000
0000
0000
0000
0000
0000
0000
,
0010
0200
0000
0000
0000
0000
0000
0000
0000
0000
0000
0000
,
0310
0001
0010
0000
0000
0000
0000
0000
1000
0100
1000
0000
0000
0000
0010
0000
,
0000
0000
0100
0000
0010
0000
0000
0000
1000
0000
0100
0000
0000
0000
0000
0000
0000
0000
0000
0000
0000
0001
0000
0000
,
0000
0010
0000
0100
0000
0000
0000
0000
0000
0000
0000
0000
0000
1000
0000
0100
0000
0000
0000
0001
0000
0010
0000
0000
,
0000
0000
0000
0000
0000
0000
0000
0100
0000
1000
0000
0000
0000
0001
0000
0010
0000
0000
0000
0000
0000
0000
0000
0000
,
1000
0100
0010
0000
0000
0000
0000
0000
0010
0100
1000
0000
0000
0000
0000
0000
,
1000
0100
0010
0000
0000
0000
0000
0000
0010
0100
1000
0000
0000
0000
1001
0000
,
0000
0000
1000
0000
0010
0100
0010
0000
0001
0000
0010
0000
0100
0000
1000
0000
,
0100
0000
0010
0000
0001
0010
0001
0000
0010
0000
0100
0000
0000
0000
1000
0100
,
1000
0000
0001
0000
0010
0001
0010
0000
0100
0000
1000
0000
0100
0000
0010
0000
,
0001
0000
0010
0000
0100
1000
0100
0000
0010
0000
0001
0000
0010
0000
0100
0010
,
0100
0000
1000
0000
0100
0010
0001
0000
0010
0000
0100
0000
1000
0000
0100
0000
,
1000
0000
0010
0000
0100
0001
0100
0000
0010
0000
2000
0000
0000
0000
3002
0000
,
0000
0000
0103
0000
0010
0100
0010
0000
0001
0000
0010
0000
0100
0000
1000
0000
,
0100
0000
0020
0000
0000
0000
0000
0000
0000
0000
0030
0000
0100
0000
1000
0100
,
1000
0000
0010
0000
0001
0010
0001
0000
0100
0000
0010
0000
1000
0000
0010
0000
,
0100
0000
0001
0000
0010
0100
0010
0000
1000
0000
0010
0000
0000
0000
0001
0010
,
0001
0000
0100
0000
1000
0100
1000
0000
0010
0000
0100
0000
0001
0000
0010
0000
,
1000
0000
0100
0000
0010
0100
0001
0000
0010
0000
0100
0000
1000
0000
0100
0010
,
0100
0000
1000
0000
0100
0010
0100
0000
0001
0000
0010
0000
0100
0000
0010
0000
,
1000
0000
0100
0000
0010
0100
1000
0000
0100
0000
0020
0000
0000
0000
0230
0000
,
0000
0000
1300
0000
0100
0010
0001
0000
0010
0000
0100
0000
0010
0000
0001
0000
,
0010
0000
0100
0000
0000
0000
0000
0000
1000
0100
0010
0000
0000
0000
0000
0000
,
0000
0000
2000
0000
0000
0000
0000
0000
0000
3100
0010
0001
0000
0000
0010
0000
,
0000
0100
0000
1000
0000
0000
0000
0100
0000
0020
0000
0000
0000
0000
0000
0000
0000
0000
0000
0000
0000
0000
0000
0000
,
0000
0000
0000
0000
0000
0000
0000
0000
0032
0000
0000
0000
0000
0000
0000
0000
0000
0000
0000
0000
0000
0000
0000
0000
1003
0000
0000
0100
0000
0000
0010
0000
0000
0000
0000
0000
0000
0000
0000
0000
0001
0000
0000
0000
0000
0000
0000
0000
,
0010
0200
0000
0000
0000
0000
0000
0000
0000
0000
0000
0000
,
0310
0001
0010
0000
0000
0000
0000
0000
1000
0100
1000
0000
0000
0000
0010
0000
,
0000
0000
0100
0000
0010
0000
0000
0000
1000
0000
0100
0000
0000
0000
0000
0000
0000
0000
0000
0000
0000
0001
0000
0000
,
0000
0010
0000
0100
0000
0000
0000
0000
0000
0000
0000
0000
0000
1000
0000
0100
0000
0000
0000
0001
0000
0010
0000
0000
,
0000
0000
0000
0000
0000
0000
0000
0100
0000
1000
0000
0000
0000
0001
0000
0010
0000
0000
0000
0000
0000
0000
0000
0000
,
1000
0100
0010
0000
0000
0000
0000
0000
0010
0100
1000
0000
0000
0000
0000
0000
,
1000
0100
0010
0000
0000
0000
0000
0000
0010
0100
1000
0000
0000
0000
1001
0000
;
