#TITLE:Valenti;
#SUBTITLE:;
#ARTIST:Boa;
#TITLETRANSLIT:;
#SUBTITLETRANSLIT:;
#ARTISTTRANSLIT:;
#CREDIT:;
#BANNER:Valenti BN.png;
#BACKGROUND:Valenti BG.png;
#LYRICSPATH:;
#CDTITLE:;
#MUSIC:Valenti1.ogg;
#OFFSET:-0.744;
#SAMPLESTART:32.972;
#SAMPLELENGTH:12.000;
#SELECTABLE:YES;
#BPMS:0.000=104.000;
#STOPS:;
#BGCHANGES:;
// cache tags:
#FIRSTBEAT:11.500;
#LASTBEAT:200.000;
#SONGFILENAME:Songs/lvsb tourney pack/valenti/Valenti1.sm;
#HASMUSIC:1;
#HASBANNER:0;
#MUSICLENGTH:105.000;
// end cache tags

//---------------dance-single - ----------------
#NOTES:
     dance-single:
     :
     Easy:
     4:
     0.283,0.333,0.229,0.171,0.014,166.000,24.000,18.000,8.000,3.000:




0000
0000
0000
0000
,
0000
0000
0000
0000
,
0000
0000
0000
0000
,
0000
0000
0000
0000
,
0000
0000
0000
0000
,
0000
0001
0010
0100
,
1000
0100
0001
0100
,
1000
1000
1000
1000
,
0000
1000
0010
0100
,
0001
0100
0010
0100
,
1000
0100
0001
0100
,
0001
0001
0001
0000
,
0010
1100
0010
0101
,
0010
1001
0100
1001
,
0220
0000
0000
0330
0010
0000
1000
0000
,
0100
0001
0010
1000
,
2002
0000
3003
M00M
,
1000
0100
0010
1001
,
1000
0100
0010
1001
,
0001
0000
0010
0000
0100
1000
0010
0000
,
0100
0001
0010
0010
,
0100
1010
0100
0011
,
1000
0110
0001
0110
,
1000
0000
0100
1000
0010
0000
0100
0000
,
0001
0000
0010
0001
0100
0000
0010
0000
,
1000
0000
0000
0001
0000
0000
1000
0000
0000
0000
0000
0000
M00M
0000
0000
0000
,
1000
0001
1100
0000
,
0010
0100
1001
0000
,
0010
0000
0100
0001
0010
0000
0100
0000
,
1000
0000
0010
1000
0100
0000
0010
0000
,
0000
0MM0
0100
1001
,
0010
1001
0100
1010
,
0100
0000
0011
0000
0220
0000
0000
0330
,
0010
0001
0100
1000
,
0010
0001
2002
0000
,
0010
0000
0000
0000
3003
0000
0000
0000
0001
0000
0000
1000
0000
0000
0001
0000
,
0000
M00M
2000
0010
,
0001
3100
0002
0010
,
1000
0103
0010
1000
,
0010
0100
0001
0000
0010
0000
1000
0000
,
0010
0011
2000
0100
,
0001
3010
0002
0100
,
1000
0000
0013
0000
0001
0000
0010
0001
,
0100
0000
0010
0000
1000
0000
0100
1000
,
0010
0100
2002
0000
,
0010
3003
1000
0010
,
0001
0010
1000
0100
,
0001
0010
2002
0000
,
0010
0000
0000
0000
3003
0000
0000
0000
1000
0000
0000
0001
0000
0000
1000
0000
,
0000
2002
0000
0000
,
3003
0000
0000
0000
;

//---------------dance-single - ----------------
#NOTES:
     dance-single:
     :
     Medium:
     6:
     0.371,0.357,0.114,0.152,0.014,245.000,12.000,16.000,0.000,3.000:




0000
0000
0000
0000
,
0000
0000
0000
0000
,
0000
0000
0000
0000
,
0000
0000
0000
0000
,
0000
0000
0000
0000
,
1000
0100
1000
0001
0100
0000
0010
0000
,
1000
0100
0010
0001
0100
0000
0010
0000
,
1000
0010
0100
0002
0200
0000
0010
0303
,
0100
0001
0100
0010
1000
0000
0100
0000
,
0010
0001
0100
0010
1000
0000
0100
0000
,
0010
0001
1000
0010
0100
0000
0001
0000
,
1000
0100
0010
0002
2000
0000
0010
3003
,
1000
0000
0001
1000
1001
0000
0110
0000
,
1000
0000
0001
1000
1001
0000
0110
0000
,
1000
0000
1000
0000
0100
1000
0001
0010
,
0100
1000
0100
1000
0100
1000
0100
1000
,
0001
0000
0000
0000
,
0001
0000
1000
0001
0010
0000
0001
1000
,
0010
0000
1000
0001
0010
0001
0100
0000
,
0010
0000
0100
0001
0010
0000
0100
1000
,
0010
0000
0100
0001
0010
0001
1000
0000
,
0001
0000
0010
0001
0100
0000
0001
0100
,
0010
0000
0100
0010
1000
0010
0100
0000
,
0001
0000
1000
0100
0010
0000
0100
0010
,
0001
0000
0010
0001
0100
0010
1000
0000
,
0100
0000
0000
0100
0000
0000
0100
0000
2002
0000
0000
0000
3003
0000
0000
0000
,
1000
0001
0100
0000
0100
0000
0100
0010
,
1000
0100
0010
0000
0010
0000
0000
0000
,
0001
0010
0001
0010
0100
1000
0100
1000
,
0002
0000
0103
0000
0100
0010
1001
0000
,
0000
0000
0000
0000
1000
0000
0100
1000
,
1010
0000
0001
0000
0100
0000
0010
1000
,
1100
0001
0010
0010
,
0001
0010
0100
1000
0010
0100
0010
0100
,
0020
0130
2002
0000
,
0010
0000
0000
0000
3003
0000
0000
0000
1000
0000
0000
0001
0000
0000
1000
0000
,
2002
0000
3003
0000
0100
0000
0010
1000
,
0001
0000
0010
0001
1000
0000
0010
1000
,
0001
0100
0010
0000
1000
0000
0100
0010
,
0001
0000
0100
0010
1000
0000
0100
0010
,
0001
0100
0010
0000
1000
0000
0100
1000
,
0010
0000
1000
0010
0100
0000
0010
0100
,
0001
0010
0100
0000
1000
0000
0100
0010
,
0001
0000
0010
0001
0100
0000
0001
0100
,
0010
1000
0100
0000
0020
0000
0001
0001
,
0001
0000
0130
0000
2000
0000
0010
0010
,
0010
0000
3001
0000
0010
0001
0100
0010
,
1000
0100
0010
0000
0010
0000
0001
1000
,
0100
0000
0000
0000
1001
0000
0000
0000
0100
0000
0000
0100
0000
0000
0100
0000
,
0010
2002
0000
0000
,
3003
0000
0000
0000
;

//---------------dance-single - ----------------
#NOTES:
     dance-single:
     :
     Challenge:
     9:
     0.781,0.810,0.590,0.295,0.919,480.000,62.000,31.000,46.000,6.000:

0000
0000
0000
0000
,
0000
0000
0000
0000
,
0000
0000
0000
0000
0000
0000
0000
1001
,
0100
1001
0010
1100
0010
0101
0010
1001
,
0220
0000
0000
0000
0000
0000
0000
0000
0000
0330
0MM0
0010
0100
0000
1001
0000
,
0001
0000
0100
0001
0100
0001
1000
0010
0100
0001
0000
0010
0000
0000
0001
0000
,
1000
0000
0100
1000
0100
0010
0001
0010
0100
1000
0000
0100
0000
0000
1000
0000
,
2001
0000
0010
0000
0002
3000
0010
0000
2000
0003
0010
0000
0002
3000
0010
0003
,
0000
0000
0100
1000
0010
0100
0001
0100
0010
1000
0000
0001
0000
0000
1000
0000
,
0001
0000
0100
0010
1000
0001
0010
0100
1000
0100
0000
0010
0000
0000
1000
0000
,
0001
0000
0010
0001
0010
0001
0100
0010
0100
0010
0000
1000
0000
0000
0100
0000
,
2001
0000
0100
0000
0002
3000
0100
0000
4000
0000
0000
0000
3003
0000
0000
0000
,
0001
0010
0100
1000
0000
0010
0000
0100
0000
0001
0010
0000
1100
0000
MM00
0000
,
0001
0010
0001
0100
0000
0010
0000
1000
0000
0010
0100
0000
0011
0000
00MM
0000
,
2002
0000
3003
1001
0100
1010
0100
0011
,
2001
0001
0001
0010
0100
0010
3100
MM00
,
0010
0001
0000
0100
0000
0000
0010
0000
1000
0000
0000
0100
0010
0000
1001
0000
,
0001
0010
0100
1000
0001
0010
0100
1000
0001
0100
0010
1000
0001
0100
0010
1000
,
0100
0010
0001
1000
0010
0100
0001
1000
0010
0000
1100
0000
0011
0000
00MM
0000
,
0001
1000
0100
0010
0001
1000
0100
0010
0001
1000
0100
0010
0001
0100
0010
1000
,
0100
0010
0001
1000
0010
0100
0001
0010
0100
1000
0010
0100
0001
0000
0011
0000
,
0100
1000
0010
0100
0001
1000
0010
0100
0001
0010
0100
1000
0001
0100
0010
1000
,
0100
0010
0001
0100
0010
1000
0001
0010
0100
0000
1010
0000
0101
0000
0M0M
0000
,
0010
0100
0001
0010
0100
1000
0001
0010
0100
1000
0001
0100
0010
1000
0100
0010
,
0001
0100
0010
1000
0100
0010
0001
0100
0010
1000
0100
0010
0001
0000
1010
0000
,
0101
0000
0000
0000
0000
0000
0M0M
0000
0000
1010
0000
0000
0000
0000
0000
M0M0
0000
0000
1100
0000
0000
0000
0000
0000
1000
0000
0000
0000
0100
0000
0000
0000
0010
0000
0000
0000
0001
0000
0000
0000
0000
0000
0010
0000
0000
0001
0000
0000
,
0100
0000
0001
0000
0100
0000
0010
1000
0100
0000
1100
0000
0202
0000
0000
0303
,
0001
0000
1000
0000
0100
0000
1000
0010
0100
0000
0011
0000
0220
0000
0000
0330
,
0010
0100
1000
0010
0000
0100
0000
0001
0010
0000
0001
0100
0000
0000
0000
0000
,
0010
1000
0010
1000
002M
0000
0000
0000
M000
0000
0230
0000
0000
0000
00M2
0000
0300
0000
1003
0000
0100
0000
0010
0000
0001
0000
0000
0000
0000
0000
0000
0000
,
0010
0000
0000
0000
0001
0000
0000
0000
0100
0000
0000
0000
0010
0000
0000
0000
0000
0000
1001
0000
0000
0000
0000
0000
0010
0000
0000
0100
0000
0000
0001
0000
0000
1000
0000
0000
0000
0000
0000
0100
0000
0000
0000
0000
0000
1000
0000
0000
,
0000
0010
1000
0000
1100
0000
MM00
0000
0010
0001
0100
0001
0000
0010
0000
0100
,
0000
1000
0010
0000
0101
0000
0M0M
0000
2002
0000
0000
0000
3003
0000
1001
0000
,
0100
0011
0100
1010
1002
1000
1000
0100
,
0010
0000
0103
0000
1001
0000
M00M
0000
0100
0010
0000
1000
0000
0000
0100
0000
,
0020
M000
0M00
000M
0002
0000
0000
0033
0011
0000
00MM
1100
0000
MM00
1010
0000
,
0001
0000
0000
0000
0100
0000
0000
0000
0010
0000
0000
0000
1000
0000
0100
0000
1000
0000
0100
0000
1000
0000
0100
0000
1000
0000
0000
0001
0000
0000
0100
0000
0000
0010
0000
0000
1000
0000
0000
0100
0000
0000
0010
0000
0000
0001
0000
0000
,
1000
0100
0010
0001
0100
0010
1000
0001
0100
0010
1000
0100
0010
0001
0100
0010
,
1000
0000
1100
0000
0101
0000
0M0M
0000
1000
0010
0100
0001
0010
0100
1000
0001
,
0100
0010
1000
0100
0010
0001
0100
0010
1000
0001
0010
0100
1000
0010
0100
0001
,
0010
0100
1000
0010
0100
0000
0011
0000
0100
1000
0010
0001
1000
0100
0001
0010
,
0100
1000
0001
0100
0010
1000
0100
0001
1000
0010
0100
1000
0001
0100
0010
1000
,
0100
0000
1010
0000
0011
0000
00MM
0000
0100
1000
0010
0100
1000
0001
0010
1000
,
0100
0010
0001
0100
0010
1000
0001
0100
1000
0001
0010
1000
0100
0010
1000
0001
,
0100
1000
0010
0100
0001
0000
0011
0000
2200
0000
0000
0010
0000
0000
0001
0000
,
3310
0000
0000
0000
1001
0000
0001
0000
0202
0000
0000
0010
0000
0000
1000
0000
,
0313
0000
1001
0010
0210
1000
0010
0301
,
0120
0001
0100
1030
0110
0MM0
1100
0010
,
0101
0000
1000
0001
1000
0000
1100
0000
0110
0000
0MM0
0011
0000
00MM
0101
0000
,
1000
0000
0010
0000
0100
0000
2002
0000
0000
0000
0000
0000
0000
0000
0000
0000
0000
0000
0000
0000
0000
3003
0000
0000
,
MMMM
0000
0000
0000
;

//---------------dance-single - ----------------
#NOTES:
     dance-single:
     :
     Hard:
     8:
     0.524,0.524,0.362,0.333,0.471,312.000,38.000,35.000,2.000,4.000:




0000
0000
0000
0000
,
0000
0000
0000
0000
,
0000
0000
0000
0000
,
0000
0000
0000
0000
,
2002
0000
0000
0000
0000
0000
0000
0000
0000
3003
0000
0010
0100
0000
0010
0000
,
1000
0000
0100
1000
0100
0000
1000
0000
0010
0100
0000
0001
0000
0000
0000
0000
,
0001
0000
1000
0100
1000
0000
0100
0000
0010
0001
0000
0100
0000
0000
0010
0000
,
1000
0100
0001
0010
1000
0100
0001
0100
,
1000
0000
0010
0100
0010
0000
0100
0000
0001
0010
0000
0001
0000
0000
0000
0000
,
0010
0000
0001
1000
0010
0000
0100
0000
0001
1000
0000
0100
0000
0000
0000
0000
,
0100
0000
1000
0100
1000
0000
0010
0000
0100
0001
0000
1000
0000
0000
0100
0000
,
1000
0010
0001
0100
1000
0010
1001
0000
,
1000
0000
0100
1000
0000
0010
0000
0100
0000
0001
0010
0000
0100
0000
0000
0000
,
1000
0000
0010
1000
0000
0010
0000
0100
0000
0001
0010
0000
0100
0000
0000
0000
,
2002
0000
3003
0010
0010
0100
0100
0010
,
2000
0000
3010
0100
0002
0000
0013
0000
,
2002
0000
0000
0000
0000
0000
0000
0000
3003
0000
0000
0010
0100
0000
0010
0000
,
1000
0000
0000
0100
0000
0010
0000
0000
0001
0000
0000
1000
0000
0001
0000
0000
,
0100
0000
0010
1000
0000
0100
0000
1200
0000
0000
0010
0000
0310
0000
0000
0000
,
0001
0000
0000
0010
0000
0000
0100
0000
1000
0000
0000
0010
0000
0000
0100
0000
,
0001
0000
1000
0100
0001
0000
1001
0000
,
1000
0000
0000
0010
0000
0100
0000
0000
0001
0010
0001
1000
0000
0100
0000
0000
,
1000
0001
0100
0010
0000
1000
0000
1200
0000
0000
0010
0000
0310
0000
0000
0000
,
0002
0000
0000
0010
0000
0000
1003
0000
0020
0000
0000
0100
0000
0000
1030
0000
,
0100
0000
0011
1000
0202
0000
0010
0303
,
0100
0000
0000
0000
0000
0000
0000
0000
0000
1100
0000
0000
0000
0000
0000
0000
0000
0000
0101
0000
0000
0000
0000
0000
1000
0000
0000
0000
0001
0000
0000
0000
1000
0000
0000
0000
0001
0000
0000
0000
0000
0000
0000
0000
0000
0000
0000
0000
,
1000
0000
0010
0000
1000
0000
0010
0100
0002
0000
0010
0000
0013
0000
0000
0000
,
0001
0000
0010
0000
0100
0000
1000
0010
0200
0000
0001
0000
0301
0000
0000
0000
,
0100
0000
0010
1000
0000
0100
0000
0010
0001
0000
0100
0010
0000
0000
0000
0000
,
1100
0000
0000
0110
0000
0001
0000
1001
0000
0000
0010
0100
0010
0000
0000
0000
,
1000
0000
0000
0000
0100
0000
0000
0000
0010
0000
0000
0000
0001
0000
0000
0000
0000
0000
0000
0000
0000
0000
0000
0000
0010
0000
0000
0000
0000
0000
0001
0000
0000
0100
0000
0000
0000
0000
0000
0010
0000
0000
0000
0000
0000
1000
0000
0000
,
0000
0100
0010
0000
1001
0000
0000
0000
0010
0000
0001
1000
0000
0100
0000
1000
,
0000
0010
0100
0000
0011
0000
0000
0000
0220
0000
0000
0000
0330
0000
1000
0000
,
1000
0001
0001
0010
0200
0000
1300
0010
,
0100
0000
0110
0000
0110
0000
0000
0000
0001
0010
0000
0100
0000
0000
1000
0000
,
0010
0000
0MM0
0000
1001
0000
0000
0000
0100
0000
0000
0011
0000
0000
1010
0000
,
0001
0000
0000
0000
0100
0000
0000
0000
0010
0000
0000
0000
1000
0000
0000
0000
0000
0000
0000
0000
0000
0000
0000
0000
0100
0000
0000
0000
0000
0000
0000
0000
0000
0010
0000
0000
0000
0000
0000
0001
0000
0000
0000
0000
0000
0000
0000
0000
,
0100
0000
0000
0010
0000
1000
0000
0000
0100
0000
1000
0100
0000
1000
0000
0012
,
0000
0000
0100
0000
0103
0000
0000
0000
0010
0000
0000
1000
0000
0000
0100
0000
,
0010
0000
0000
0001
0000
0000
0100
0000
1010
0000
0000
0000
0001
0000
2000
0000
,
0200
0000
0000
0000
0001
0000
3300
0000
2000
0000
0000
0010
0000
3002
0000
0000
,
0103
0010
1000
0100
0000
1002
0000
0000
0013
0001
1000
0002
0000
0100
0000
2003
,
0000
0000
0010
0000
3010
0000
0000
0000
0120
0000
0000
1000
0000
0000
0130
0000
,
1002
0000
0000
0010
0000
0000
0103
0000
1010
0000
0000
0000
1100
0000
0001
0000
,
2002
0000
0000
0000
0010
0000
3003
0000
1000
0000
0000
0100
1000
0000
0010
0000
,
0100
0000
0001
0000
0011
0000
0000
0000
0100
0000
0000
0010
0100
0000
1000
0000
,
0010
1001
1001
0000
1000
0100
0001
0010
,
1000
0001
2002
0000
0100
3003
1000
0010
,
0001
0000
0000
0100
0010
0000
1000
0000
1001
0000
0000
1100
0000
0000
0011
0000
,
0001
1000
0001
0220
0000
0000
0000
0000
0000
0000
0000
0000
,
0330
0000
0000
0000
;

//---------------dance-double - ----------------
#NOTES:
     dance-double:
     :
     Hard:
     8:
     0.497,0.500,0.410,0.095,0.486,312.000,43.000,10.000,12.000,4.000:


00000000
00000000
00000000
00000000
,
00000000
00000000
00000000
00000000
,
00000000
00000000
00000000
00000000
,
00000000
00000000
00000000
00000000
,
00020020
00000000
00000000
00000000
00000000
00000000
00001000
00000100
,
00030030
00000000
00010000
00000100
00010000
00000100
00010000
00000000
00000100
00001000
00000000
00000001
00000000
00000000
00000000
00000000
,
00000000
00000000
00000100
00000010
00000100
00000010
00001000
00000000
00000010
00010000
00000000
00001000
00000000
00000000
00010000
00000000
,
00001000
00100000
00010000
10000000
00100000
01000000
00001000
00010000
,
00000000
00000000
00000100
00010000
00000100
00010000
00001000
00000000
00000100
00000010
00000000
00001000
00000000
00000000
00000000
00000000
,
00000000
00000000
00000001
00000010
00000001
00000010
00000100
00000000
00010000
00001000
00000000
00100000
00000000
00000000
00000000
00000000
,
00000000
00000000
00010000
10000000
00010000
10000000
00010000
00000000
01000000
00001000
00000000
00100000
00000000
00000000
00001000
00000000
,
00011000
01000100
00010010
00000000
,
00000001
00000000
00001000
00000100
00000000
00000010
00000000
00001000
00000000
00010000
00001000
00000000
00011000
00000000
00000000
00000000
,
00100000
00000000
00001000
01000000
00000000
00100000
00000000
00010000
00000000
00001000
00010000
00000000
11000000
00000000
00000000
00000000
,
00110000
00000000
00011000
00001000
00010000
00000100
00001001
00000100
,
00002001
00000000
00000000
00000000
00000001
00000000
00000000
00000000
00003001
00000000
00000010
00000000
00000100
00010000
00001000
00000000
,
00022000
00000000
00000000
00000000
00000100
00000000
00033000
000MM000
,
01000000
00000000
00000000
00010000
00000000
00100000
00000000
00000000
00001000
00000000
00010000
00000100
00000000
00010000
00000010
00000000
,
00000100
00000000
00000010
00001000
00000000
00000100
00000000
00011000
00000000
00000000
00000000
00000000
000MM000
00000000
00000000
00000000
,
01000000
00000000
00000000
00010000
00100000
00000000
00001000
00000000
00010000
00000000
00000100
00001000
00000000
00000000
00000100
00000000
,
00000010
00001100
00010010
01000100
,
00001000
00000000
00000000
00100000
00000000
01000000
00000000
00000000
00100000
00000000
00001000
00010000
00000000
00000100
00001000
00000000
,
00000010
00000000
00000100
00000010
00000000
00001000
00000000
00010100
00000000
00000000
00000000
00000000
000M0M00
00000000
00000000
00000000
,
00001000
00000000
00000000
01000000
00100000
00000000
01000000
00000000
00001000
00000000
00010000
00000100
00000000
00000000
00010000
00000000
,
00000010
00000000
00000000
00000000
00001100
00000000
00000100
00000000
00010000
00000000
00001000
00000000
00100000
00001000
00010000
00000000
,
01001000
00000000
00000000
00000000
00000000
00000000
00000000
00000000
00000000
00100000
00000000
00000000
00000000
00000000
00000000
00000000
00000000
00000000
00001000
00000000
00000000
00000000
00000000
00000000
00010000
00000000
00000000
00000000
00001000
00000000
00000000
00000000
00010000
00000000
00000000
00000000
00001000
00000000
00000000
00000000
00000000
00000000
00000000
00000000
00000000
00000000
00000000
00000000
,
00100000
00000000
00010000
00000000
10000000
00000000
00100000
01000000
00010000
00000000
00000000
00000000
10100000
00000000
00000000
00000000
,
01000000
00000000
00001000
00000000
00010000
00000000
00001000
00010000
00000100
00000000
00000000
00000000
00010010
00000000
00000000
00000000
,
00000001
00000000
00000010
00000001
00000000
00000010
00000000
00001000
00010000
00000000
00010000
00001000
00000000
00000000
00000000
00000000
,
00200000
00000000
00000000
00001000
00000000
00010000
00000000
00301000
00010000
00000100
00001000
00000100
00010000
00000000
00000000
00000000
,
00001000
00000000
00000000
00000000
00010000
00000000
00000000
00000000
00001000
00000000
00000000
00000000
00010000
00000000
00000000
00000000
00000000
00000000
00010000
00000000
00000000
00000000
00000000
00000000
00001000
00000000
00000000
00000000
00000000
00000000
00100000
00000000
00000000
00010000
00000000
00000000
00000000
00000000
00000000
10000000
00000000
00000000
00000000
00000000
00000000
00100000
00000000
00000000
,
00000000
01000000
00010000
00000000
00101000
00000000
00000000
00000000
00010000
00000000
00000100
00000010
00000000
00001000
00000000
00010000
,
00000000
00000010
00000100
00000000
00001001
00000000
00000000
00000000
00001001
00000000
00000000
00000000
00000110
00000000
00000010
00000000
,
00001000
00000100
00011000
00000100
00012000
00000000
01000000
00000000
,
00100000
00000000
00100000
00000000
00103000
00010000
10000000
00000000
20020000
00000000
00000000
00000000
00000000
00000000
00000000
00000000
,
01001000
00000000
00000000
00000000
30030000
00000000
00000000
00000000
10000000
00000000
00000000
00010000
00000000
00000000
01000000
00000000
,
00001000
00000000
00000000
00000000
00010000
00000000
00000000
00000000
00001000
00000000
00000000
00000000
00010000
00000000
00000000
00000000
00000000
00000000
00000000
00000000
00000000
00000000
00000000
00000000
00000100
00000000
00000000
00000000
00000000
00000000
00000000
00000000
00000000
00000010
00000000
00000000
00000000
00000000
00000000
00000100
00000000
00000000
00000000
00000000
00000000
00000000
00000000
00000000
,
00001000
00000000
00000100
00010000
00000000
00001000
01000000
00000000
00100000
00000000
01000000
00010000
00000000
00100000
00000000
00011000
,
00000000
00000000
00000000
00000000
000MM000
00000000
00000000
00000000
00000100
00000000
00000000
00000010
00001000
00000000
00000100
00000000
,
00010000
00000000
00001000
01000000
00000000
00000000
00100000
00000000
01000000
00000000
00000000
00000000
00110000
00000000
00000000
00000000
,
01000100
00000000
00000000
00000000
00011000
00000000
00000000
00000000
00000010
00000000
00000000
00010000
00000000
00000100
00000000
00000000
,
00010000
00000000
00001000
01000000
00000000
01000000
00010000
00000000
00100000
00000000
00010000
00100000
00000000
00001000
00000000
00010100
,
00000000
00000000
00000000
00000000
000M0M00
00000000
00000000
00000000
00000010
00000000
00000000
00010000
00001000
00000000
00010000
00000000
,
00000100
00000000
00010000
00001000
00000000
00000000
01000000
00000000
00100000
00000000
00000000
00000000
01010000
00000000
00010000
01000000
,
00010000
00000000
00100000
00000000
00001000
00000000
00010000
00000000
00000100
00000000
00000000
00000010
00000001
00000000
00001000
00000000
,
00001000
00000000
00000010
00000000
00000110
00000000
00000000
00000000
00000001
00000000
00000000
00000100
00000010
00000000
00010000
00000000
,
00001000
00010000
00011000
00000000
00101000
00000000
01100000
00000000
,
11000000
00000000
00000000
00000000
10100000
00000000
00000000
00000000
00100000
00000000
01000000
00000000
00010000
00100000
00001000
00000000
,
00100000
00000000
00001000
00000000
00010100
00000000
00001100
00000000
00010010
00000000
00000000
00000100
00000000
00000000
00000001
00000000
,
00001000
00000100
00010000
00002000
000M0M00
00000000
00000000
00000000
00000000
00000000
00000000
00000000
,
00003000
00000000
00000000
00000000
;

//---------------dance-double - ----------------
#NOTES:
     dance-double:
     :
     Challenge:
     12:
     0.735,0.786,0.552,0.305,0.871,446.000,58.000,32.000,28.000,43.000:



00000000
00000000
00000000
00000000
,
00000000
00000000
00000000
00000000
,
00000000
00000000
00000000
00000000
00000000
00000000
00000000
00011000
,
000MM000
01100000
0MM00000
00000110
00000MM0
00011000
000MM000
01000100
,
00022000
00000000
00000000
00000000
00000000
00000000
00000000
00000000
00000000
00000000
00000000
00000100
00000010
00000000
00033110
00000000
,
00001000
00000000
00010000
00000100
01000000
00001000
00010000
00000010
00010000
00001000
00000000
00100000
00000000
00000000
00000000
00000000
,
01000000
00000000
00010000
00001000
01000000
00001000
00000100
00010000
00001000
00000010
00000000
00100000
00000000
00000000
01000000
00000000
,
00100000
00000010
00000100
00100000
01000000
00000100
00000010
00011000
,
000MM000
00000000
00100000
00010000
01000000
00000100
00001000
00010000
00100000
00000200
00000000
00000010
00000000
00000000
00000000
00000300
,
00000100
00000000
00010000
00000010
00000100
00001000
01000000
00000100
00010000
00000100
00000000
01000000
00000000
00000000
00000000
00000000
,
00100000
00000000
01000000
00100000
00001000
00010000
00000100
00000010
00100000
00002000
00000000
00000100
00000000
00003000
00000100
00000000
,
00000010
00100000
01000000
00000010
00000200
0000M0M0
00000000
00000000
,
00010300
00000010
00000100
00000010
00000000
00100000
00000000
00000100
00000000
00010000
00000010
00000000
01100000
00000000
00000000
00000000
,
00000010
00000100
00001000
01000000
00000000
00000100
00000000
00100000
00000000
01000000
00100000
00000000
00000110
00000000
00000000
00000000
,
00022000
00000000
00000000
00000010
00100000
00000010
00100000
00000010
,
00100000
00000100
00033100
00000000
,
02M112M0
00000000
00000000
00000000
00000000
00000000
00000000
00000000
00000000
00000000
00000000
00010000
00001000
00000000
03011300
00000000
,
01000000
00001000
00100000
00010000
01000000
00100000
00010000
00001000
00010000
01000000
00100000
00001000
01000000
00010000
00100000
01000000
,
00001000
01000000
00100000
00001000
01000000
00100000
00010000
00001000
00010000
00100000
01010000
00000000
01001000
00000000
00000000
00000000
,
00010000
00000100
00010000
00000010
00001000
00000100
00010000
00000010
00000100
00001000
00010000
00001000
00000010
00000100
00010000
00001000
,
00010000
00000010
00001000
00000100
00000010
00001000
00010000
00001000
00000100
00000010
00010000
00000100
00011000
00000000
00010010
00000000
,
01000000
00001000
00010000
00000100
00010000
00001000
01000000
00001000
00000100
00001000
00010000
00000100
01000000
00010000
00000100
00010000
,
01000000
00000100
00001000
00010000
01000000
00010000
00001000
00000100
01000000
00001000
00011000
00000000
00010100
00000000
00000000
00000000
,
00000010
00010000
00001000
01000000
00001000
00010000
00000010
01000000
00001000
00000010
00001000
01000000
00001000
00010000
01000000
00010000
,
00001000
00000010
00001000
01000000
00001000
01000000
00000010
00010000
00001000
01000000
00001000
00010000
01001000
00000000
01000010
00000000
,
00011000
00000000
00000000
00000000
00000000
00000000
00000000
00000000
00000000
00100100
00000000
00000000
00000000
00000000
00000000
00000000
00000000
00000000
02000200
00000000
00000000
00000000
00000000
00000000
00010000
00000000
00000000
00000000
00001000
00000000
00000000
00000000
00010000
00000000
00000000
00000000
03001300
00000000
00000000
00000000
00000000
00000000
00000000
00000000
00000000
00000000
00000000
00000000
,
01000000
00000000
00100000
00000000
01000000
00000000
00001000
00000020
00002000
00000000
00000000
00000000
00010100
00000000
00003030
00000000
,
00000010
00000000
00000100
00000000
00010000
00000000
01000000
00200000
00000200
00000000
00000000
00000000
00011000
00000000
00300300
00000000
,
01000000
00001000
00010000
00000010
00000000
00100100
00000000
00001000
01000000
00000000
00000100
00000010
00000000
00000000
00000000
00000000
,
00010000
00001000
00010000
00001000
00010000
00000000
00002000
00000000
00000000
00000000
01000000
00000000
00000000
00000000
00000010
00000000
00000000
00000000
00103000
00000000
00000100
00000000
01000000
00000000
00100000
00000000
00000000
00000000
00000000
00000000
00000000
00000000
,
00000110
00000000
00000000
00000000
00001010
00000000
00000000
00000000
00010100
00000000
00000000
00000000
01000100
00000000
00000000
00000000
00000000
00000000
00011000
00000000
00000000
00000000
00000000
00000000
00001000
00000000
00000000
01000000
00000000
00000000
00100000
00000000
00000000
00010000
00000000
00000000
00000000
00000000
00000000
00000010
00000000
00000000
00000000
00000000
00000000
00100000
00000000
00000000
,
00000000
01000000
00100000
00000000
00000110
00000000
00000000
00000000
00000010
00000100
00100000
00001000
00000000
00100000
00000000
01000000
,
00000000
00000010
00000100
00000000
01100000
00000000
00000000
00000000
00022000
00000000
00000000
00000000
00000000
00000000
00000010
00000000
,
00100000
00000010
00100000
00000010
00100000
00000000
01000000
00000000
,
01033000
00000000
01100110
0MM00MM0
,
00000000
00000000
00000000
00000000
00000000
00000000
00000000
00000000
00022000
00000000
00000000
01000100
00000000
00000000
00103000
00000000
,
00031000
00000000
00000000
00000000
00010000
00000000
00000000
00000000
00000010
00000000
00000000
00000000
00010000
00000000
00000000
00000000
00000000
00000000
0MMMMMM0
00000000
00000000
00000000
00000000
00000000
00100000
00000000
00000000
00000100
00000000
00000000
01000000
00000000
00000000
00100000
00000000
00000000
00010000
00000000
00000000
00000100
00000000
00000000
00010000
00000000
00000000
01000000
00000000
00000000
,
00100000
00000100
01000000
00100000
01000000
00010000
00000100
00010000
01000000
00000100
00100000
00010000
01000000
00000100
00010000
01000000
,
00010000
00000100
00010100
00000000
01010000
00000000
00000000
00000000
01000000
00000010
00000100
00010000
00000100
00000010
01000000
00000100
,
00000010
00000100
00010000
01000000
00010000
00000100
01000000
00000010
00000100
00010000
01000000
00000010
00010000
00000100
00000010
00010000
,
01000000
00000100
00010000
00000010
01000010
00000000
01000100
00000000
00100000
00000100
00001000
00010000
00000100
00001000
00010000
00100000
,
00010000
00001000
00000100
00100000
00001000
00010000
00100000
00010000
00000100
00100000
00010000
00000100
00100000
00010000
00001000
00000100
,
00001000
00010000
00101000
00000000
00010100
00000000
00000000
00000000
01000000
00000010
00100000
00000100
01000000
00100000
01000000
00000010
,
00000100
00000010
00100000
01000000
00000010
00000100
00000010
01000000
00100000
00000010
00000100
00100000
01000000
00100000
00000100
00100000
,
01000000
00000100
00000010
01000000
01000010
00000000
00100100
00000000
00022000
00000000
00000000
00100000
00000000
00000000
00000010
00000000
,
00133010
00000000
00000000
00000000
00011000
00000000
00000010
00000000
00000220
00000000
00000000
00002000
00000000
00000000
00100000
00000000
,
01003330
00000000
00011000
00001000
02000100
00000000
00002000
00000000
,
00200000
00000000
00020000
00000000
00000010
03333000
0MMMM000
00000000
,
00100100
00000000
00001000
00000000
01000010
00000000
01000100
00000000
00022000
00000000
00000000
00100100
00000000
00000000
01000010
00033000
,
00001000
01000000
00000010
00020000
00000000
00000000
00000000
00000000
00000000
00000000
00000000
00000000
,
00030000
00000000
00000000
00000000
;

//---------------dance-single - ----------------
#NOTES:
     dance-single:
     :
     Beginner:
     1:
     0.197,0.235,0.267,0.000,0.014,117.000,28.000,0.000,0.000,0.000:




0000
0000
0000
0000
,
0000
0000
0000
0000
,
0000
0000
0000
0000
,
0000
0000
0000
0000
,
1001
0000
0000
0000
,
1000
1000
1000
0000
,
0100
0100
0100
0000
,
1001
1001
1001
0000
,
0010
0010
0010
0000
,
0001
0001
0001
0000
,
0100
0100
0100
0000
,
1001
1001
1001
0000
,
1000
0000
0010
0010
,
0010
0000
0100
0100
,
0100
0000
1001
0000
,
1001
1001
1001
0000
,
0010
0000
0000
0000
,
0001
0001
0001
0001
,
0001
0000
0110
0000
,
1000
0000
0001
0000
,
0100
0000
0010
0000
,
1000
1000
1000
1000
,
1000
0000
0110
0000
,
0001
0000
0010
0000
,
0100
0000
1001
0000
,
0001
0000
0000
0001
0000
0000
0001
0000
0000
0000
0000
0000
0000
0000
0000
0000
,
0100
0100
0100
0000
,
0010
0010
0010
0000
,
1001
0000
0110
0000
,
1000
0000
1000
1000
,
1000
0000
0100
0000
,
0010
0000
0001
0000
,
0010
0000
1000
0000
,
0110
0000
0110
0110
,
0110
0000
1001
0000
,
0000
0000
0000
0000
0000
0000
0000
0000
0100
0000
0000
0100
0000
0000
0100
0000
,
0000
0000
0010
0010
,
0010
0010
0010
0000
,
1001
0000
0100
0000
,
0010
0000
0001
0000
,
1000
0000
0001
0001
,
0001
0001
0001
0000
,
0110
0000
0010
0000
,
1000
0000
0010
0000
,
0001
0000
0010
0010
,
0010
0000
1000
1000
,
1000
0000
1001
0000
,
1001
1001
1001
0000
,
0100
0000
0000
0000
0000
0000
0000
0000
0010
0000
0000
0010
0000
0000
0010
0000
,
0000
1001
0000
0000
;
