#TITLE:Ievan Polkka;
#SUBTITLE:;
#ARTIST:鏡音リン＆レン;
#TITLETRANSLIT:;
#SUBTITLETRANSLIT:;
#ARTISTTRANSLIT:Kagamine Rin & Len;
#CREDIT:owenviau1;
#BANNER:BN.PNG;
#BACKGROUND:BG.PNG;
#LYRICSPATH:;
#CDTITLE:ov1_title.png;
#MUSIC:Ievan Polkka (Kagamine Rin and Len).mp3;
#OFFSET:-0.780;
#SAMPLESTART:16.990;
#SAMPLELENGTH:29.999;
#SELECTABLE:YES;
#BPMS:0.000=119.180;
#STOPS:;
#BGCHANGES:;
// cache tags:
#FIRSTBEAT:1.000;
#LASTBEAT:289.000;
#SONGFILENAME:Songs/Owenviau1 Simfiles 4/Ievan Polkka - Kagamine Rin & Len [owenviau1]/Ievan Polkka (Kagamine Rin and Len).sm;
#HASMUSIC:1;
#HASBANNER:1;
#MUSICLENGTH:148.096;
// end cache tags

//---------------dance-single - ----------------
#NOTES:
     dance-single:
     :
     Challenge:
     9:
     0.754,0.707,0.095,0.277,0.716,727.000,14.000,41.000,16.000,0.000:

0000
0000
1000
0010
1000
0001
0100
0010
,
0100
0001
0100
0010
0100
0001
0010
0100
,
0010
0001
0010
0100
0010
0001
1000
0100
,
1000
0010
1000
0001
1000
0100
0010
0001
,
1000
0010
1001
1000
0001
0100
0001
0010
,
0001
0100
1010
1000
0010
0100
0010
1000
,
0010
0000
0100
0010
0100
0000
0001
0000
0100
0000
0010
0000
0100
0000
0001
0000
,
0100
0010
0101
1000
0100
0010
0110
0000
,
MMMM
0000
0000
1000
0010
0000
1000
0000
0010
0000
0000
0100
0001
0010
0001
0010
,
0001
0000
1000
0010
0100
0000
0001
0000
0100
0000
0001
0000
1000
0000
0010
0000
,
1000
0000
0001
0010
0100
0000
0010
0000
0001
0000
0000
1000
0001
0000
1000
0001
,
0000
0100
0001
0100
0010
1000
0010
1000
0010
1000
0010
0000
0100
0000
0001
0000
,
1000
0000
0001
0100
0001
0000
0100
0000
0010
0000
1000
0000
0010
0000
0100
0001
,
0000
0010
0001
0010
0100
1000
0100
1000
0100
1000
0100
1000
0100
0000
0010
0100
,
0000
0000
0000
1000
0010
0000
0100
0000
0010
0000
1000
0000
0001
0000
0100
0000
,
0010
0000
1000
0010
1000
0001
1000
0001
1000
0000
0001
0000
0110
0000
0100
0010
,
0000
MMMM
0000
1000
0010
0000
1000
0000
0010
0000
0000
0100
0001
0010
0001
0010
,
0001
0000
1000
0010
0100
0000
0001
0000
0100
0000
0001
0000
1000
0000
0010
0000
,
1000
0000
0001
0010
0100
0000
0010
0000
0001
0000
0000
1000
0001
0000
1000
0001
,
0000
0100
0001
0100
0010
1000
0010
1000
0010
1000
0010
0000
0100
0000
0001
0000
,
1000
0000
0001
0100
0001
0000
0100
0000
0010
0000
1000
0000
0010
0000
0100
0001
,
0000
0010
0001
0010
0100
1000
0100
1000
0100
1000
0100
1000
0100
0000
0010
0100
,
0000
0000
0000
1000
0010
0000
0100
0000
0010
0000
1000
0000
0001
0000
0100
0000
,
0010
0000
1000
0010
1000
0001
1000
0001
1000
0000
0001
0000
0110
0000
0100
0010
,
0000
0000
0000
0001
0100
0000
0001
0000
0200
0000
0000
0310
0100
0010
1000
0000
,
0020
0000
0130
0010
1000
0000
0100
0000
0010
0000
0100
0000
1000
0010
0100
0000
,
0020
0000
0000
1030
0100
0000
1000
0000
0200
0000
0000
0310
0100
0000
0010
0200
,
0000
1300
0010
1000
0010
0100
0010
0100
0010
0000
0100
0000
0001
0000
1000
0010
,
2000
0000
3001
0010
0100
0000
0010
0000
0001
0000
0100
0000
0020
0000
0130
0010
,
2000
0000
3001
0010
0001
1000
0001
1000
0010
0100
0001
1000
0002
0000
1003
0001
,
0020
0000
0030
0100
1000
0000
0001
0000
0100
0000
0001
0000
1000
0000
0001
0010
,
0200
0000
1300
0010
0100
0001
0100
0001
0100
0001
0100
0001
0020
0000
0031
1000
,
0010
0000
0000
0100
0010
0000
0100
0000
0020
0000
0000
1030
0001
0100
0020
0000
,
1030
0000
0001
0100
0010
0000
1000
0000
0001
0000
0100
0000
0010
0100
0001
0000
,
0020
0000
0030
0001
1000
0000
0001
0000
2000
0000
0000
3001
0100
0000
0001
0200
,
0000
0310
0100
0010
0100
0001
0100
0001
0100
0001
0100
0001
0200
0000
0310
1000
,
0020
0000
1030
0010
0100
0000
0010
0000
1000
0000
0100
0000
0020
0000
0130
1000
,
0002
0000
1003
0010
0100
0010
0100
0010
0100
0010
0100
0010
2000
0000
3001
0100
,
0002
0000
0003
1000
0010
0000
1000
0000
0010
0000
1000
0000
0100
0000
1000
0100
,
0020
0000
0031
0100
0001
1000
0001
1000
0001
0000
1000
0000
1001
0000
0000
0000
,
MMMM
0000
0000
0100
0001
0000
0001
0000
0001
0000
0000
0001
1000
0100
0010
0001
,
0100
0000
0010
1000
0010
0000
0100
0000
0001
0000
0010
0000
0100
0000
0010
0000
,
0100
0000
1000
0010
0100
0000
0001
0000
0100
0000
0000
0001
0010
0000
0001
1000
,
0000
0001
1000
0001
0100
0010
0100
0001
0010
0100
0010
0000
0100
0000
1000
0000
,
0001
0000
0100
0001
0010
0000
0100
0000
1000
0000
0010
0000
0100
0000
0001
0010
,
0000
0001
1000
0010
0100
0000
0010
0000
0100
0000
0001
0000
1000
0000
0001
1000
,
0000
0100
0010
0001
1000
0000
0100
0000
0010
0000
0100
0000
1000
0000
0100
0000
,
0010
0001
0101
0100
0110
0010
1010
1010
,
1000
0010
1000
0010
1000
0000
0100
0000
0010
0000
0000
0001
0100
0010
1000
0001
,
0100
0000
0010
1000
0010
0000
0100
0000
0001
0000
0100
0000
0010
0000
1000
0000
,
0010
0000
0100
0001
0010
0000
0100
0000
1000
0000
0000
0010
1000
0000
0100
0010
,
0000
0001
0100
0010
1000
0100
0010
0001
1000
0010
0100
0000
0010
0000
0100
0000
,
0001
0000
0100
0010
1000
0000
0001
0000
0100
0000
0010
0000
1000
0000
0010
0100
,
0000
0010
1000
0001
0100
0010
1000
0001
0100
0010
1000
0001
0100
0000
0010
1000
,
0000
0000
0000
0100
0010
0000
0001
0000
0001
0000
0100
0000
0010
0000
1000
0000
,
0001
0000
1000
0001
0100
0010
1000
0001
0100
0000
0010
0000
1010
0000
0010
1000
,
0000
MMMM
0000
0100
0010
0000
1000
0000
0002
0000
0000
0103
0010
0100
0001
0000
,
0200
0000
0310
1000
0010
0000
0100
0000
1000
0000
0001
0000
0010
0000
0100
0000
,
2000
0000
3000
0100
0010
0000
0001
0000
0200
0000
0000
0310
1000
0000
0100
0020
,
0000
0031
0100
0001
0010
0001
0100
0010
1000
0000
0010
0000
0100
0000
0001
0100
,
0020
0000
1030
0010
0100
0000
0010
0000
1000
0000
0001
0000
0100
0000
0010
0100
,
0002
0000
1003
0010
0100
0001
0100
0010
0100
0001
0010
0001
2000
0000
3001
0010
,
0100
0000
0000
1000
0010
0000
0100
0000
0010
0000
1000
0000
0001
0000
0100
0000
,
0010
0000
1000
0010
1000
0001
1000
0001
1000
0000
0001
0000
0110
0000
0100
0010
,
0000
0000
0000
0001
1000
0000
1000
0000
0002
0000
0000
0103
0010
0100
0001
0000
,
0200
0000
0310
1000
0010
0000
0100
0000
1000
0000
0001
0000
0010
0000
0100
0000
,
2000
0000
3000
0100
0010
0000
0001
0000
0200
0000
0000
0310
1000
0000
0100
0020
,
0000
0031
0100
0001
0010
0001
0100
0010
1000
0000
0010
0000
0100
0000
0001
0100
,
0020
0000
1030
0010
0100
0000
0010
0000
1000
0000
0001
0000
0100
0000
0010
0100
,
0002
0000
1003
0010
0100
0001
0100
0010
0100
0001
0010
0001
2000
0000
3001
0010
,
0100
0000
0000
1000
0010
0000
0100
0000
0010
0000
1000
0000
0001
0000
0100
0000
,
0010
0000
1000
0010
1000
0001
1000
0001
1000
0000
0001
0000
0110
0000
1000
0001
,
2000
3000
0000
0000
;

//---------------dance-single - ----------------
#NOTES:
     dance-single:
     :
     Hard:
     7:
     0.378,0.365,0.007,0.000,0.000,391.000,1.000,0.000,0.000,0.000:

0000
1000
0100
0010
,
0001
0100
0001
0000
0010
0000
0100
0000
,
1000
0010
1000
0000
0100
0000
0010
0000
,
0001
0100
0001
0000
0010
0000
0100
0000
,
1000
0100
1000
0000
0010
0000
0100
0000
,
0001
0010
0001
0000
0100
0000
0010
0000
,
1000
0100
1000
0000
0010
0000
0100
0000
,
0001
0010
0001
0000
0100
0000
0010
0000
,
0000
0000
1000
0000
0100
0000
1000
0001
,
0100
0000
0010
1000
0001
0010
0100
1000
,
0001
0000
0100
0010
1000
0000
0001
0000
,
0010
0100
1000
0100
0010
0001
0100
0000
,
0010
0000
1000
0001
0010
0000
0100
0000
,
1000
0000
0001
0010
0100
0010
0001
0000
,
0100
0000
0010
1000
0001
0000
0010
0000
,
0100
0000
1000
0001
0100
0001
0010
0000
,
0100
0000
1000
0000
0010
0000
1000
0001
,
1000
0000
0010
0000
0100
0000
0001
0010
,
0001
0000
1000
0100
0010
0000
0001
0000
,
0100
0000
0010
1000
0010
0000
0100
0000
,
0001
0000
0010
0100
1000
0000
0001
0000
,
0100
0000
0010
1000
0010
1000
0010
0000
,
0100
0001
1000
0001
,
0010
0100
1000
0100
0010
0001
0100
0000
,
0000
0000
0010
0000
1000
0000
0001
0100
,
0001
0000
0010
0100
0010
0000
0001
0100
,
0001
1000
0010
1000
,
0001
0000
0010
0100
1000
0100
0010
0000
,
0001
0100
0010
1000
,
0001
0000
1000
0001
1000
0001
0010
0000
,
0100
0000
1000
0001
0010
0000
0100
0000
,
1000
0000
0010
1000
0010
0100
0001
0000
,
0010
0000
0100
1000
0001
0000
0100
0010
,
1000
0000
0001
1000
0001
0010
0100
1000
,
0001
0000
0100
0010
1000
0000
0001
0000
,
0010
0100
1000
0100
0010
0001
0100
0000
,
0010
0000
1000
0001
0100
0000
0010
0000
,
1000
0000
0001
0010
0100
1000
0001
0000
,
0100
0000
0010
1000
0001
0000
0100
0000
,
0001
0000
1000
0001
0100
0001
0010
0000
,
0000
0000
0100
0000
1000
0000
0010
1000
,
0010
0100
0001
0010
,
0001
0000
1000
0001
1000
0000
0010
0000
,
1000
0000
0100
0010
0001
0100
0010
0000
,
1000
0000
0001
0100
0001
0000
0010
0000
,
0100
0000
1000
0010
1000
0000
0001
0000
,
0100
0000
0010
0100
0010
0000
1000
0000
,
0001
0000
0010
0001
1000
0001
0100
0100
,
0010
0100
0010
1000
0001
0000
1000
0001
,
1000
0000
0010
1000
0001
0010
0100
1000
,
0001
0000
0100
0010
1000
0000
0001
0000
,
0100
0001
0010
0100
1000
0001
0100
0000
,
0010
0000
1000
0100
1000
0000
0001
0000
,
0100
0000
0001
0010
0100
1000
0001
0000
,
0100
0000
0010
1000
0010
0000
0100
0000
,
0001
0000
1000
0001
1000
0001
1000
0000
,
0010
0000
0100
0000
0001
0000
1000
0100
,
1000
0000
0001
0000
0100
0000
0010
0100
,
1000
0000
0001
0100
0010
0000
1000
0000
,
0001
0100
0001
1000
0010
0100
0001
0000
,
0010
0000
0100
1000
0001
0000
0100
0000
,
0010
1000
0010
0100
0010
0100
0001
0000
,
0010
0000
0100
1000
0001
0000
0100
0000
,
0001
0000
0010
0100
1000
0100
0010
0000
,
0001
0000
0100
0000
0010
0000
1000
0001
,
1000
0000
0010
0100
0010
0000
1000
0001
,
0010
0100
1000
0001
,
0010
0100
1000
0100
0010
0001
0100
0000
,
0010
0000
1000
0001
1000
0000
0010
0000
,
0100
0000
0001
0010
0100
0010
0001
0000
,
1000
0010
1000
0100
,
0010
0000
0001
0010
0100
1000
0100
0000
,
1001
0000
0000
0000
;
