#TITLE:Flashman;
#SUBTITLE:from Megaman 2;
#ARTIST:Aspergian;
#TITLETRANSLIT:;
#SUBTITLETRANSLIT:;
#ARTISTTRANSLIT:;
#CREDIT:;
#BANNER:furashuman-bn.png;
#BACKGROUND:furashuman-bg.png;
#LYRICSPATH:;
#CDTITLE:cdtitle.png;
#MUSIC:1138.mp3;
#OFFSET:0.320;
#SAMPLESTART:47.440;
#SAMPLELENGTH:14.960;
#SELECTABLE:YES;
#BPMS:0.000=129.500,1.000=127.100,3.500=126.500,5.500=116.140,6.500=119.000,12.000=130.000,12.333=155.000,12.667=135.000,13.000=116.500,16.000=122.680,24.500=130.000,24.750=113.340,25.000=111.660,25.250=104.980,25.500=109.240,26.000=120.000,27.500=129.400,29.000=117.500,30.500=118.260,32.500=145.000,33.000=123.360,33.250=85.800,33.500=120.200,38.500=128.300,40.000=115.400,41.000=122.500,45.500=118.800,49.000=122.160,51.500=123.500,52.000=102.500,52.500=135.000,53.000=127.500,57.500=120.000,63.500=125.000,65.000=127.500,68.000=123.160,69.500=109.901,71.000=122.000,74.000=128.000,82.000=126.500,90.500=138.380,91.500=130.500,96.500=105.500,97.000=120.000,98.000=130.000,104.667=130.000,105.000=127.500,106.000=127.620,107.000=125.000,107.500=120.000,109.000=123.440,110.500=130.100,112.000=150.000,113.500=160.000,115.000=125.000,116.500=120.000,119.500=125.000,120.500=130.000,121.333=130.500,121.500=134.999,121.500=124.520,122.000=125.000,124.000=130.000,125.000=100.000,125.500=120.000,126.500=115.000,129.000=127.600,129.500=120.000,130.000=103.580,130.667=85.000,131.000=125.000,135.500=135.000,137.000=125.000,138.000=130.000,141.000=140.000,147.250=80.000,147.500=130.000,151.000=115.500,152.000=147.500,153.000=150.000,154.000=140.000,154.500=135.000,156.000=140.000,156.500=145.000,157.000=150.000,159.000=155.000,163.000=165.000,166.167=150.000,166.250=140.000,167.000=165.000,168.500=145.000,171.500=160.000,172.167=170.000,172.500=155.000,175.000=137.500,176.000=145.000,180.750=175.000,181.500=145.100,184.000=148.500,188.500=123.780,191.000=150.120,194.000=156.000,197.500=58.320,198.000=145.200,202.000=148.300,204.000=112.200,206.500=120.080,208.000=150.100,210.500=156.560,212.500=143.700,213.000=128.040,213.667=84.720,214.667=72.840,215.000=100.000,215.500=120.000,218.625=116.500,219.500=95.000,222.000=80.000;
#STOPS:;
#BGCHANGES:;
// cache tags:
#FIRSTBEAT:1.000;
#LASTBEAT:225.250;
#SONGFILENAME:Songs/Keys of Flames/Flashman (Bursurk Lurk)/aspergian!!!.sm;
#HASMUSIC:1;
#HASBANNER:1;
#MUSICLENGTH:106.161;
// end cache tags

//---------------dance-single - ----------------
#NOTES:
     dance-single:
     :
     Hard:
     11:
     0.821,0.849,1.000,0.019,0.334,476.000,132.000,2.000,0.000,0.000:
0000
0000
1001
0000
0010
0100
0010
0001
,
1000
0000
0000
0100
0000
0000
0010
0001
0000
1000
0000
0000
0000
0000
0000
0010
0000
0000
0000
0000
0000
0010
0000
0000
,
1000
0001
1100
0001
0100
0001
0100
1000
,
0010
0000
0100
0000
0010
0000
0001
0000
0000
0010
0000
0000
0010
0000
0000
0000
0000
0000
0010
0000
0000
0000
0000
0000
,
0010
0100
1001
0010
0100
0011
0100
0010
,
1000
0110
0101
1010
0000
0110
0000
0110
,
1000
0000
0000
0000
0010
0000
1000
0001
1000
0000
0100
0000
0010
0000
0000
0000
1000
0000
0000
0000
0010
0000
0000
0000
1000
0000
0000
0000
0010
0000
0100
0000
,
1000
0001
0110
0100
0000
0100
0000
0100
,
0100
0000
0000
1000
0000
0000
1000
0001
0000
0100
0000
0000
0101
0000
0000
1010
0000
0000
0101
0000
0000
0010
0000
0000
,
1100
0001
1010
0011
0100
1001
0000
1001
,
0010
0000
0001
0100
1000
0000
0100
0000
1100
0000
0010
0000
1100
0000
0101
0000
,
0110
1000
0001
0100
1000
0100
0010
0100
,
0001
0100
0100
1000
0101
1000
0110
1000
,
0010
0100
0001
0000
1100
0000
0010
0000
1001
0000
0101
0000
0010
0000
0101
0000
,
1000
0000
0100
0001
1000
0000
0010
0000
1100
0000
0001
0000
1100
0000
0001
0010
,
0100
0000
0000
0000
0000
0000
0000
0000
1000
0000
0000
0000
0000
0000
0000
0000
0101
0000
0000
0000
0000
0000
0000
0000
0010
0000
0000
0000
0000
0000
0000
0000
0100
0000
0000
0000
0000
0000
0000
0000
1000
0000
0000
0000
0000
0000
0000
0000
0100
0000
0000
0000
0000
0000
0000
0010
1000
0000
0000
0000
0000
0000
0000
0000
,
0100
0000
0000
0000
0000
0000
0000
0000
0010
0000
0000
0000
0000
0000
0000
0001
1000
0000
0000
0000
0000
0000
0000
0000
0010
0000
0000
0000
0000
0000
0000
0000
0100
0000
0000
0000
0000
0000
0000
0000
0001
0000
0000
0000
0000
0000
0000
0000
0100
0000
0000
0000
0000
0000
0000
0000
0010
0000
0000
0000
0000
0000
0000
0000
,
1000
0000
0011
0100
0010
0000
1100
0010
,
0100
0000
1010
0010
0100
0001
0100
0010
,
1000
0100
0001
0010
0001
0010
0001
0100
,
1000
0000
0000
0000
0000
0000
0000
0000
0010
0000
0000
0000
0000
0000
0000
0000
0100
0001
0000
0000
0000
0000
0000
0000
0000
0000
0000
0000
0000
0000
0000
0000
0100
0000
0000
0000
0000
0000
0000
0000
0100
0000
0000
0000
0000
0000
0000
0000
0000
0000
0000
0000
0000
0000
0000
0000
0100
0000
0000
0000
0000
0000
0000
0000
,
0000
0100
0110
0000
0010
0010
0011
0000
,
0001
0001
0101
0010
0100
1000
0000
1000
,
0000
0000
0100
0000
0010
0000
0000
0000
0010
0000
0000
0000
0001
0010
0100
0000
,
0100
0000
0000
0000
0000
0000
0000
0000
0001
0000
0000
0000
0000
0000
0000
0000
0000
0000
0000
0000
0000
0000
0000
0000
0000
0000
0000
0000
0000
0000
0000
0000
0000
0000
0000
0000
0000
0000
0000
0000
0000
0000
0000
0000
0000
0000
0000
0000
0010
0000
0000
0000
0000
0000
1000
0000
0000
0000
0000
0000
0000
0000
0000
0000
0000
0000
0000
0000
0000
0000
0000
0000
0000
0000
0000
0000
0000
0000
0000
0000
0000
0000
0000
0000
0000
0000
0000
0000
0000
0000
0000
0000
0000
0000
0000
0000
0001
0000
0000
0000
0000
0000
0000
0000
0000
0000
0000
0000
0000
0000
0000
0000
0000
0000
0000
0000
0000
0000
0000
0000
1100
0000
0000
0000
0000
0000
0000
0000
0000
0000
0000
0000
0000
0000
0000
0000
0000
0000
0000
0000
0000
0000
0000
0000
0101
0000
0000
0000
0000
0000
0000
0000
0000
0000
0000
0000
0000
0000
0000
0000
0000
0000
0000
0000
0000
0000
0000
0000
0100
0000
0000
0000
0000
0000
0000
0000
0000
0000
0000
0000
0000
0000
0000
0000
0000
0000
0000
0000
0000
0000
0000
0000
,
0011
0000
0000
0000
1100
0000
0000
0000
0010
0100
0000
0000
0011
0000
0000
0000
0100
0000
0000
0000
1010
0000
0000
0000
0100
0000
0000
0000
1010
0000
0000
0000
,
0001
0000
0000
0100
0010
0100
1001
0000
0000
1000
0000
0000
0011
0000
0000
0000
0000
0000
0011
0000
0000
0100
0000
0010
,
1000
0000
0010
0000
0101
0000
0000
0000
0000
0010
0000
0000
1000
0000
0000
0000
0000
0000
0010
0000
0000
0000
0000
0000
0100
0000
0000
0000
0000
0000
0001
0000
0000
0000
0000
0000
0100
0000
0000
0000
0000
0000
1001
0000
0000
0000
0000
0000
,
0100
0000
0000
0000
0000
0000
0010
0000
0000
0000
0000
0000
0001
0000
0000
1000
0000
0000
0010
0000
0000
0000
0001
0000
0000
0000
0000
0000
0000
0000
0100
0000
0000
0000
0000
0000
1010
0000
0000
0000
0101
0000
0000
0000
1010
0000
0000
0000
,
0001
1100
0110
1010
0101
0100
1001
0100
,
1001
0000
0000
0010
0000
0100
0010
0100
0000
1010
0000
0000
0100
0000
0000
1010
0000
0000
0001
0000
0000
1010
0000
0000
,
0100
0010
0001
0000
0010
0000
1001
0000
0100
0000
1000
0000
0100
0000
0010
0000
,
0001
0000
0000
0000
0000
0000
0000
0000
0000
0000
0000
0000
0000
0000
0000
0000
0000
0000
0000
0000
0000
0000
0000
0000
0100
0000
0000
0000
0000
0000
0000
0000
0000
0000
0000
0000
0000
0000
0000
0000
0000
0000
0000
0000
0000
0000
0000
0000
1000
0000
0000
0000
0000
0000
0000
0000
0000
0000
0000
0000
0000
0000
0000
0000
0000
0000
0000
0000
0000
0001
0000
0000
0010
0000
0000
0000
0000
0000
0000
0000
0000
0000
0000
0000
0000
0000
0000
0000
0000
0000
0000
0000
0000
0000
0000
0000
0100
0000
0000
0000
0000
0000
0000
0000
0000
0000
0000
0000
0000
0000
0000
0000
0010
0000
0000
0000
0000
0000
0000
0000
0000
0000
0000
0000
0000
0000
0000
0000
0001
0000
0000
0000
0000
0000
0000
0000
0000
0000
0000
0000
0000
0000
0000
0000
1100
0000
0000
0000
0000
0000
0000
0000
0000
0000
0000
0000
0000
0000
0000
0000
0000
0000
0000
0000
0000
0000
0000
0000
0010
0000
0000
0000
0000
0000
0000
0000
0000
0000
0000
0000
0000
0000
0000
0000
0000
0000
0000
0000
0000
0000
0000
0000
,
1000
1000
0110
0001
1000
0010
0101
1000
,
0100
0010
0101
0010
1001
0100
1010
0001
,
0110
1000
0101
0010
1100
0001
0101
1000
,
0010
0000
0000
0000
0100
0000
0000
0000
1001
0000
0000
0000
0100
0000
0000
0000
0011
0000
0000
0000
1000
0000
0000
0000
1000
0010
0101
0000
0010
0000
0000
0000
,
0001
0001
1010
0100
0010
1000
1001
0100
,
0100
0000
0000
0000
0000
0000
0001
0000
0000
0000
0000
0000
1100
0000
0000
0000
0000
0000
0010
0000
0000
0000
0000
0000
0101
0000
0000
0000
0000
0000
1000
0000
0000
0010
0000
0000
0001
0000
0100
0000
0000
0000
1000
0000
0000
0000
0000
0000
,
0110
0000
0000
0000
0000
0000
0000
0000
0010
0000
0000
0000
0000
0000
0000
0000
0101
0000
0000
0000
0000
0000
0000
0000
1000
0000
0000
0000
0000
0000
0000
0000
0011
0000
0000
0000
0000
0000
0000
0000
1100
0000
0000
0000
0000
0000
0000
0000
0011
0000
0000
0000
0000
0000
0000
0000
0001
0000
0000
0000
0000
0000
0000
1000
,
0010
0101
1010
0100
0011
1100
0110
1000
,
0100
0000
0001
0000
0001
0000
0010
0000
0000
0100
0000
1000
0000
1000
0000
0010
0000
0000
0100
0000
0000
0010
0000
0000
,
0001
0000
0000
1000
0000
0000
0100
0000
0000
0010
0000
0000
0001
0000
0000
0100
0000
0000
0010
0000
0000
0001
0010
0001
,
0000
0000
0000
0000
0000
0000
0000
0000
0100
0000
0000
0000
0000
0000
0000
0000
0000
0000
0000
0000
0000
0000
0000
0000
1000
0000
0000
0000
0000
0000
0000
0000
0000
0000
0000
0000
0000
0000
0000
0000
0000
0000
0000
0000
0000
0000
0000
0000
0100
0000
0000
0000
0000
0000
0000
0000
0000
0000
0000
0000
0000
0000
0000
0000
0000
0000
0000
0000
0000
0000
0000
0000
0010
0000
0000
0000
0000
0000
0000
0000
0000
0000
0000
0000
0000
0000
0000
0000
0000
0000
0000
0000
0000
0000
0000
0000
0010
0000
0000
0000
0000
0000
0000
0000
0000
0000
0000
0000
0000
0000
0000
0000
0000
0000
0000
0000
0000
0000
0000
0000
1001
0000
0000
0000
0000
0000
0000
0000
0000
0000
0000
0000
0000
0000
0000
0000
0000
0000
0000
0000
0000
0000
0000
0000
0100
0000
0000
0000
0000
0000
0000
0000
0000
0000
0000
0000
0000
0000
0000
0000
0000
0000
0000
0000
0000
0000
0000
0000
0010
0000
0000
0001
0000
0000
0000
0000
0000
0000
0000
0000
0000
0000
0000
0000
0000
0000
0000
0000
0000
0000
0000
0000
,
0100
0000
1010
0000
0100
0000
0011
0000
0100
0011
0011
0100
0000
1010
1010
0000
,
0001
0110
0110
1001
0000
0000
0100
0000
0011
0000
0100
0000
1010
0000
0100
0000
,
1001
0000
0000
0000
0000
0000
0010
0000
0000
0101
0000
0000
1100
0000
0000
0000
0000
0000
0000
0000
0100
0000
0000
0000
1010
0000
0000
0011
0000
0000
0100
0000
0000
0000
0000
0000
0010
0000
0000
0000
0000
0000
1100
0000
0000
0000
0000
0000
,
0001
0110
1001
0011
0100
1010
0001
1010
,
0100
0011
1100
0011
1000
0110
0001
1100
,
0010
1010
0100
1001
0110
1000
0100
0100
,
0011
0000
0000
0010
0000
0000
1010
0000
0000
0000
0100
0000
1000
0010
0000
0101
0000
0000
0010
0000
0000
1010
0000
0000
,
0001
0000
0000
0000
0100
0000
0000
0000
0010
0000
0000
0000
1000
0000
0000
0000
0001
0010
0100
1000
0011
0000
0000
0000
0100
0000
0000
0000
1001
0000
0000
0000
,
0010
0000
0000
0000
0000
0000
1100
0000
0000
0000
0000
0000
0001
0000
0000
0000
0000
0000
0110
0000
0000
0000
0100
1000
0000
0000
0000
0000
0000
0000
1100
0000
0000
0000
0000
0000
0100
0000
0000
0000
0000
0000
0010
0000
0000
0000
0000
0000
,
0010
0000
0000
0101
0000
0000
1000
0000
0000
0100
0010
0000
0001
0000
0000
0010
1000
0000
0100
0000
0000
0010
0000
0000
,
0001
0000
0000
0000
0000
0000
0000
0000
0000
0000
0000
0000
0000
0000
0000
0000
0000
0000
0000
0000
0000
0000
0000
0000
0110
0000
0000
0000
0000
0000
0000
0000
0000
0000
0000
0000
0000
0000
0000
0000
0000
0000
0000
0000
0000
0000
0000
0000
1000
0000
0000
0000
0000
0000
0000
0000
0000
0000
0000
0000
0000
0000
0000
0000
0000
0000
0000
0000
0000
0000
0000
0000
0001
0000
0000
0000
0000
0000
0000
0000
0000
0000
0000
0000
0000
0000
0000
0000
0000
0000
0000
0000
0000
0000
0000
0000
0100
0000
0000
0000
0000
0000
0000
0000
0000
0000
0000
0000
0000
0000
0000
0000
0000
0000
0000
0000
1000
0000
0000
0000
0100
0000
0000
0010
0000
0000
0001
0000
0000
0000
0000
0000
0000
0000
0000
0000
0000
0000
0000
0000
0000
0000
0000
0000
1000
0000
0000
0000
0000
0000
0000
0000
0000
0000
0000
0000
0000
0000
0000
0000
0000
0000
0000
0000
0000
0000
0000
0000
0100
0000
0000
0000
0000
0000
0000
0000
0000
0000
0000
0000
0000
0000
0000
0000
0000
0000
0000
0000
0000
0000
0000
0000
,
0010
0000
0000
0001
0000
0000
0100
1000
0000
0000
0000
0000
0000
0000
0000
0000
0000
0000
0100
0000
0000
0000
0000
0000
0010
0000
0000
0000
0000
0000
0000
0000
0100
0000
0000
0000
2002
0000
0000
0000
0000
0000
0000
0000
0000
0000
0000
0000
,
0000
0000
0000
0000
0000
3003
0000
0000
0000
0000
0000
0000
0000
0000
0000
0000
;
