#TITLE:Vertex PSI;
#SUBTITLE:;
#ARTIST:Silvia;
#TITLETRANSLIT:;
#SUBTITLETRANSLIT:;
#ARTISTTRANSLIT:;
#CREDIT:;
#BANNER:banner.Png;
#BACKGROUND:bg.png;
#LYRICSPATH:;
#CDTITLE:!NEETTitle.png;
#MUSIC:VertexPsi.mp3;
#OFFSET:-0.088;
#SAMPLESTART:39.328;
#SAMPLELENGTH:12.000;
#SELECTABLE:YES;
#BPMS:0.000=500.000;
#STOPS:;
#BGCHANGES:;
// cache tags:
#FIRSTBEAT:4.000;
#LASTBEAT:599.000;
#SONGFILENAME:Songs/dragon force/NEET - Vertex PSI/vertexPsi.sm;
#HASMUSIC:1;
#HASBANNER:1;
#MUSICLENGTH:73.801;
// end cache tags

//---------------dance-single - Copied from----------------
#NOTES:
     dance-single:
     Copied from:
     Hard:
     14:
     1.000,1.000,0.420,1.000,0.149,1033.000,31.000,141.000,6.000,2.000:
0000
0000
0000
0000
,
1001
0100
0010
1001
0000
0101
1000
0010
,
1000
0010
0001
0100
0001
0100
1000
0010
,
1001
0100
0010
1100
0000
0001
0100
0010
,
1000
0010
0100
0001
0100
1000
0010
0100
,
1001
0100
0010
1001
0000
0010
1000
0010
,
0001
1000
0010
0100
0001
1000
0010
0100
,
1001
0010
0100
1010
0000
0001
1000
0010
,
0100
0001
1000
0010
0100
0001
1100
0010
,
0100
0010
0101
1000
0000
0100
0001
1000
,
0010
0100
0001
1000
0010
0100
0001
0100
,
0011
1000
0010
1100
0000
0001
0010
0001
,
0100
0001
0010
1000
0100
0010
0100
0001
,
1000
0010
0100
1010
0000
1000
0010
0100
,
0001
0100
0010
0001
1000
0100
0010
0001
,
1000
0001
0100
0010
1000
0001
0100
0010
,
1000
0001
0100
0010
0100
0000
0000
0000
,
1000
0100
0010
0001
0100
0010
1000
0100
,
0010
0001
0100
0010
1000
0100
1000
0010
,
0001
0010
0100
1000
0010
0100
0001
0010
,
0100
1000
0001
0010
0001
0010
1000
0100
,
0010
0100
1000
0001
0100
0010
1000
0010
,
0001
0010
0100
0010
0001
1000
0100
1000
,
0010
0100
0000
0100
0000
0010
0000
0001
,
0010
1000
0100
0001
0010
1000
0100
0010
,
0001
0010
0100
1000
0010
0100
0001
0010
,
0100
1000
0100
0010
0001
1000
0100
1000
,
0010
0100
0010
1000
0010
0100
0001
0010
,
1000
0100
1000
0010
1000
0001
0100
0001
,
0010
1000
0010
0001
0100
1000
0010
0100
,
0001
0100
0010
0001
0100
1000
0010
0100
,
0001
0100
0000
1000
0000
0010
0001
0010
,
1000
0100
0001
0010
1000
0100
0010
0001
,
1000
0010
0100
0001
1000
0100
0010
0001
,
0100
0010
1000
0001
0010
0100
1000
0100
,
0010
0001
1000
0010
0100
0001
0010
0100
,
1000
0100
0010
0001
0010
0100
1000
0001
,
0010
0001
0100
0001
1000
0010
0100
0001
,
0100
0001
1000
0100
1000
0010
1000
0001
,
0100
0010
1000
0010
1000
0100
0010
0100
,
1000
0010
0100
0001
0010
0100
1000
0100
,
0010
0001
0100
0010
1000
0100
0010
0001
,
0010
0100
1000
0010
1000
0010
0100
0001
,
0100
0001
0010
0100
1000
0100
0010
0001
,
0100
0001
0100
1000
0010
1000
0010
0100
,
1000
0001
1000
0010
0100
0001
1000
0001
,
0100
0010
0001
0010
0001
1000
0100
1000
,
0100
0001
0010
0100
0010
0001
0100
1000
,
0100
0000
1000
0000
0001
0010
0100
1000
0001
0010
0100
1000
0001
0010
0100
1000
,
0001
0100
0010
0001
0010
0100
1000
0001
,
0100
0010
0001
0010
0100
1000
0100
0010
,
0001
1000
0010
0100
1000
0100
0010
0100
,
0010
0001
0010
0100
1000
0100
0010
0001
,
1000
0100
0001
0010
1000
0100
0001
0010
,
1000
0100
0010
0001
1000
0001
0010
0100
,
1000
0001
1000
0100
0010
0001
0010
0100
,
1000
0000
0100
0000
0010
0000
0001
0000
1000
0100
0010
0001
0010
0000
0100
0000
,
1000
0010
1000
0010
0100
0001
0100
0001
,
1000
0001
1000
0010
1000
0100
0001
0100
,
0001
0010
0001
0100
0010
1000
0100
0010
,
0100
1000
0010
0100
0001
0010
0100
0010
,
0001
0100
0010
0001
1000
0010
0100
1000
,
0010
0100
0010
1000
0010
0001
0100
0001
,
1000
0010
1000
0100
0001
0010
1000
0100
,
1000
0010
0100
0001
0010
0001
0010
0100
,
2000
3000
0100
0000
0001
0000
0020
0030
0100
0000
1000
0000
0020
0030
0001
0000
,
0200
0300
0010
0000
0100
0000
2000
3000
0010
0000
0100
0000
0002
0003
1000
0000
,
0200
0300
0001
0000
0100
0000
0020
0030
1000
0000
0010
0000
2000
3000
0100
0000
,
0002
0003
0100
0000
0010
0000
1000
0000
0100
0000
0001
0000
0010
0000
0000
0000
,
1000
0100
1000
0001
0000
0010
0100
0001
,
0100
0010
1000
0010
1000
0100
0010
0001
,
1000
0010
0100
0001
0000
1000
0010
0001
,
0100
0010
0001
0100
0010
1000
0100
0000
,
2000
3000
0001
0000
0010
0000
0200
0300
1000
0000
0010
0000
0200
0300
0010
0000
,
0002
0003
0100
0000
0001
0000
0020
0030
0001
0000
1000
0000
0200
0300
1000
0000
,
0020
0030
0100
0000
0001
0000
2000
3000
0100
0000
0001
0000
0020
0030
0001
0000
,
0200
0300
0001
0000
0010
0000
1000
0000
0010
0000
1000
0000
0100
0000
0000
0000
,
1000
0010
0100
0001
0000
1000
0010
1000
,
0100
0010
0001
0010
0100
1000
0010
1000
,
0001
0100
0001
0010
0000
0001
0100
1000
,
0100
0001
0010
1000
0100
0010
0001
0000
,
1000
0100
0010
0001
1000
0100
0010
0001
1000
0100
0010
0001
1000
0100
0010
0001
,
0020
0030
0100
0000
0010
0000
2000
3000
0010
0000
1000
0000
0200
0300
0010
0000
,
2000
3000
0010
0000
1000
0000
0020
0030
0100
0000
0010
0000
0200
0300
0010
0000
,
0002
0003
0100
0000
0001
0000
0200
0300
0010
0000
0001
0000
0020
0030
1000
0000
,
0200
0300
0001
0000
0010
0000
1000
0000
0010
0000
1000
0000
0100
0000
0010
0000
,
0002
0003
0100
0000
0001
0000
2000
3000
0010
0000
1000
0000
0020
0030
1000
0000
,
0200
0300
1000
0000
0010
0000
0002
0003
0100
0000
0010
0000
2000
3000
0100
0000
,
0020
0030
0100
0000
0001
0000
0200
0300
0010
0000
1000
0000
0002
0003
1000
0000
,
0200
0300
0001
0000
0100
0000
0010
0000
1000
0000
0010
0000
0100
0000
0010
0000
,
0002
0003
0100
0000
0010
0000
0200
0300
0001
0000
1000
0000
0020
0030
0100
0000
,
2000
3000
0010
0000
0001
0000
0200
0300
0010
0000
1000
0000
0020
0030
0100
0000
,
2000
3000
0010
0000
1000
0000
0200
0300
1000
0000
0001
0000
0020
0030
0001
0000
,
2000
3000
0001
0000
0100
0000
0010
0000
1000
0000
0100
0000
0010
0000
0100
0000
,
0002
0003
0010
0000
0001
0000
0200
0300
0001
0000
1000
0000
0020
0030
0100
0000
,
2000
3000
0100
0000
1000
0000
0200
0300
0001
0000
1000
0000
0020
0030
1000
0000
,
0200
0300
0001
0000
0010
0000
0002
0003
0100
0000
0001
0000
0020
0030
1000
0000
,
0200
0300
1000
0000
0001
0100
0010
1000
0001
0100
0010
1000
0001
0100
0010
1000
,
0002
0003
0010
0000
0100
0000
2000
3000
0100
0000
0010
0000
0200
0300
1000
0000
,
0002
0003
1000
0000
0010
0000
0002
0003
0100
0000
0001
0000
0020
0030
1000
0000
,
0200
0300
0001
0000
0010
0000
0002
0003
1000
0000
0010
0000
0200
0300
0001
0000
,
0020
0030
0100
0000
1000
0000
0010
0000
1000
0000
0100
0000
0001
0000
0010
0000
,
0200
0300
0010
0000
0001
0000
2000
3000
0010
0000
1000
0000
0200
0300
1000
0000
,
0002
0003
0010
0000
0001
0000
2000
3000
0010
0000
1000
0000
0002
0003
0010
0000
,
0200
0300
0010
0000
0001
0000
0200
0300
0010
0000
1000
0000
0020
0030
0001
0000
,
2000
3000
0000
0000
0000
0000
0000
0000
0220
0330
0000
0000
0000
0000
0000
0000
,
0002
0003
0010
0000
0100
0000
0020
0030
0001
0000
1000
0000
0200
0300
1000
0000
,
0020
0030
0100
0000
0001
0000
0100
0000
0010
0000
1000
0000
0010
0000
0100
0000
,
2000
3000
0100
0000
0010
0000
0002
0003
1000
0000
0001
0000
0020
0030
1000
0000
,
0002
0003
1000
0000
0010
0000
0100
0000
0010
0000
1000
0000
0010
0000
0100
0000
,
2000
3000
0010
0000
0100
0000
0002
0003
0100
0000
0010
0000
0200
0300
1000
0000
,
0002
0003
1000
0000
0010
0000
0002
0003
0100
0000
0010
0000
0200
0300
0001
0000
,
2000
3000
0100
0000
0001
0000
0020
0030
0001
0000
0010
0000
0200
0300
1000
0000
,
0220
0000
0000
0000
0000
0000
0000
0330
,
1000
0100
0010
0001
0000
1000
0010
0100
,
0001
0010
0001
1000
0100
1000
0010
0100
,
0001
0010
0100
1000
0000
0010
0001
0100
,
0010
1000
0100
1000
0001
0010
0001
0000
,
1000
0100
0010
1000
0000
0001
0010
0001
,
1000
0010
0001
0100
1000
0010
0001
0100
,
0001
0010
0100
1000
0000
0001
0100
0001
,
0010
1000
0010
1000
0100
0001
0100
0001
,
0010
1000
0010
0100
0000
0001
0100
0001
,
1000
0010
1000
0010
0100
0001
0010
0100
,
1000
0100
0010
0001
0000
1000
0010
1000
,
0100
1000
0001
0100
0001
0010
0001
0100
,
0010
0100
0001
1000
0010
0100
0001
0100
,
0010
1000
0001
0010
0001
0100
1000
0010
,
0100
0001
0100
0001
0010
1000
0010
1000
,
0100
0010
1000
0001
0010
0100
1000
0000
,
2112
0000
0000
0000
0000
0000
0000
3003
,
0220
0000
0000
0330
2200
0000
0000
3300
,
0202
0000
0000
0000
0000
0000
0000
0303
,
2200
0000
0000
3300
0022
0000
0000
0033
,
2200
0000
0000
0000
0000
0000
0000
3300
,
2020
0000
0000
3030
0202
0000
0000
0303
,
0202
0000
0000
0000
0000
0000
0000
0303
,
2002
0000
0000
0000
0000
0000
0000
3003
,
0220
0000
0000
0000
0000
0000
0000
0330
,
0002
0000
0000
0000
0203
0000
0000
0300
,
0202
0000
0000
0000
0000
0000
0000
0303
,
2000
0000
0000
0000
3020
0000
0000
0030
,
2020
0000
0000
0000
0000
0000
0000
3030
,
00M2
0003
0M20
0030
,
M200
0000
0000
0300
,
2MMM
0000
0000
3000
,
2222
0000
0000
0000
,
0000
0000
0000
0000
,
0000
0000
0000
0000
,
0000
0000
0000
3333
;
