#TITLE:Mr12000 is Sad Most of the Time;
#SUBTITLE:;
#ARTIST:Sandpaperdemon;
#TITLETRANSLIT:;
#SUBTITLETRANSLIT:;
#ARTISTTRANSLIT:;
#CREDIT:;
#BANNER:12ksad.png;
#BACKGROUND:12ksadbg.png;
#LYRICSPATH:;
#CDTITLE:!therairaicdtitle.png;
#MUSIC:Sandpaperdemon - Mr12000 is Sad Most of the Time.mp3;
#OFFSET:1.280;
#SAMPLESTART:50.100;
#SAMPLELENGTH:13.260;
#SELECTABLE:YES;
#BPMS:0.000=172.010,4.000=21.500,11.875=30.720,12.000=172.001,55.500=86.001,56.000=172.001;
#STOPS:55.500=1.200
;
#BGCHANGES:;
// cache tags:
#FIRSTBEAT:4.000;
#LASTBEAT:327.750;
#SONGFILENAME:Songs/Keys of Flames/Mr12000 is Sad Most of the Time (The Rai Rai)/mr12000.sm;
#HASMUSIC:1;
#HASBANNER:1;
#MUSICLENGTH:139.654;
// end cache tags

//---------------dance-single - ----------------
#NOTES:
     dance-single:
     :
     Hard:
     13:
     1.000,1.000,1.000,0.695,1.000,1084.000,291.000,97.000,0.000,0.000:  // measure 1
0000
0000
0000
0000
,  // measure 2
2002
3000
0013
0000
0011
0000
0010
0000
0010
0000
0101
0000
0011
0000
0010
0000
0101
0000
0010
0000
0011
0000
0010
0000
0010
0000
0101
0000
0011
0000
0010
0000
1010
0000
0010
0000
0011
0000
0010
0000
0010
0000
0101
0000
0011
0000
0010
0000
0101
0000
0010
0000
0011
0000
0010
0000
1001
0000
0101
0000
0011
0000
0010
0000
,  // measure 3
0101
0010
0011
0010
0010
0101
0011
0010
0101
0010
0011
0010
0010
0101
0011
0010
1010
0010
0011
0010
0010
0101
0011
0010
0101
0010
0011
0010
1001
0101
0011
0010
,  // measure 4
0101
0000
1000
0000
1010
0010
1000
0000
0102
0000
1003
0000
2010
0000
3010
1000
,  // measure 5
0101
0000
0000
0000
0010
0000
0000
0000
2002
0000
0000
0000
0000
0000
3003
0000
1100
0000
0010
0001
0200
0000
0000
0000
0301
0000
0100
0000
1020
0000
0030
0000
,  // measure 6
2000
0000
0000
3000
0000
0000
0000
0000
0000
0000
0000
0000
2000
0000
0000
3000
0000
0000
0000
0000
0000
0000
0000
0000
0002
0000
0000
0003
0000
0000
0000
0000
0000
0000
0000
0000
0002
0000
0000
0003
0000
0000
0000
0000
0000
0000
0000
0000
1001
0000
0000
0000
0000
0000
0000
0000
0000
0000
0000
0000
0000
0000
0000
0000
0000
0000
0000
0000
0000
0000
0000
0000
0010
0000
0000
0000
0000
0000
0000
0000
0000
0000
0000
0000
0000
0000
0000
0000
1000
0000
0000
0000
0000
0000
0000
0000
0001
0000
0000
0000
0000
0000
0000
0000
0000
0000
0000
0000
0000
0000
0000
0000
0010
0000
0000
0000
0000
0000
0000
0000
1100
0000
0000
0000
0000
0000
0000
0000
0000
0000
0000
0000
0000
0000
0000
0000
0001
0000
0000
0000
0000
0000
0000
0000
2000
0000
0000
3000
0000
0000
0000
0000
0000
0000
0000
0000
0000
0000
0000
0000
0100
0000
0000
0000
0000
0000
0000
0000
0020
0000
0000
0000
0000
0000
0000
0000
0000
0000
0000
0000
0030
0000
0000
0000
0000
0000
0000
0000
0000
0000
0000
0000
,  // measure 7
2000
0000
0000
3000
0000
0000
0000
0000
0000
0000
0000
0000
0000
0000
0000
0000
0100
0000
0000
0000
0000
0000
0000
0000
0020
0000
0000
0000
0000
0000
0000
0000
0000
0000
0000
0000
0030
0000
0000
0000
0000
0000
0000
0000
0000
0000
0000
0000
2000
0000
0000
3000
0000
0000
0000
0000
0000
0000
0000
0000
0000
0000
0000
0000
0100
0000
0000
0000
0000
0000
0000
0000
0020
0000
0000
0000
0000
0000
0000
0000
0000
0000
0000
0000
0030
0000
0000
0000
0000
0000
0000
0000
0000
0000
0000
0000
1001
0000
0000
0000
0000
0000
0000
0000
0000
0000
0000
0000
0000
0000
0000
0000
0000
0000
0000
0000
0000
0000
0000
0000
0101
0000
0000
0000
0000
0000
0000
0000
0000
0000
0000
0000
0000
0000
0000
0000
0000
0000
0000
0000
0000
0000
0000
0000
1001
0000
0000
0000
0000
0000
0000
0000
0000
0000
0000
0000
0000
0000
0000
0000
0000
0000
0000
0000
0000
0000
0000
0000
1001
0000
0000
0000
0000
0000
0000
0000
0000
0000
0000
0000
0010
0000
0000
0000
0000
0000
0000
0000
0000
0000
0000
0000
,  // measure 8
0100
0000
0100
0000
2010
3000
0000
2010
3000
0000
2010
3000
0000
2000
3001
1000
,  // measure 9
0101
0000
0010
0000
0001
0000
1000
0000
0001
0100
0001
0100
0010
0000
1000
0000
0001
0000
0010
0000
1100
0000
0001
0000
1000
0000
0100
0000
0010
0000
0001
0000
,  // measure 10
1100
0000
0001
1000
0000
0100
1010
0000
0001
0010
0000
0100
1000
0000
0001
1000
0000
0100
0011
0000
1000
0001
0000
0010
,  // measure 11
0202
0000
0000
0000
0300
0000
0000
0000
1003
0000
0000
0000
0000
0000
0000
0000
0022
0000
0000
0000
0030
0000
0000
0000
1003
0000
0000
0000
0010
0000
0000
0000
0200
0000
0000
0300
0200
0000
0000
0300
0002
0000
0000
0003
0002
0000
0000
0003
0010
0000
0000
0000
0100
0000
0000
0000
1000
0000
0000
0000
0010
0000
0000
0000
,  // measure 12
0101
0000
1000
0001
0000
0100
1010
0000
0001
0100
0000
0010
1000
0000
0001
0100
0000
0100
1010
0000
0001
0100
0000
0010
,  // measure 13
1000
0000
0000
0000
0000
0000
0000
0000
0000
0000
0000
0000
0000
0000
0000
0000
0100
0000
0000
0000
0000
0000
0000
0000
1010
0000
0000
0000
0000
0000
0000
0000
0000
0000
0000
0000
0000
0000
0000
0000
0000
0000
0000
0000
0000
0000
0000
0000
0011
0000
0000
0000
0000
0000
0000
0000
0000
0000
0000
0000
0000
0000
0000
0000
0000
0000
0000
0000
0000
0000
0000
0000
0102
0000
0000
0000
0000
0000
0000
0000
0000
0000
0000
0000
0003
0000
0000
0000
0000
0000
0000
0000
0000
0000
0000
0000
2100
0000
0000
0000
0000
0000
3000
0000
0000
0000
0000
0000
0000
0000
0000
0000
0000
0000
0000
0000
0000
0000
0000
0000
2002
0000
0000
0000
0000
0000
0000
0000
0000
0000
0000
0000
3003
0000
0000
0000
0000
0000
0000
0000
0000
0000
0000
0000
1010
0000
0000
0000
0000
0000
0000
0000
0000
0000
0000
0000
0000
0000
0000
0000
0100
0000
0000
0000
0000
0000
0000
0000
0001
0000
0000
0000
0000
0000
0000
0000
0000
0000
0000
0000
0000
0000
0000
0000
1000
0000
0000
0000
0000
0000
0000
0000
,  // measure 14
0101
0000
0000
0000
0000
0000
0101
0000
0000
0000
0000
0000
1100
0000
0000
0000
0001
0000
1000
0000
0000
0000
0100
0000
0011
0000
0000
0000
0000
0000
1000
0000
0000
0100
0000
0000
0011
0000
0000
0000
0000
0000
1001
0000
0000
0000
0000
0000
,  // measure 15
1010
0100
0001
0100
0010
1000
0100
1000
0001
0010
0100
0010
0001
0010
1100
0001
,  // measure 16
0100
0010
1000
0010
1100
0001
0100
0010
1000
0101
0010
0100
1010
0100
0001
1000
,  // measure 17
0010
1000
0100
0010
0101
1000
0010
0100
0001
1000
0100
0010
0101
0000
0101
0000
,  // measure 18
0101
0010
1000
0100
0011
1000
0001
0100
1010
0001
1000
0100
0001
1000
0001
0010
,  // measure 19
1100
0001
1000
0010
1000
0001
1100
0010
0001
0100
1010
0001
1000
0100
0010
0100
,  // measure 20
1000
0010
0100
0001
1010
0100
1000
0100
0010
0001
1000
0010
0101
1000
0001
0100
,  // measure 21
1010
0001
0100
0010
1100
0001
1000
0010
0100
0001
1000
0010
0100
0001
0100
0001
,  // measure 22
0100
0001
1000
0010
0101
1000
0001
0010
1100
0010
0001
0100
1010
0001
0100
0010
,  // measure 23
2200
3300
0100
0000
1010
0000
2200
3300
2200
3300
0100
0000
1010
0000
1010
0000
,  // measure 24
0202
0303
0010
0000
0011
0000
2200
3300
0100
0000
1010
0000
1000
0100
0011
0000
,  // measure 25
2200
0000
3300
0000
0100
0000
0000
0000
0011
0000
0000
0000
0202
0000
0303
0000
0101
0000
0010
0000
1000
0000
0100
1000
0010
0000
1000
0000
0001
0100
0001
0100
,  // measure 26
0010
0000
0000
0000
0000
0000
0000
0000
0000
0000
0000
0000
0000
0000
0000
0000
0000
0000
0000
0000
0000
0000
0000
0000
0010
0000
0000
0000
0000
0000
0000
0000
0000
0000
0000
0000
0000
0000
0000
0000
0000
0000
0000
0000
0000
0000
0000
0000
0010
0000
0000
0000
0000
0000
0000
0000
0000
0000
0000
0000
0000
0000
0000
0000
2000
0000
0000
0000
3000
0000
0000
0000
0010
0000
0000
0000
0000
0000
0000
0000
0000
0000
0000
0000
0000
0000
0000
0000
2000
0000
0000
0000
3000
0000
0000
0000
0101
0000
0000
0000
0000
0000
0000
0000
0000
0000
0000
0000
0010
0000
0000
0000
0000
0000
0000
0000
0000
0000
0000
0000
1000
0000
0000
0000
0000
0000
0000
0000
0000
0000
0000
0000
0001
0000
0000
0000
0000
0000
0000
0000
0000
0000
0000
0000
0100
0000
0000
0000
0000
0000
0000
0000
0000
0000
0000
0000
0001
0000
0000
0000
0000
0000
0000
0000
0000
0000
0000
0000
1000
0000
0000
0000
0000
0000
0100
0000
0000
0000
0000
0000
1000
0000
0000
0000
0000
0000
0100
0000
0000
0000
0000
0000
,  // measure 27
1000
0001
0010
0001
1000
0001
0010
0001
1100
0010
0001
1000
0001
0010
0100
1000
,  // measure 28
0100
1000
0010
1000
0001
0100
1000
0010
0101
1000
0100
0010
0001
1000
0001
0010
,  // measure 29
1100
0000
1100
0000
1100
0010
0001
1000
0010
0100
0001
1000
0011
0100
1000
0010
,  // measure 30
0101
1000
0010
0100
0001
0010
1000
0100
0001
0010
1000
0001
1000
0100
0011
0000
,  // measure 31
1001
0100
1010
0101
1001
0100
1010
0100
,  // measure 32
1000
1010
0100
0000
1010
0000
0100
0000
1000
0000
0011
0000
1010
0000
0100
0000
,  // measure 33
1001
0000
0100
0000
0011
0000
1000
0000
0001
0000
1100
0000
0011
0000
0100
0011
,  // measure 34
1000
0001
0100
0000
0011
0000
1000
1010
0010
1000
0100
0000
0011
0000
0100
0000
,  // measure 35
1001
0000
0100
0000
1010
0000
0101
0000
1001
1010
0100
0000
1010
0000
0100
0000
,  // measure 36
1001
0000
0100
0000
1010
0000
0010
1010
1000
0100
0011
0000
1010
0000
0100
0000
,  // measure 37
1001
0000
0100
0000
1010
0000
0100
0000
0001
0011
0100
0000
0011
0000
1000
0000
,  // measure 38
0001
0011
0100
0000
0011
0000
1010
1000
0100
0000
0001
1001
1001
0000
0200
0300
,  // measure 39
0101
0010
1000
0100
0011
1000
0010
0100
0001
0010
1000
0001
1000
0100
0001
0010
,  // measure 40
1100
0000
0000
0000
0010
0000
0000
0000
0001
0000
0000
0000
1000
0000
0000
0000
0010
0000
0000
0000
0010
0000
0000
0000
0010
0000
0000
0000
1000
0000
0000
0000
0001
0000
0000
0000
0100
0000
0000
0000
1010
0000
0000
0000
0000
0000
0000
0000
1010
0000
0000
0000
0001
0000
0000
0000
0200
0000
0000
0000
0010
0000
0000
0300
,  // measure 41
1000
0001
0010
0100
1010
0001
1000
0010
0100
0001
1000
0010
0101
1000
0001
0010
,  // measure 42
1100
0000
0000
0000
0001
0000
0000
0000
1000
0000
0000
0000
0100
0000
0000
0000
0011
0000
0000
0000
0100
0000
0000
0000
1000
0000
0000
0000
0010
0000
0000
0000
0100
0000
0000
0000
0001
0000
0000
0000
1100
0000
0000
0000
0010
0000
0000
0000
0001
0000
0000
0000
1000
0000
0000
0000
0002
0000
0000
0000
0100
0000
0000
0003
,  // measure 43
2020
0000
0000
3030
0100
0000
0001
0000
0000
0000
1000
0000
0101
0000
0000
0000
0000
0000
2020
0000
0000
3030
0000
0000
2020
0000
0000
3030
0100
0000
0001
0000
0000
0000
0000
0000
0101
0000
0000
0000
1000
0000
0100
0000
0000
0000
0010
0000
,  // measure 44
0001
0000
0100
1000
0000
0010
0100
0000
0010
1000
0000
0100
0001
0000
0010
1000
0000
0001
1000
0000
0100
0011
0000
0100
,  // measure 45
1000
0000
0001
0010
0000
1000
0101
0000
0010
1000
0000
0001
0100
0000
0000
1010
0000
0000
1010
0000
0000
1010
0000
0000
,  // measure 46
0011
0000
0100
1000
0000
0010
0100
0000
1000
0010
0000
0100
0001
0000
0100
1000
0000
0100
0001
0000
1000
0010
0000
1000
,  // measure 47
0101
0010
1010
0001
0100
1001
0101
1010
,  // measure 48
1001
0001
0011
1000
0001
0011
0101
0010
,  // measure 49
0101
1000
0011
0110
1100
0101
0101
0101
,  // measure 50
0101
0010
1010
0001
1000
0011
0101
1010
,  // measure 51
0102
0000
0000
0000
0000
0000
1000
0000
0000
0003
0000
0000
0010
0000
0000
0000
0000
0000
1000
0000
0000
0000
0100
0000
0010
0000
0000
0000
0001
0000
0010
0000
0000
0000
0000
0000
1100
0000
0000
0000
0000
0000
1010
0000
0000
0000
0000
0000
,  // measure 52
0100
0000
0000
1000
0000
0000
0011
0000
0000
0001
0000
0010
0100
0000
1000
0100
0000
0000
0011
0000
0000
1000
0000
0000
,  // measure 53
0101
0000
0000
1000
0000
0000
0011
0000
0000
0001
0000
0010
0100
0000
1000
0101
0000
0000
0101
0000
0000
0101
0000
0000
,  // measure 54
0101
0000
0000
0000
0000
0000
0000
0000
0000
0000
0000
0000
0000
0000
0000
0000
0000
0000
0000
0000
0000
0000
0000
0000
1010
0000
0000
0000
0000
0000
0000
0000
0000
0000
0000
0000
0000
0000
0000
0000
0000
0000
0000
0000
0000
0000
0000
0000
0110
0000
0000
0000
0000
0000
0000
0000
0000
0000
0000
0000
0000
0000
0000
0000
0000
0000
0000
0000
0000
0000
0000
0000
0001
0000
0000
0000
0000
0000
0000
0000
0000
0000
0000
0000
0000
0000
0000
0000
0010
0000
0000
0000
0000
0000
0000
0000
0100
0000
0000
0000
0000
0000
0000
0000
0000
0000
0000
0000
0000
0000
0000
0000
1000
0000
0000
0000
0000
0000
0000
0000
0100
0000
0000
0000
0000
0000
0000
0000
0000
0000
0000
0000
0000
0000
0000
0000
0000
0000
0000
0000
0000
0000
0000
0000
0002
0000
0000
0000
0000
0000
0000
0000
0000
0000
0000
0000
0000
0000
0000
0000
0000
0000
0000
0000
0000
0003
0000
0000
0020
0000
0000
0000
0000
0000
0000
0000
0000
0000
0000
0000
0000
0000
0000
0000
0000
0000
0000
0000
0000
0030
0000
0000
,  // measure 55
1100
0001
0100
0010
1000
0001
1010
0100
0001
1000
0001
0010
1100
0001
1000
0010
,  // measure 56
0101
1000
0001
0100
1010
0001
0100
0010
1000
0100
0010
0001
1100
0010
0001
0010
,  // measure 57
1100
0001
0010
1000
0001
1010
0100
0001
0010
0001
1000
0100
1000
0100
1000
0100
,  // measure 58
1000
0100
0010
0001
0100
1000
0001
1000
0010
0200
0001
1000
0310
0100
0010
0100
,  // measure 59
1001
0010
1000
0001
1100
0000
0101
0000
1001
0010
1000
0100
0010
0010
0001
1000
,  // measure 60
0001
0000
0000
0000
0100
0000
0000
0000
0001
0000
0000
0000
0100
0000
0000
0000
2020
0000
0000
0000
0000
0000
0000
3030
2020
0000
0000
0000
0000
0000
0000
3030
0101
0000
0000
0000
0010
0000
0000
0000
1000
0000
0000
0000
0010
0000
0000
0000
0101
0000
0000
0000
0010
0000
0000
0000
1000
0000
0000
0000
0001
0000
0000
0000
,  // measure 61
1100
0010
0001
1100
0010
0001
1100
0010
0001
1000
0101
0000
1100
0010
0001
1000
,  // measure 62
0002
0003
0000
0000
0010
0000
0000
0000
0100
0000
0000
0000
1000
0000
0000
0000
0002
0000
0003
0000
0010
0000
0000
0000
0100
0000
0000
0000
1000
0000
0000
0000
0001
0000
0000
0000
0100
0000
0000
0000
2020
0000
0000
0000
3030
0000
0000
0000
2002
0000
0000
0000
0000
0000
0000
0000
3003
0000
0000
0000
0000
0000
0000
0000
,  // measure 63
1000
0001
0010
0100
1001
0010
0010
0100
0001
1000
0010
1000
0100
0010
1000
0100
,  // measure 64
0010
0001
1000
0010
1010
0100
0001
0100
0010
1000
0100
1000
0011
0100
1000
0001
,  // measure 65
1010
0000
0000
0000
0100
0000
0000
0000
0001
0000
0000
0000
0100
0000
0000
0000
1010
0000
0000
0000
0100
0000
0000
0000
0001
0000
0000
0000
0100
0000
0000
0000
2020
0000
3030
0000
0100
0000
0000
0000
0002
0003
0000
0000
0010
0000
0000
0000
2100
0000
0000
0000
0001
0000
0000
0000
3100
0000
0000
0000
0010
0000
0000
0000
,  // measure 66
0101
1000
0100
0011
1000
0001
1000
0010
0101
1000
0020
0130
0002
1003
0010
1000
,  // measure 67
0011
0100
1000
0001
1000
0010
0100
0001
1010
0100
0001
0010
0100
1000
0100
0010
,  // measure 68
0100
1000
0100
0010
0100
1000
0100
0010
0001
0100
0010
1000
0202
0000
0303
0000
,  // measure 69
1010
0001
0100
0010
1000
0100
0010
0001
0010
1000
0100
0010
0001
0100
1000
0100
,  // measure 70
0010
0001
0010
0100
0001
0100
0010
1000
0100
0010
0100
1000
0001
0010
0001
0010
,  // measure 71
1100
0001
0010
0100
1000
0001
1100
0010
0001
0100
0001
1000
0100
0010
0100
0010
,  // measure 72
0100
1000
0002
1003
0002
1003
0020
0130
0002
1003
0002
0013
0002
0103
0020
1030
,  // measure 73
0101
0000
0101
0000
0101
0010
0002
1003
0002
0103
0020
1030
0002
0013
0002
1003
,  // measure 74
0002
0000
0000
0103
0000
0000
0020
0000
0000
1030
0000
0000
0101
0000
0000
0000
1000
0000
0001
0000
0000
0000
0010
0000
1100
0000
0000
0000
0001
0000
1000
0000
0000
0000
0010
0000
1002
0000
0000
0000
1000
0000
0103
0000
0000
0000
0010
0000
,  // measure 75
1100
0000
0100
0000
0011
0000
1100
0000
1001
0011
0100
0000
0011
0000
0100
0000
,  // measure 76
1001
0000
0100
0000
1010
0000
0100
0101
0001
0100
1010
0000
1010
0000
0100
0000
,  // measure 77
1001
0000
0100
0000
0011
0000
0100
0000
0010
1010
0100
0000
1010
0000
0100
0000
,  // measure 78
0010
1010
0100
0000
1010
0000
0101
0001
1000
0000
0001
1001
1001
0000
0200
0300
,  // measure 79
1010
0010
0110
0011
1010
0010
0110
0010
,  // measure 80
1010
0010
0011
0010
1010
0010
0110
0010
,  // measure 81
1010
0010
0110
0010
1010
0010
0110
0010
,  // measure 82
1010
0000
0010
0000
0110
0000
0010
0000
1010
0000
0010
0000
0010
0010
0010
0010
;
