#TITLE:Tsugaru;
#SUBTITLE:(apple mix);
#ARTIST:RevenG vs DE-SIRE;
#TITLETRANSLIT:;
#SUBTITLETRANSLIT:;
#ARTISTTRANSLIT:;
#CREDIT:;
#BANNER:tsugarubanner.png;
#BACKGROUND:tsugaruBG.png;
#LYRICSPATH:;
#CDTITLE:sq3rtitle.png;
#MUSIC:tsugaru(applemix).mp3;
#OFFSET:-1.529;
#SAMPLESTART:59.500;
#SAMPLELENGTH:15.000;
#SELECTABLE:YES;
#BPMS:0.000=165.000,229.000=165.000,235.500=119.000,241.500=100.000,243.000=90.000,243.167=87.000;
#STOPS:;
#BGCHANGES:;
// cache tags:
#FIRSTBEAT:15.667;
#LASTBEAT:245.000;
#SONGFILENAME:Songs/Community Keyboard Megapack - Volume 1/(sq3r) Tsugaru (Apple Mix)/tsugaru(applemix).sm;
#HASMUSIC:1;
#HASBANNER:1;
#MUSICLENGTH:98.063;
// end cache tags

//---------------dance-single - ----------------
#NOTES:
     dance-single:
     :
     Challenge:
     12:
     1.000,1.000,0.540,0.031,1.000,644.000,53.000,3.000,0.000,0.000:
0000
0000
0000
0000
,
0000
0000
0000
0000
,
0000
0000
0000
0000
,
0000
0000
0000
0000
0000
0000
0000
0000
0000
0000
0000
0001
,
1000
1000
1000
1000
,
1000
0110
1000
0110
1000
0110
1000
0010
,
0010
1100
0010
1100
0010
1100
0010
1100
,
0010
0000
1100
0000
0010
0000
1100
0000
0010
0000
1100
0000
0010
0000
1100
0010
,
0100
1001
0100
1001
0100
1001
0100
1001
,
0100
1001
0100
1001
0100
1001
0010
0001
,
0100
0000
0100
1000
0010
0000
0010
0001
,
1000
0000
0000
0000
0000
0000
1000
0100
0010
0001
0000
0000
0100
0000
0000
0000
0000
0000
1000
0000
0000
1000
0000
0000
,
0001
0000
0000
0000
0000
0000
0001
1000
0100
0010
0000
0000
0010
0000
0000
0000
0000
0000
0100
0000
0000
0100
0000
0000
,
0100
1000
0100
0010
0100
0010
0001
0000
0000
0001
0000
0000
1000
0000
0000
0000
0000
0000
0100
0000
0000
0100
0000
0000
,
0100
0010
0100
0001
0100
0010
0100
0000
0000
1000
0000
0000
1000
0000
0000
0000
0000
0000
1000
0000
0000
1000
0000
0000
,
0000
1000
1000
0001
0001
0100
0010
1000
,
1000
0000
0000
0000
0000
0000
0100
0000
0000
0000
0000
0000
0100
0000
0000
0000
0000
0000
0001
0000
0000
0000
0000
0000
0010
0000
0001
0000
0000
0000
0100
0000
0000
0100
0000
0000
0100
0000
0000
0100
0000
0000
0100
0000
0000
0000
0000
0000
,
0010
0000
0000
0000
0000
0000
0010
0000
0000
0000
0000
0000
1000
0000
0000
0000
0000
0000
0010
0000
0000
0000
0000
0000
0010
0000
0000
0000
0000
0000
1000
0000
0000
0100
0000
0000
1000
0000
0100
0000
1000
0000
0010
0000
0100
0000
0001
0000
,
0010
0000
0001
0000
1000
0000
0010
0000
0010
0100
0000
0100
0010
0100
0001
0000
,
0001
0001
1000
0010
0010
0010
0010
0010
,
1000
0100
1000
0001
0010
0001
0100
0000
0000
1000
0000
0000
1000
0000
0000
0001
0000
0000
0001
0000
0000
1001
0000
0000
,
1000
0000
0000
0010
0000
0000
0100
0000
0000
0010
0000
0000
0010
0000
0000
0001
0010
0100
1000
0000
0000
1000
0000
0000
,
0000
0000
1000
0000
0001
0000
0010
0000
0100
0000
0000
0000
1000
0000
0001
0000
0100
0000
0010
0000
0100
0000
0000
0010
1000
0000
0000
0000
0000
0000
1000
0000
,
0001
0000
0010
0000
0100
0000
0010
0000
0100
0010
0100
0010
0001
1000
0100
0000
1000
0000
0100
0000
0000
0000
0100
0000
1000
0000
0001
0000
0000
0000
0001
0000
,
1000
0000
0010
0100
0010
0000
1000
0001
0010
0000
0001
0010
0001
1000
0000
0000
0000
0000
0000
0000
0001
0010
0001
0010
0001
0000
0000
0000
1000
0100
1000
0100
,
1000
0001
0000
1000
0000
0000
1000
0001
0010
0000
0000
0000
0000
0000
0010
0000
0100
0000
0010
0000
0001
0000
0000
1000
0100
0000
0000
0000
0100
0010
0100
0000
,
1000
0000
0000
0000
1000
0001
0010
0000
0010
0100
1000
0010
0100
0000
0000
0010
1000
0000
0001
0000
0001
0000
1000
0000
0001
0010
0001
0000
0010
0100
1000
0000
,
0100
0000
0010
0000
0100
0000
1000
0000
0001
0010
0001
0000
0100
0010
1000
0000
0001
0010
0100
0000
0010
0000
0100
0000
1000
0000
0100
0000
0010
0000
0001
0000
,
0010
0000
0100
0000
0010
0000
0001
0000
0010
0000
0100
1000
0100
0000
0000
0100
0010
0100
0010
0000
0001
0000
0010
0000
0001
0000
1000
0010
0000
0100
0001
0010
,
0001
0000
0100
0000
0010
0000
1000
0000
0100
0000
1000
0100
0010
0000
0001
0010
0001
0000
1000
0000
0010
0000
0100
0000
0010
0000
1000
0100
1000
0000
0010
0100
,
0010
0100
0010
1000
0010
0000
0100
0000
0001
0000
0010
0100
1000
0000
1000
0000
1000
0000
0000
0000
1000
0000
0000
0001
0010
0000
0000
0000
0010
0100
0010
0000
,
0000
0000
0000
0000
0000
0000
0000
0000
0000
0000
0000
0000
0010
0000
0000
0000
0000
0000
0000
0000
0000
0000
0000
0000
0000
0000
0000
0000
0000
0000
0000
0000
0100
0000
0000
0000
0000
0000
0000
0000
0000
0000
0010
0000
0000
0000
0000
0000
0000
0000
0000
0000
0000
0000
0000
0000
0000
0000
0000
0000
0001
0000
0000
0000
0000
0000
0000
0000
0000
0000
0000
0000
1000
0000
0000
0000
0000
0000
0100
0000
0000
0000
0000
0000
1000
0000
0000
0000
0000
0000
0000
0000
0000
0000
0000
0000
0000
0000
0000
0000
0000
0000
0000
0000
0000
0000
0000
0000
1000
0000
0000
0000
0000
0000
0000
0000
0000
0000
0000
0000
0001
0000
0000
0000
0000
0000
0010
0000
0000
0000
0000
0000
0001
0000
0000
0000
0000
0000
0000
0000
0000
0000
0000
0000
0000
0000
0000
0000
0000
0000
0000
0000
0000
0000
0000
0000
1000
0000
0000
0000
0000
0000
0000
0000
0000
0000
0000
0000
0010
0000
0000
0000
0000
0000
0100
0000
0000
0000
0000
0000
0010
0000
0000
0000
0000
0000
0000
0000
0000
0000
0000
0000
,
0100
0000
0010
0000
0000
0000
0100
0010
0000
0000
1000
0000
0100
0000
0010
0001
0000
0000
0001
0000
0100
0010
0100
0000
0001
0000
0000
0000
1000
0100
0010
0000
,
0001
0000
0000
0000
0001
0010
0001
1000
0100
0000
0010
0000
0100
0000
1000
0001
0000
0000
0000
0000
0010
0100
0010
0000
0001
0000
0001
0010
0100
0000
1000
0000
,
0001
0010
0001
0000
1000
0000
0100
0010
0100
0000
1000
0000
0001
0000
0010
0100
0010
0000
0100
0000
1000
0000
0100
0010
0100
0000
1000
0000
0001
0000
0100
0010
,
0100
0000
0010
0000
1000
0000
0100
0010
0100
0000
0010
0000
0001
0100
0010
0000
1000
0000
1000
0000
1000
0100
0010
0000
0001
0000
0010
0000
0100
0000
1000
0000
,
0001
0100
1000
0110
1000
0100
1100
0000
0000
0110
0100
0010
,
0001
0010
0001
0110
0001
0010
0011
0000
0000
0110
0010
0100
,
1000
0010
1000
0110
1000
0010
1000
0001
0100
0110
0100
0001
,
1000
0100
0010
0110
0110
0110
0110
0000
0000
0000
0000
0000
,
1000
0000
0001
0000
1000
0000
0010
0100
0010
0000
0001
0000
0100
0000
1000
0100
,
1000
0000
1000
0000
0001
0000
1000
0010
1000
0000
1000
0000
0001
0000
1000
0100
,
0010
0000
0000
0000
0000
0000
0000
0000
0000
0001
0000
0000
0010
0000
0000
0000
0000
0000
0010
0000
0000
0100
0000
0000
1000
0000
0100
0000
0000
0000
1000
0000
0010
0000
1000
0000
0010
0000
0000
0000
0000
0000
1000
0000
0000
0001
0000
0000
,
0010
0000
0010
0000
0010
0000
1000
0000
1001
0000
1000
0001
1000
0000
1001
0000
,
0100
0000
0010
0001
0100
0000
0010
1000
0100
0000
0010
0001
0100
0000
0010
1000
,
0100
0000
0010
0001
0100
0010
1000
0100
0010
0000
0010
0100
1000
0000
0001
0000
,
1000
0000
0010
0001
0010
0001
1000
0100
1000
0000
1000
0000
1000
0000
1000
0010
,
0100
0000
0100
0000
0100
0000
0100
0001
0010
0000
0010
0001
0100
0000
0001
0000
,
1001
0000
0000
0000
1000
0100
0010
0000
0001
0000
0010
0000
0100
0000
0000
0000
0000
0000
1000
0100
0010
0000
0001
0000
0010
0000
0000
0000
1000
0100
1000
0000
,
0010
0000
0000
0000
0000
0000
0000
0000
0000
0000
0000
0000
0000
0000
0000
0000
0000
0000
0000
0000
0000
0000
0000
0000
0000
0000
0000
0000
0000
0000
1000
0000
0000
0000
0000
0000
0000
0000
0000
0000
0010
0000
0000
0000
0000
0000
0000
0000
0100
0000
0000
0000
0000
0000
0000
0000
0000
0000
0000
0000
0001
0000
0000
0000
0000
0000
0000
0000
0000
0000
0000
0000
0100
0000
0000
0000
0000
0000
0000
0000
0000
0000
0000
0000
0000
0000
0000
0000
0000
0000
0000
0000
0000
0000
0000
0000
0100
0000
0000
0000
0000
0000
0000
0000
0000
0000
0000
0000
0000
0000
0000
0000
0000
0000
0000
0000
0000
0000
0000
0000
0010
0000
0000
0000
0000
0000
0000
0000
0000
0000
0000
0000
0010
0000
0000
0000
0000
0000
0000
0000
0000
0000
0000
0000
0000
0000
0000
0000
0000
0000
0000
0000
0000
0000
0000
0000
0000
0000
0000
0000
0000
0000
0000
0000
0000
0000
0000
0000
0000
0000
0000
0000
0000
0000
0000
0000
0000
0000
0000
0000
0010
0000
0000
0000
0000
0000
0000
0000
0000
0000
0000
0000
,
0010
0000
0000
0000
0000
0000
0000
0000
0000
0010
0000
0000
0010
0000
0000
1000
0000
0000
0001
0000
0000
0000
0000
0000
1000
0000
0000
0000
0000
0000
0000
0000
0002
0000
0000
0000
0003
0000
2000
0000
0000
0000
3020
0000
0000
0000
0030
0000
,
0000
0000
0100
0000
0100
0000
0100
0000
0100
0000
0100
0010
1000
0000
1000
0100
,
0010
0000
0011
0000
1010
0000
0011
0000
1010
0000
1000
0001
0010
0000
1000
0001
,
0100
0000
0000
0000
0000
0000
0100
0000
0000
0000
0000
0000
0100
0000
0000
0010
0000
0000
0100
0000
0000
0000
0000
0000
0100
0000
0000
0000
0000
0000
0000
0000
0000
0001
0000
0000
0001
0000
0000
0000
0000
0000
1000
0000
0000
0000
0100
0000
,
0010
0000
0001
0000
1000
0100
1000
0010
0100
0000
0010
0100
0010
0000
0010
0100
,
0010
0000
0010
0100
0010
1000
0001
0010
0100
0000
1000
0001
1000
0000
0000
0100
,
0011
0000
1100
0000
1001
0000
0000
0101
,
0000
1010
0000
0110
1001
0000
0110
0000
,
1001
0000
0000
0000
0000
0000
0000
0000
0000
0000
0000
0000
0000
0000
0000
1000
,
1100
0000
0000
0000
0000
0000
0000
0000
0000
0000
0000
0000
0000
0000
0000
0000
0000
0000
0000
0000
0000
0000
0000
0000
0000
0000
0000
0000
0000
0000
0000
0000
0000
0000
0000
0000
0000
0000
0000
0000
0000
0000
0000
0000
0000
0000
0000
0000
0000
0000
0000
0000
0000
0000
0000
0000
0000
0000
0000
0000
0000
0000
0000
0000
0000
0000
0000
0000
0000
0000
0000
0000
0000
0000
0000
0000
0000
0000
0000
0000
0000
0000
0000
0000
0000
0000
0000
0000
0000
0000
0000
0000
0000
0000
0000
0000
0000
0000
0000
0000
0000
0000
0000
0000
0000
0000
0000
0000
0000
0000
0000
0000
0000
0000
0000
0000
0000
0000
0000
0000
0000
0000
0000
0000
0000
0000
0000
0000
0000
0000
0000
0000
0000
0000
0000
0000
0000
0000
0000
0000
0000
0000
0000
0000
0000
0000
0000
0000
0000
0000
0000
0000
0000
0000
0000
0000
0000
0000
0000
0000
0000
0000
0000
0000
0000
0001
0000
0000
0000
0000
0000
0000
0000
0000
0000
0000
0011
0000
0000
0000
0000
0000
0000
0000
0000
0000
0000
0000
0000
0000
0000
0000
,
0000
0000
0000
0000
0101
0000
0000
0000
0000
1010
0000
0000
0000
0000
0000
0101
0000
0000
1000
0100
0000
0011
0000
0000
;

//---------------dance-double - ----------------
#NOTES:
     dance-double:
     :
     Challenge:
     9:
     0.440,0.437,0.092,0.071,0.158,286.000,9.000,7.000,0.000,0.000:
00000000
00000000
00000000
00000000
,
00000000
00000000
00000000
00000000
,
00000000
00000000
00000000
00000000
,
00000000
00000000
00000000
00000000
,
00000001
00000001
00000001
00000001
,
00000100
00000000
00000100
00000000
00000100
00000000
00000100
00001000
,
00010000
00010000
00010000
00010000
,
01000000
00000000
01000000
00000000
01000000
00000000
01000000
10000000
,
00100000
00100000
00100000
00100000
,
00010000
00000000
00010000
00000000
00010000
00000000
00010000
00001000
,
00000010
00000000
00000001
00000100
00000001
00000000
00000100
00001000
,
00000100
00000000
00001000
00010000
00001000
00000000
00010000
00100000
,
00010000
00000000
00100000
10000000
00100000
00000000
10000000
01000000
,
00000000
00010000
00000000
10000000
01000000
00000000
01000000
00010000
,
00000000
00001000
00000000
00000010
00000001
00000000
00000001
00000100
,
00000000
00000100
00001000
00000100
00000000
00010000
00001000
00010000
,
00000000
01000000
00000000
01000000
00000000
10000000
00100000
10000000
,
00100000
00000000
10000000
01000000
10000000
00000000
01000000
00010000
,
01000000
00000000
00010000
00001000
00010000
00000000
00001000
00000100
,
00000000
00000001
00000100
00000001
00000000
00000001
00000010
00000001
,
00000000
00000010
00000000
00001000
00000000
00010000
00001000
00010000
,
00001000
00010000
01000000
10000000
,
01000000
00010000
00001000
00000010
,
00000001
00000010
00001000
00010000
,
00100000
00000000
00000000
00100000
10000000
00000000
00000000
00000000
01000000
00000000
00000000
01000000
00010000
00000000
00000000
00000000
,
00001000
00000000
00000000
00001000
00000100
00000000
00000000
00000000
00000001
00000000
00000000
00000001
00000010
00000000
00000000
00000000
,
00001000
00000000
00000000
00001000
00010000
00000000
00000000
00000000
00100000
00000000
00000000
00100000
10000000
00000000
00000000
00000000
,
01000000
00000000
00000000
01000000
00010000
00000000
00000000
00000000
00001000
00000000
00000000
00001000
00000100
00000000
00000000
00000000
,
00000001
00000000
00000000
00000100
00001000
00000000
00000000
00000000
00010000
00000000
00000000
00001000
00010000
00000000
00000000
00000000
,
00010000
00000000
00000000
00100000
10000000
00000000
00000000
00000000
01000000
00000000
00000000
10000000
01000000
00000000
00000000
00000000
,
01000000
00000000
00000000
00010000
00001000
00000000
00000000
00000000
00001000
00000000
00000000
00010000
00001000
00000000
00000000
00000000
,
00000010
00000000
00000000
00000001
00000100
00000000
00000000
00000000
00000100
00000000
00000000
00000001
00000100
00000000
00000000
00000000
,
00000001
00000000
00000000
00000100
00001000
00000000
00000000
00000000
00010000
00000000
00000000
00000000
00010000
00000000
00000000
00000000
,
00010000
00000000
00000000
01000000
10000000
00000000
00000000
00000000
10000000
00000000
00000000
00000000
10000000
00000000
00000000
00000000
,
10000000
00000000
00000000
00100000
00010000
00000000
00000000
00000000
00001000
00000000
00000000
00000000
00001000
00000000
00000000
00000000
,
00001000
00000000
00000000
00000010
00000100
00000000
00000000
00000001
00001000
00000000
00000000
00000100
00000010
00000000
00000000
00000001
,
00000100
00001000
00010000
01000000
,
00010000
00001000
00000100
00001000
,
00010000
00100000
10000000
00100000
,
00010000
00001000
00011000
00000000
,
00000000
00001000
00000010
00000000
00000001
00000000
00000001
00000000
,
00000000
00000100
00001000
00000000
00010000
00001000
00010000
00000000
,
00000000
00100000
10000000
00000000
01000000
10000000
01000000
00010000
,
00000000
00001000
00000010
00000000
00000000
00000001
00000000
00000100
,
00000001
00000100
00001000
00000000
00000100
00001000
00010000
00000000
,
00001000
00010000
00100000
00000000
00010000
00100000
10000000
00000000
,
00100000
10000000
01000000
00000000
10000000
01000000
00010000
00001000
,
00000000
00010000
00000000
00001000
00000000
00000010
00000001
00000000
,
00001001
00000000
00000000
00001100
00000000
00000000
00000110
00000000
,
00000010
00000000
00000000
00000001
00000100
00000000
00000000
00000000
00001000
00000000
00000000
00000000
00001000
00000000
00000000
00010000
,
00100000
10000000
00010000
01000000
,
00100000
00000000
00000000
10000000
01000000
00000000
00000000
00000000
00010000
00000000
00000000
00000000
00010000
00000000
00000000
00001000
,
00000010
00000001
00001000
00000100
,
00000010
00000000
00000000
00000001
00000100
00000000
00000000
00000000
00000001
00000000
00000000
00000000
00001000
00000000
00000000
00010000
,
00100000
10000000
00010000
01000000
,
00100000
00000000
00000000
10000000
01000000
00000000
00000000
00000000
10000000
00000000
00000000
00000000
00010000
00000000
00000000
00000000
,
00001000
00000000
00011000
00000000
00001010
00000000
00000000
00011000
,
00000000
01010000
00000000
10000000
01000000
00000000
00010000
00000000
,
00022000
00000000
00000000
00000000
00000000
00000000
00033000
00001000
,
00000020
00000000
00000000
00000000
00000000
00000000
00000030
00000001
,
00000200
00000000
00000000
00000000
00002300
00000000
00000000
00000000
00023000
00000000
00000000
00000000
01030000
00000000
00100000
00010000
,
02000000
03000000
00000000
00000000
;

//---------------dance-single - ----------------
#NOTES:
     dance-single:
     :
     Hard:
     10:
     0.819,0.931,0.816,0.000,0.780,482.000,80.000,0.000,0.000,0.000:
0000
0000
0000
0000
,
0000
0000
0000
0000
,
0000
0000
0000
0000
,
0000
0000
0000
0000
,
0001
0001
0001
0001
,
1001
0000
1001
0000
1001
0000
1001
0010
,
1010
1010
1010
1010
,
1010
0000
1010
0000
1010
0000
1010
0010
,
0011
0011
0011
0011
,
0011
0000
0011
0000
0011
0000
0001
0010
,
0100
0000
1000
0100
0010
0000
0010
0100
,
0001
0000
0000
0000
0100
0010
0100
0000
1000
0000
0000
0000
1000
0000
0010
0000
,
0001
0000
0000
0000
1000
0100
0010
0000
0001
0000
0000
0000
1000
0000
1000
0000
,
1000
0000
0010
0100
0010
0000
0010
0000
0010
0000
0000
0000
0001
0000
0001
0000
,
0001
0000
0100
0010
0100
0000
0100
0000
0100
0000
0000
0000
0100
0000
0100
0000
,
0000
0100
0100
0010
0001
1000
0100
0010
,
0100
0000
1000
0000
0001
0000
0010
0000
0001
1000
0010
0100
0001
1000
0010
0000
,
1000
0000
0100
0000
0001
0000
0100
0000
0010
0000
0001
1000
0100
1000
0001
0010
,
0001
0000
1000
0000
1000
0000
0100
0000
0010
0000
0100
0001
0100
0001
0100
0000
,
0001
1000
0010
0010
1000
0100
0010
0001
,
1000
0100
0010
0001
1000
0100
0010
0001
1000
0100
0010
0001
1000
0100
0010
0001
,
1000
0000
0001
0000
0001
0000
0010
0000
0010
0000
1000
0010
1000
0000
0010
0000
,
1000
0000
0100
0000
0010
0000
0010
0000
0100
0010
0100
0001
0100
0000
0000
0001
,
1000
0010
0100
0010
0100
0001
1000
0100
0010
0000
1000
0100
0010
0001
0100
0000
,
1001
0000
0000
1000
0011
0000
0000
1000
0011
0000
0000
1000
0011
0000
0000
0001
,
1100
0000
0000
0001
1100
0000
0000
0001
1100
0000
0000
0100
1010
0000
0000
0100
,
1010
0000
0000
0100
1010
0000
0000
0010
0101
0000
0000
0010
0101
0000
0000
0010
,
0101
0000
0000
1000
0011
0000
0000
0001
1100
0000
0000
1000
0011
0000
0000
0001
,
1100
0000
0000
0010
0101
0000
0000
0100
1010
0000
0000
0010
0101
0000
0000
0100
,
1010
0000
0000
0010
1001
0000
0000
0100
1001
0000
0000
0010
1001
0000
0000
0100
,
1001
0000
0000
0001
0110
0000
0000
1000
0110
0000
0000
0001
0110
0000
0000
1000
,
0110
0000
0000
0000
0000
0000
0000
0000
0000
0010
0000
0000
1100
0000
0000
0000
0000
0000
0000
0000
0000
0100
0000
0000
0011
0000
0000
0000
0000
0000
0000
0000
0000
0010
0000
0000
1100
0000
0000
0000
0000
0000
0000
0000
1000
0000
0000
0000
,
0001
0000
0000
0000
1000
0001
1000
0000
0000
0000
0001
0000
1000
0000
0000
0000
0001
1000
0001
0000
0000
0000
0010
0000
,
0100
0000
0000
0000
0010
0100
0010
0000
0000
0000
0100
0000
0010
0000
0000
0000
0100
0010
0100
0000
0000
0000
1000
0000
,
0001
0000
1000
0001
1000
0000
0001
1000
0001
0000
1000
0001
1000
0000
0001
1000
,
0001
0000
1000
0001
1000
0000
0001
1000
0001
0000
1000
0001
1000
0000
0001
1000
,
0001
0010
0001
0010
0100
1000
0110
0000
0000
0100
0010
0100
,
0001
0010
0001
0010
0100
1000
0110
0000
0000
0010
0100
0010
,
0001
0010
0001
0010
0100
1000
0100
0010
0001
0010
0001
0010
,
0100
1000
0100
0010
0001
0010
0110
0000
0000
0000
0000
0000
,
1000
0000
0100
0000
0010
0000
0100
0000
0001
0000
0010
0000
0100
0000
1000
0100
,
1000
0000
1000
0000
0100
0000
0010
0000
0001
0000
0010
0000
0001
0000
0001
0010
,
0001
0000
0000
0001
1000
0000
1000
0100
1000
0000
0010
0100
0010
0000
0001
0010
,
0001
0000
1000
0000
0001
0000
0010
0000
0110
0000
0001
1000
0001
0000
0110
0000
,
0001
0000
1000
0100
0010
0000
0010
0001
0010
0000
0010
0000
0010
0000
0100
1000
,
0001
0000
0001
0000
0001
0000
0010
0100
1000
0000
1000
0000
1000
0000
0010
0000
,
0110
0000
0110
0000
0000
0000
0001
0010
0001
0000
0100
0000
0100
0000
1000
0100
,
1000
0000
0010
0000
0010
0000
0001
0010
0100
0000
1000
0100
0010
0000
1000
0000
,
1001
0000
0000
0001
1000
0001
0110
0000
0000
0001
1000
0001
0110
0000
0000
0001
,
0110
0000
0000
1000
0001
0000
0000
0001
1000
0000
0000
1000
0100
0000
0000
0001
,
0100
0000
0000
0010
0100
0000
0010
0000
1000
0000
0010
0000
0100
0000
1001
0000
,
0000
0000
0001
0010
0001
0000
0001
0000
0001
0000
0001
0000
0001
0000
0001
0000
,
1010
0000
0001
0000
1010
0000
0001
0000
1010
0000
0010
0100
0010
0000
0010
0100
,
0010
0000
1000
0000
0100
0010
0001
0000
0011
0000
0000
0001
0010
0000
0001
0000
,
0010
0000
0100
0000
1000
0100
0010
0000
0011
0000
0000
1000
0010
0100
0001
0100
,
0001
1000
0010
0100
0001
1000
0010
0100
0010
1000
0100
1000
0001
0010
0100
0010
,
1001
0000
1010
0000
0101
0000
0000
1100
,
0000
0011
0000
0110
1001
0000
1010
0000
,
0101
0000
0000
0000
0000
0000
0000
0000
0000
0000
0000
0000
0000
0000
0000
1000
,
1000
0000
0000
0000
0000
0000
0000
0000
0000
0000
0000
0000
0000
0000
0000
0000
0000
0000
0000
0000
0000
0000
0000
0000
0000
0000
0000
0000
0000
0000
0000
0000
0000
0000
0000
0000
0000
0000
0000
0000
0000
0000
0000
0000
0000
0000
0000
0000
0000
0000
0000
0000
0000
0000
0000
0000
0000
0000
0000
0000
0000
0000
0000
0000
0000
0000
0000
0000
0000
0000
0000
0000
0000
0000
0000
0000
0000
0000
0000
0000
0000
0000
0000
0000
0000
0000
0000
0000
0000
0000
0000
0000
0000
0000
0000
0000
0000
0000
0000
0000
0000
0000
0000
0000
0000
0000
0000
0000
0000
0000
0000
0000
0000
0000
0000
0000
0000
0000
0000
0000
0000
0000
0000
0000
0000
0000
0000
0000
0000
0000
0000
0000
0000
0000
0000
0000
0000
0000
0000
0000
0000
0000
0000
0000
0000
0000
0000
0000
0000
0000
0000
0000
0000
0000
0000
0000
0000
0000
0000
0000
0000
0000
0000
0000
0000
0001
0000
0000
0000
0000
0000
0000
0000
0000
0000
0000
0001
0000
0000
0000
0000
0000
0000
0000
0000
0000
0000
0000
0000
0000
0000
0000
,
0000
0000
0000
0000
1001
0000
0000
0000
0000
1001
0000
0000
0000
0000
0000
0001
0000
0000
1000
0100
0000
0011
0000
0000
;
