#TITLE:A Little Plate's Rondo;
#SUBTITLE:;
#ARTIST:Haibane Renmei OST;
#TITLETRANSLIT:;
#SUBTITLETRANSLIT:;
#ARTISTTRANSLIT:;
#CREDIT:;
#BANNER:rondo.png;
#BACKGROUND:rondo-bg.png;
#LYRICSPATH:;
#CDTITLE:!skorTitle.png;
#MUSIC:Haibane Renmei OST - A little plate's Rondo.mp3;
#OFFSET:2.480;
#SAMPLESTART:76.923;
#SAMPLELENGTH:11.900;
#SELECTABLE:YES;
#BPMS:0.000=78.000,161.000=80.000,162.000=75.000,164.000=83.000;
#STOPS:;
#BGCHANGES:;
// cache tags:
#FIRSTBEAT:4.000;
#LASTBEAT:172.000;
#SONGFILENAME:Songs/Community Keyboard Megapack - Volume 1/(skorpion9x) A Little Plate's Rondo/rondo.sm;
#HASMUSIC:1;
#HASBANNER:1;
#MUSICLENGTH:136.599;
// end cache tags

//---------------dance-single - ----------------
#NOTES:
     dance-single:
     :
     Challenge:
     10:
     0.655,0.944,0.754,0.190,0.692,497.000,103.000,26.000,0.000,1.000:  // measure 1
0000
0000
0000
0000
,  // measure 2
0011
0100
1010
1100
1001
0010
1001
0011
,  // measure 3
1100
0000
0010
1000
0100
0000
1000
0000
0110
0000
0001
0000
0110
0000
1000
0000
,  // measure 4
0011
1000
1010
0100
0101
1000
0101
0110
,  // measure 5
1010
0000
0100
0010
1000
0000
0100
0000
0012
0000
0100
0000
2003
0000
3000
0000
,  // measure 6
0110
0001
1100
0110
0011
1000
0011
0110
,  // measure 7
1100
0100
0101
0110
2010
3001
0210
0301
,  // measure 8
0110
0000
1100
0000
1001
0000
0101
0000
0011
0000
0010
0100
1000
0000
0100
0000
,  // measure 9
1001
0000
0100
0000
0110
0000
0001
1000
0200
0000
0300
0000
0020
0000
0030
0000
,  // measure 10
0110
0001
0110
1100
0110
0001
0011
0110
,  // measure 11
1100
0000
0001
1000
0100
0000
0010
0000
0001
0100
1000
0100
0001
0000
0010
0000
,  // measure 12
1100
0000
0100
0000
0011
0000
0101
0000
1001
0000
0010
1000
0100
0000
1000
0000
,  // measure 13
0011
0000
0010
0001
0100
0000
0001
0000
2010
0000
0010
0001
3100
0000
0000
0000
,  // measure 14
1001
0000
0100
0000
1010
0000
0101
0000
1001
0000
0001
0010
0100
0000
1000
0000
,  // measure 15
0010
0000
0100
0000
0001
0000
1000
0000
0100
0000
0000
0000
1000
0000
0001
0000
0100
0000
0000
0000
0010
0000
0000
0000
2000
0001
0001
0001
0001
0001
3001
0000
,  // measure 16
0110
0000
1010
0000
0001
0010
0100
0001
0100
0000
1000
0100
0010
0000
1000
0000
,  // measure 17
0010
0100
1000
0001
0100
0000
0010
1000
0100
0000
1000
0000
1001
0000
0000
0000
,  // measure 18
0110
1000
0001
0100
0010
0000
1000
0010
0110
0000
0001
0000
0011
0000
0100
1000
,  // measure 19
0101
0000
0100
0001
1000
0000
1000
0100
1001
0010
0100
0010
0001
0010
0100
1000
,  // measure 20
1001
0010
0100
1000
0001
0100
0010
1000
1001
0000
1000
0010
0101
0010
1000
0100
,  // measure 21
0011
0000
0001
1000
0100
0000
1000
0000
1001
0010
0001
0010
0100
0000
1000
0000
,  // measure 22
0110
0000
0100
0000
1001
0000
0100
0000
0011
0000
1000
0100
0011
0000
0001
0000
,  // measure 23
1100
0000
0000
0000
0010
0000
0000
0000
1001
0000
0000
0000
0010
0000
0000
0000
0100
0000
1000
0000
0001
0000
0000
0000
1000
0100
1000
0100
1000
0100
0000
0000
,  // measure 24
1000
0010
0100
0001
1000
0010
0100
0001
1000
0100
0010
0001
1000
0100
0010
0001
,  // measure 25
1000
0001
0100
0010
1000
0001
0100
0010
2002
0000
0000
0000
0100
0000
3003
0000
,  // measure 26
1001
0000
0000
0000
0001
0100
0001
0010
0001
0100
0001
0010
0001
0100
0001
0010
0100
1000
0010
1000
0100
1000
0010
1000
0100
0010
0001
0100
0010
0000
0000
0000
,  // measure 27
1000
0001
0100
0001
1000
0001
0100
0001
1000
0100
0010
0001
1000
0001
0100
0010
1000
0001
1000
0100
0010
0001
1000
0001
0100
0010
1000
0000
0100
0000
0010
0000
,  // measure 28
0110
0000
0000
0000
1000
0100
1000
0010
1000
0100
1000
0010
0100
0001
0100
0001
0010
0100
0010
0100
1000
0001
1000
0001
0100
0010
0100
0001
1000
0100
1000
0010
,  // measure 29
0100
0001
0010
0100
1000
0010
0100
0001
0010
0001
0100
0010
1000
0100
1000
0001
0010
0000
0100
0000
0010
0000
0001
0000
1000
0000
0100
0000
1000
0000
0010
0000
,  // measure 30
0100
0000
0000
0000
0001
0100
0001
1000
0010
1000
0100
1000
0001
0010
0001
0100
0001
1000
0100
0010
0001
0100
0010
1000
0001
0100
0001
1000
0010
0000
0000
0000
,  // measure 31
1001
0000
0000
0000
0100
0010
0001
0100
0010
1000
0001
1000
0100
1000
0010
0100
0001
0010
0001
0100
0010
0100
0001
0010
0100
1000
0001
0100
0010
0000
1000
0000
,  // measure 32
1001
0000
0000
0000
0100
0000
0000
0000
1000
0100
0010
0001
1000
0000
0000
0000
0110
0000
0000
0000
0001
0000
0000
0000
0010
1000
0001
0100
0010
0000
0000
0000
,  // measure 33
1001
0010
0110
0100
1010
0000
0011
0000
,  // measure 34
1001
0100
0011
1001
1100
1000
1010
0110
,  // measure 35
0101
0000
0001
0010
0100
0000
1000
0000
1001
0000
2000
3000
0210
0300
0020
0030
,  // measure 36
0012
0000
0000
0000
0010
0000
1000
0003
0120
0000
0000
0030
2010
0000
0001
3000
,  // measure 37
0021
0000
0100
1000
0001
0000
0100
0030
2001
0000
0010
0001
0100
0000
0100
3001
,  // measure 38
0110
0000
0001
0100
0110
0000
1000
0001
,  // measure 39
0110
0000
0000
0000
0100
0000
0010
0000
1001
0000
0200
0300
1002
0003
0020
0030
,  // measure 40
2001
0000
0100
0000
0010
0000
0001
3000
0210
0000
0001
0310
1002
0000
0100
0003
,  // measure 41
1002
0000
0000
0000
0010
0000
1000
0010
0100
0000
0000
0000
0000
0000
0013
1000
,  // measure 42
0200
1000
0010
0001
1000
0000
0000
0000
,  // measure 43
0000
0000
0000
0000
,  // measure 44
0300
0000
0000
0000
;

//---------------dance-single - ----------------
#NOTES:
     dance-single:
     :
     Hard:
     8:
     0.431,0.456,0.373,0.007,0.260,360.000,51.000,1.000,0.000,0.000:  // measure 1
0000
0000
0000
0000
,  // measure 2
0010
0000
0001
1000
0100
0000
1000
0001
,  // measure 3
0100
0000
0001
0010
0100
0000
1000
0000
0001
0000
0000
0000
0110
0000
0000
0000
,  // measure 4
1000
0000
0010
0100
0001
0000
1000
0001
,  // measure 5
0010
0000
0001
0100
0010
0000
1000
0000
0001
0000
1000
0100
0010
0000
0001
0000
,  // measure 6
0110
0000
1000
0010
0110
0000
0001
1000
,  // measure 7
0110
0000
0010
0001
1100
0000
0010
0000
,  // measure 8
0001
0000
0010
0000
0100
0000
1000
0000
0001
0000
0010
0001
0100
0000
0001
0000
,  // measure 9
1001
0000
0000
0000
0010
0000
1000
0001
0100
0000
0000
0000
0100
0000
0000
0000
,  // measure 10
1001
0000
0010
1000
0101
0000
0010
0001
,  // measure 11
1100
0000
0010
1000
0100
0000
1000
0000
0001
0010
0100
1000
0001
0000
0100
0000
,  // measure 12
0110
0000
0000
0000
1000
0000
0001
0000
0110
0000
0010
1000
0001
0000
0100
0000
,  // measure 13
1001
0000
0001
0010
0100
0000
1000
0000
0101
0000
0010
1000
0001
0000
0000
0000
,  // measure 14
0110
0000
0001
0000
1000
0000
0001
0000
1001
0000
0010
1000
0100
0000
1000
0000
,  // measure 15
0001
0100
0010
1000
0100
0000
1000
0010
0100
0000
0001
0000
0100
0000
0100
0000
,  // measure 16
0010
0000
1000
0000
0001
0010
0100
1000
0001
0000
0010
0001
0100
0000
0001
0000
,  // measure 17
1000
0100
0010
0001
1000
0000
0001
1000
0100
0000
0010
0000
0100
0000
0000
0000
,  // measure 18
1000
0100
0010
0100
1000
0000
0001
0100
0010
0000
0100
0000
0001
0000
1000
0100
,  // measure 19
0001
0000
0100
1000
0001
0000
0100
0000
0001
0010
0100
0010
0001
0010
0100
1000
,  // measure 20
0001
0100
0010
0100
0001
0100
0010
1000
0100
0000
1000
0001
0010
0001
0010
0001
,  // measure 21
0100
0000
0010
1000
0100
0000
1000
0000
0010
0001
0010
0001
1000
0000
0100
0000
,  // measure 22
1001
0100
0110
1000
1001
0100
0110
1000
,  // measure 23
1001
0000
0100
0000
0010
0000
0001
0000
1000
0001
1000
0001
0100
0000
0010
0000
,  // measure 24
1000
0010
0100
0001
1000
0010
0100
0001
1000
0100
0010
0001
1000
0100
0010
0001
,  // measure 25
1000
0001
0100
0010
1000
0001
0100
0010
1001
0000
0000
0000
0110
0000
0000
0000
,  // measure 26
1001
1000
0100
0010
0001
0010
0100
1000
,  // measure 27
1001
0000
0001
0000
0100
0000
0010
0000
1000
0000
0010
0000
0100
0001
1000
0001
,  // measure 28
0110
1000
0001
0100
0001
0010
0001
0100
,  // measure 29
0010
0000
1000
0000
0001
0000
0010
0000
0100
1000
0001
1000
0010
1000
0001
0100
,  // measure 30
0110
1000
0100
0001
0010
0001
0100
1000
,  // measure 31
0110
0000
0001
0000
0100
0000
1000
0000
0010
0001
1000
0100
0010
0001
1000
0100
,  // measure 32
1001
0100
0110
0000
1001
0100
0110
0000
,  // measure 33
0110
0100
0101
0001
0011
0000
1001
0000
,  // measure 34
1100
0000
0010
0001
0101
0000
0010
1000
,  // measure 35
1100
0000
0010
0001
1000
0000
0100
0000
1001
0000
0000
0000
0010
0000
0000
0000
,  // measure 36
1100
0000
1000
0100
0011
0000
0010
1000
,  // measure 37
0101
0000
0001
1000
0100
0000
0001
0000
1010
0000
0001
1000
0100
0000
0001
0010
,  // measure 38
1001
0010
1000
0100
1001
0010
0001
0100
,  // measure 39
1001
0100
0010
1000
1001
0000
0110
0000
,  // measure 40
1001
0000
0010
0000
0100
0000
1000
0000
1001
0000
0010
1000
0100
0000
0001
0000
,  // measure 41
1001
0000
0000
0000
0100
0000
0010
1000
0100
0000
0000
0000
0000
0000
1000
0001
,  // measure 42
0200
0001
0010
1000
0010
0000
0000
0000
,  // measure 43
0000
0000
0000
0000
,  // measure 44
0300
0000
0000
0000
;
