#TITLE:Mickey Mouse March;
#SUBTITLE:(Eurobeat Version);
#ARTIST:DOMINO;
#TITLETRANSLIT:;
#SUBTITLETRANSLIT:;
#ARTISTTRANSLIT:;
#CREDIT:;
#BANNER:Mickey_Mouse_March.png;
#BACKGROUND:Mickey_Mouse_March-bg.jpg;
#LYRICSPATH:;
#CDTITLE:jx.png;
#MUSIC:Mickey_Mouse_March.mp3;
#OFFSET:-1.892;
#SAMPLESTART:50.700;
#SAMPLELENGTH:12.000;
#SELECTABLE:YES;
#BPMS:0.000=152.000;
#STOPS:;
#BGCHANGES:;
// cache tags:
#FIRSTBEAT:12.000;
#LASTBEAT:211.500;
#SONGFILENAME:Songs/IzzySM Keyboard Mega Pack/MickeyMouseMarch(Eurobeat)/Mickey_Mouse_March.sm;
#HASMUSIC:1;
#HASBANNER:1;
#MUSICLENGTH:91.742;
// end cache tags

//---------------dance-single - ----------------
#NOTES:
     dance-single:
     :
     Challenge:
     10:
     0.986,0.980,1.000,0.131,1.000,505.000,116.000,12.000,0.000,0.000:  // measure 1
0000
0000
0000
0000
,  // measure 2
0000
0000
0000
0000
,  // measure 3
0000
0000
0000
0000
,  // measure 4
0001
0010
0100
1000
0010
0100
0001
1000
0010
1000
0010
0001
0100
0001
1000
0100
,  // measure 5
0010
0100
0001
1000
0010
0100
0001
1000
0001
0100
0010
1000
0001
1000
0010
0100
,  // measure 6
0001
1000
0010
0100
0010
1000
0001
0100
0001
0100
1000
0010
0100
0001
0100
1000
,  // measure 7
2002
0000
0000
3003
,  // measure 8
1001
0000
0110
0000
1100
0000
0101
0000
0001
0000
0100
1000
0000
0001
0010
0000
,  // measure 9
0101
0000
0011
0000
1000
0100
0000
1000
0010
0000
0100
0001
0000
1000
0100
0000
,  // measure 10
1100
0000
0101
0000
0010
0001
0000
0100
0010
0000
1000
0001
0000
0010
0100
0000
,  // measure 11
1001
0000
1100
0000
1000
0001
0010
0000
0001
0000
0011
0000
1100
0000
0000
0000
,  // measure 12
1001
0000
1010
0000
0100
0001
0000
1000
0001
0000
0010
1000
0000
0001
0100
0000
,  // measure 13
1010
0000
0011
0000
0100
1000
0000
0001
0010
0000
1000
0010
0000
1000
0001
0000
,  // measure 14
1100
0000
1010
0000
1000
0010
0000
1000
0001
0000
0100
0001
0000
0010
1000
0000
,  // measure 15
1001
0000
1100
0000
0101
1000
0010
0000
1001
0000
0011
0000
1100
0000
0000
0000
,  // measure 16
1000
0100
0010
0001
1000
0001
0100
0001
0010
0001
1000
0010
0100
0001
1000
0001
,  // measure 17
1000
0100
0010
0100
1000
0010
0001
0010
0100
0001
0100
1000
0100
0000
0000
0000
,  // measure 18
1001
0100
0010
0000
1100
0000
0000
0000
0101
1000
0100
0000
0011
0000
0000
0000
,  // measure 19
0110
0001
1000
0000
1100
0000
0101
0000
2002
0000
0000
0000
0000
0000
3003
0000
,  // measure 20
0001
0100
0010
1000
0001
1000
0010
0100
0010
1000
0100
1000
0001
0100
0010
0001
,  // measure 21
1000
0100
0010
0001
0100
0010
0001
1000
0100
0001
1000
0001
0100
0000
0000
0000
,  // measure 22
1010
0001
1000
0000
1100
0000
0000
0000
0011
0100
0001
0000
1100
0000
0000
0000
,  // measure 23
0101
0100
1000
0000
0011
0100
1000
0100
1010
0000
0000
0000
1001
0000
0101
0000
,  // measure 24
0110
0000
0000
1000
0001
1000
0001
0000
0000
0100
0010
0100
0010
0000
0000
1000
0001
1000
0001
0000
0000
1100
0000
0000
,  // measure 25
1001
0000
0000
0000
0000
0000
0100
0000
0010
0000
0100
0000
0010
0000
0000
1000
0000
0000
0000
0000
0000
0011
0000
0000
0000
0000
0000
1100
0000
0000
0000
0000
0000
0001
0000
0000
1000
0000
0000
0001
0000
0000
0100
0000
0000
0000
0000
0000
,  // measure 26
1000
0001
1000
0100
0010
0001
1000
0100
0001
1000
0010
1000
0001
0100
1000
0100
,  // measure 27
1001
0100
0010
0100
1001
0010
0100
0010
1001
0100
0010
0100
1001
0000
0000
0000
,  // measure 28
1000
0100
1000
0100
0010
0001
0010
0001
1000
0100
0010
0001
0100
0001
1000
0010
,  // measure 29
0001
0010
1000
0010
0001
0100
1000
0100
0001
0010
1000
0010
0001
0000
0000
0000
,  // measure 30
0011
1000
0001
0000
1100
0000
0000
0000
1010
0001
1000
0000
0101
0000
0000
0000
,  // measure 31
1001
0100
0010
0000
0101
0000
1100
0000
2002
0000
0000
0000
0000
0000
3003
0000
,  // measure 32
0001
0010
0001
0010
0100
1000
0100
1000
0001
0010
0100
1000
0001
0100
0010
1000
,  // measure 33
0001
1000
0100
1000
0010
0001
0010
1000
0100
0001
0100
1000
0001
0000
0000
0000
,  // measure 34
1001
0100
0010
0000
1100
0000
0000
0000
0101
1000
0100
0000
0011
0000
0000
0000
,  // measure 35
0110
0001
1000
0000
1100
0000
0101
0000
1001
0000
0000
0000
1100
0001
0100
0000
,  // measure 36
1001
0000
0000
0000
1010
0001
0100
0000
0011
0000
0000
0000
0101
0010
0001
0000
,  // measure 37
1100
0001
1000
0000
0010
0000
1000
0001
0000
0000
0000
0000
1010
0100
0010
0000
,  // measure 38
1001
0100
0001
0000
1000
0000
0001
0010
0000
0000
0000
0000
0000
0000
0000
0000
,  // measure 39
1001
0100
0010
0100
1001
0010
0100
0010
1001
0100
0010
0100
1001
0000
0110
0000
,  // measure 40
1001
0000
0000
0000
0011
1000
0001
0000
1100
0000
0000
0000
0110
1000
0010
0000
,  // measure 41
0101
1000
0100
0000
0001
0000
1000
0100
0000
0000
0000
0000
1010
0100
0010
0000
,  // measure 42
1100
0001
0100
0000
0010
0000
1000
0001
0000
0000
0000
0000
0000
0000
0000
0000
,  // measure 43
1001
0010
0100
0010
1001
0100
0010
0100
0010
0000
1010
0000
0202
0000
0000
0303
,  // measure 44
1001
0000
0110
0000
1100
0000
0101
0000
0001
0000
0100
1000
0000
0001
0010
0000
,  // measure 45
0101
0000
0011
0000
1000
0100
0000
1000
0010
0000
0100
0001
0000
1000
0100
0000
,  // measure 46
1100
0000
0101
0000
0010
0001
0000
0100
0010
0000
1000
0001
0000
0010
0100
0000
,  // measure 47
1001
0000
1100
0000
1000
0001
0010
0000
0001
0000
0011
0000
1100
0000
0000
0000
,  // measure 48
1001
0000
1010
0000
0100
0001
0000
1000
0001
0000
0010
1000
0000
0001
0100
0000
,  // measure 49
1010
0000
0011
0000
0100
1000
0000
0001
0010
0000
1000
0010
0000
1000
0001
0000
,  // measure 50
1100
0000
1010
0000
1000
0010
0000
1000
0001
0000
0100
0001
0000
0010
1000
0000
,  // measure 51
1001
0000
1100
0000
0101
1000
0010
0000
1001
0000
1001
0000
0220
0000
0000
0330
,  // measure 52
2002
0000
0000
0000
,  // measure 53
0000
0000
0000
0000
0000
0000
0000
3003
;

//---------------dance-single - ----------------
#NOTES:
     dance-single:
     :
     Hard:
     8:
     0.702,0.720,0.850,0.545,0.283,323.000,78.000,50.000,0.000,0.000:  // measure 1
0000
0000
0000
0000
,  // measure 2
0000
0000
0000
0000
,  // measure 3
0000
0000
0000
0000
,  // measure 4
1000
0000
0001
0000
0100
0001
0000
0010
1000
0001
0100
0001
1000
0000
0001
0000
,  // measure 5
0100
0000
0001
0000
0010
0001
0000
1000
0100
0001
0010
0001
0100
0000
0010
0000
,  // measure 6
1000
0000
0100
0000
0010
0100
0000
0010
0001
0010
0100
0010
0001
0000
1000
0000
,  // measure 7
2002
0000
0000
3003
,  // measure 8
2001
0000
0100
0000
3010
0000
1002
0000
0010
0000
0000
0100
0000
0000
1003
0000
,  // measure 9
0001
0000
0012
0000
0000
1000
0000
0000
0100
0000
0000
0010
0000
0000
0103
0000
,  // measure 10
0201
0000
0010
0000
0301
0000
2100
0000
0010
0000
0000
0100
0000
0000
3001
0000
,  // measure 11
2100
0000
0100
0000
3001
0000
0201
0000
0020
0000
0000
0030
2000
0000
0000
3300
,  // measure 12
0120
0000
1000
0000
0130
0000
2010
0000
0100
0000
0000
0001
0000
0000
3010
0000
,  // measure 13
0001
0000
0102
0000
0000
0100
0000
0000
0010
0000
0000
1000
0000
0000
0103
0000
,  // measure 14
1200
0000
0010
0000
1300
0000
0102
0000
0010
0000
0000
0100
0000
0000
1003
0000
,  // measure 15
1000
0000
2001
0000
0000
0100
0000
0000
0020
0000
0000
0030
0002
0000
0000
3003
,  // measure 16
1100
0000
1000
0000
0001
0000
0100
0000
0001
0000
1000
0010
0000
0000
0101
0000
,  // measure 17
1000
0010
0100
0001
1001
0000
0000
0000
,  // measure 18
1000
0001
1000
0000
1001
0000
0000
0000
0011
0000
0001
0010
0000
0000
0000
0000
,  // measure 19
0001
1000
0100
0000
1010
0000
1000
0000
0101
0000
0000
0000
0000
0000
0000
0000
,  // measure 20
0110
0000
0100
0000
0001
0000
1000
0100
0000
0000
0001
0000
1000
0000
0010
0000
,  // measure 21
1000
0001
0100
0010
1010
0000
0000
0000
,  // measure 22
0010
0001
0010
0000
1100
0000
0000
0000
0101
0000
0100
1000
0000
0000
0000
0000
,  // measure 23
1000
0010
0100
0000
0101
0000
0010
0000
1001
0000
0000
0000
0100
0000
0100
0000
,  // measure 24
2100
0000
0020
0000
0000
0030
0001
3001
,  // measure 25
0012
1000
0100
1000
0010
1000
0103
0000
,  // measure 26
1001
0100
0001
1000
1010
0100
0001
0010
,  // measure 27
1001
0100
1001
0010
1001
0100
0020
0000
,  // measure 28
1030
0000
0001
0000
1000
0000
0001
0000
0100
0000
0010
0100
0000
0000
0010
0000
,  // measure 29
1000
0001
1000
0000
0100
0000
0010
0000
0202
0000
0000
0000
0000
0000
0303
0000
,  // measure 30
0100
0001
0100
0000
0110
0000
0000
0000
1010
0000
1000
0001
0000
0000
0000
0000
,  // measure 31
1000
0100
0010
0000
0011
0000
1000
0000
1100
0000
0000
0000
0000
0000
0000
0000
,  // measure 32
1100
0000
0010
0000
1000
0000
0001
0000
0100
0000
0001
1000
0000
0000
0100
0000
,  // measure 33
1000
0010
1000
0000
0001
0000
1000
0000
2200
0000
0000
0000
0000
0000
3300
0000
,  // measure 34
0001
1000
0100
0000
1001
0000
0000
0000
1010
0000
0100
1000
0000
0000
0000
0000
,  // measure 35
0001
0010
1000
0000
1010
0000
0100
0000
0011
0000
0000
0000
0021
0000
0031
0000
,  // measure 36
1100
0000
2100
3100
1010
0000
0001
1000
,  // measure 37
1100
0000
0100
0000
0010
0000
0001
1000
0000
0000
0000
0000
0001
0000
0010
0000
,  // measure 38
0101
0000
0001
0000
1000
0000
0100
1000
0000
0000
0000
0000
0000
0000
0000
0000
,  // measure 39
1001
0100
1001
0010
1001
0100
1200
1300
,  // measure 40
0011
0000
0012
0013
0101
0000
1000
0100
,  // measure 41
1001
0000
0100
0000
0001
0000
1000
0010
0000
0000
0000
0000
0001
0000
1000
0000
,  // measure 42
1100
0000
0010
0000
1000
0000
0001
0100
0000
0000
0000
0000
0000
0000
0000
0000
,  // measure 43
1001
0010
1001
0100
1001
0000
0110
0000
,  // measure 44
2001
0000
0100
0000
3010
0000
1002
0000
0010
0000
0000
0100
0000
0000
1003
0000
,  // measure 45
0001
0000
0012
0000
0000
1000
0000
0000
0100
0000
0000
0010
0000
0000
0103
0000
,  // measure 46
0201
0000
0010
0000
0301
0000
2100
0000
0010
0000
0000
0100
0000
0000
3001
0000
,  // measure 47
2100
0000
0100
0000
3001
0000
0201
0000
0020
0000
0000
0030
2000
0000
0000
3300
,  // measure 48
0120
0000
1000
0000
0130
0000
2010
0000
0100
0000
0000
0001
0000
0000
3010
0000
,  // measure 49
0001
0000
0102
0000
0000
0100
0000
0000
0010
0000
0000
1000
0000
0000
0103
0000
,  // measure 50
1200
0000
0010
0000
1300
0000
0102
0000
0010
0000
0000
0100
0000
0000
1003
0000
,  // measure 51
0010
0000
0120
0000
0000
1000
0000
0000
0002
0000
0000
0003
0200
0000
0000
0330
,  // measure 52
2002
0000
0000
0000
,  // measure 53
0000
0000
0000
0000
0000
0000
0000
3003
;

//---------------dance-single - ----------------
#NOTES:
     dance-single:
     :
     Medium:
     6:
     0.501,0.519,0.589,0.131,0.000,256.000,54.000,12.000,0.000,0.000:  // measure 1
0000
0000
0000
0000
,  // measure 2
0000
0000
0000
0000
,  // measure 3
0000
0000
0000
0000
,  // measure 4
1000
0001
1000
0000
1100
0000
0101
0000
,  // measure 5
0001
0100
0001
0000
1010
0000
0110
0000
,  // measure 6
0010
0100
0010
0000
0011
0000
1100
0000
,  // measure 7
2002
0000
0000
3003
,  // measure 8
1100
0000
0011
0000
1000
0100
1000
0000
,  // measure 9
1001
0000
0110
0000
0001
0010
0001
0000
,  // measure 10
0101
0000
0011
0000
1000
0001
1000
0000
,  // measure 11
0100
1000
0010
0000
1010
0000
0101
0000
,  // measure 12
1001
0000
1100
0000
0001
1000
0010
0000
,  // measure 13
0011
0000
0101
0000
0001
1000
0001
0000
,  // measure 14
1010
0000
0011
0000
1000
0100
1000
0000
,  // measure 15
0010
1000
0010
0000
0110
0000
1002
0000
,  // measure 16
1003
0100
0010
0001
0100
0001
1000
0000
,  // measure 17
0010
1000
0100
0000
1001
0000
0000
0000
,  // measure 18
1000
0100
1000
0000
0010
0001
0010
0000
,  // measure 19
1000
0100
0010
0001
0100
0000
0000
0000
,  // measure 20
0001
0010
0100
1000
0001
0100
1000
0000
,  // measure 21
0001
0010
1000
0000
0110
0000
0000
0000
,  // measure 22
0001
1000
0100
0000
1000
0001
0010
0000
,  // measure 23
1000
0001
0100
0010
1000
0000
0001
1000
,  // measure 24
2001
0010
0001
3100
,  // measure 25
1020
0001
1000
0130
,  // measure 26
0001
1000
0100
0000
1000
0001
0100
0010
,  // measure 27
1001
1100
1001
1002
,  // measure 28
1003
0100
1000
0100
0010
0001
0010
0001
,  // measure 29
1000
0100
0010
0001
1000
0000
0000
0000
,  // measure 30
1000
1000
1100
0000
0001
0001
0101
0000
,  // measure 31
0001
1000
0100
0010
1001
0000
0000
0000
,  // measure 32
1000
0001
1000
0001
0100
0001
1000
0010
,  // measure 33
1000
0001
0100
0010
1000
0000
0000
0000
,  // measure 34
1000
0001
1001
0000
0010
0001
1001
0000
,  // measure 35
1000
0100
0010
0100
0001
0000
1000
0001
,  // measure 36
0010
0000
0100
1000
0001
0000
0010
0001
,  // measure 37
1000
0100
0010
0001
0010
0000
1000
0001
,  // measure 38
0100
0001
0100
0001
1000
0000
0000
0000
,  // measure 39
1001
1100
0101
0110
,  // measure 40
1001
0000
0010
0100
0010
0000
1000
0010
,  // measure 41
0100
0001
1000
0100
0001
0000
0010
0100
,  // measure 42
0001
0010
0001
1000
0100
0000
0000
0000
,  // measure 43
1010
0101
0021
0230
,  // measure 44
1300
0000
0101
0000
0001
1000
0001
0000
,  // measure 45
0101
0000
1010
0000
0010
1000
0100
0000
,  // measure 46
0110
0000
0011
0000
0001
0010
0100
0000
,  // measure 47
1000
0001
0100
0000
1001
0000
1100
0000
,  // measure 48
1000
0100
1000
0000
0001
0010
0001
0000
,  // measure 49
1000
0001
0100
0000
0001
1000
0100
0000
,  // measure 50
2010
0100
0010
3001
,  // measure 51
0012
1000
0100
0013
,  // measure 52
0202
0000
0000
0000
,  // measure 53
0000
0000
0000
0000
0000
0000
0000
0303
;

//---------------dance-single - ----------------
#NOTES:
     dance-single:
     :
     Easy:
     3:
     0.315,0.346,0.294,0.087,0.000,167.000,27.000,8.000,0.000,0.000:  // measure 1
0000
0000
0000
0000
,  // measure 2
0000
0000
0000
0000
,  // measure 3
0000
0000
0000
0000
,  // measure 4
1000
0010
0100
1000
,  // measure 5
0001
1000
0001
0100
,  // measure 6
0001
0010
1000
0100
,  // measure 7
1001
0000
0000
0000
,  // measure 8
1000
0010
0001
1100
,  // measure 9
0001
0100
1000
0011
,  // measure 10
0100
1000
0001
0110
,  // measure 11
0001
0100
1010
0101
,  // measure 12
0010
0100
1000
0011
,  // measure 13
0001
1000
0100
1010
,  // measure 14
1000
0010
0100
0101
,  // measure 15
0001
1000
0110
1001
,  // measure 16
2000
0000
0000
3000
0200
0000
0000
0300
,  // measure 17
1000
0001
1001
0000
,  // measure 18
0010
0100
0001
0000
,  // measure 19
1000
0001
0110
0000
,  // measure 20
0002
0000
0000
0003
0200
0000
0000
0300
,  // measure 21
0010
1000
0101
0000
,  // measure 22
0100
1000
0010
0000
,  // measure 23
0100
0001
1000
0001
,  // measure 24
2002
0000
3003
0100
,  // measure 25
0020
0000
0030
1000
,  // measure 26
0001
0001
1000
1000
,  // measure 27
0010
0010
0100
0100
,  // measure 28
1000
1000
0100
0001
,  // measure 29
1000
0010
0100
0000
,  // measure 30
0001
1000
0001
1000
,  // measure 31
0100
1000
1001
0000
,  // measure 32
0010
0010
1000
0100
,  // measure 33
1000
0001
1000
0000
,  // measure 34
0100
0010
0100
0010
,  // measure 35
1000
0001
1001
0000
,  // measure 36
0010
0001
1000
0000
,  // measure 37
0001
0100
1000
0000
,  // measure 38
0001
1000
0010
0000
,  // measure 39
0001
0001
0100
0100
,  // measure 40
1000
0001
1000
0000
,  // measure 41
0010
1000
0010
0000
,  // measure 42
0001
0100
0001
0000
,  // measure 43
1000
1000
1001
1001
,  // measure 44
1000
0001
1000
1100
,  // measure 45
0100
0010
1000
1010
,  // measure 46
0100
0001
0100
0101
,  // measure 47
1000
0001
0011
1100
,  // measure 48
0001
1000
0010
0110
,  // measure 49
0100
0001
1000
1001
,  // measure 50
0010
1000
0010
1010
,  // measure 51
1000
1000
0001
0001
,  // measure 52
0200
0000
0000
0000
,  // measure 53
0000
0000
0000
0000
0000
0000
0000
0300
;

//---------------dance-single - ----------------
#NOTES:
     dance-single:
     :
     Beginner:
     1:
     0.178,0.202,0.065,0.011,0.000,107.000,6.000,1.000,0.000,0.000:  // measure 1
0000
0000
0000
0000
,  // measure 2
0000
0000
0000
0000
,  // measure 3
0000
0000
0000
0000
,  // measure 4
1000
0000
0001
0000
,  // measure 5
0100
0000
0001
0000
,  // measure 6
1000
0000
0010
0000
,  // measure 7
0001
0000
0000
0000
,  // measure 8
1000
0000
0100
0000
,  // measure 9
1000
0100
1000
0000
,  // measure 10
0001
0000
0010
0000
,  // measure 11
0001
0100
0001
0000
,  // measure 12
1000
0000
0010
0000
,  // measure 13
0100
0001
0100
0000
,  // measure 14
0010
0000
1000
0000
,  // measure 15
1001
0000
0100
0100
,  // measure 16
1000
0000
0001
0000
,  // measure 17
0100
0100
0100
0000
,  // measure 18
0010
0000
1000
0000
,  // measure 19
0001
0000
0101
0000
,  // measure 20
0100
0000
0001
0000
,  // measure 21
1000
1000
1000
0000
,  // measure 22
1000
0000
0001
0000
,  // measure 23
0010
0000
1000
0000
,  // measure 24
1001
0000
0000
0000
,  // measure 25
0110
0000
0000
0000
,  // measure 26
0001
0000
1000
0000
,  // measure 27
0100
0100
0100
0100
,  // measure 28
1000
0000
0010
0000
,  // measure 29
1000
0001
0100
0000
,  // measure 30
0001
0000
0010
0000
,  // measure 31
1000
0000
1001
0000
,  // measure 32
0100
0000
0001
0000
,  // measure 33
1000
0010
1000
0000
,  // measure 34
0001
0000
1000
0000
,  // measure 35
0001
0000
0011
0000
,  // measure 36
1000
0000
0001
0000
,  // measure 37
1000
0000
0001
0000
,  // measure 38
0010
0010
0010
0000
,  // measure 39
0001
0000
0001
0001
,  // measure 40
0001
0000
0100
0000
,  // measure 41
0001
0000
1000
0000
,  // measure 42
0100
0100
0100
0000
,  // measure 43
0001
0000
0010
0000
,  // measure 44
1000
0000
0001
0000
,  // measure 45
1000
0000
0001
0000
,  // measure 46
0100
0000
0001
0000
,  // measure 47
1000
0000
0010
0000
,  // measure 48
0100
0000
0010
0000
,  // measure 49
0100
0000
0010
0000
,  // measure 50
0001
0000
1000
0000
,  // measure 51
0100
0000
0010
0000
,  // measure 52
0200
0000
0000
0000
,  // measure 53
0000
0000
0000
0000
0000
0000
0000
0300
;
