#TITLE:Death Reveals;
#SUBTITLE:;
#ARTIST:The BerZerker;
#TITLETRANSLIT:;
#SUBTITLETRANSLIT:;
#ARTISTTRANSLIT:;
#CREDIT:;
#BANNER:banner.bmp;
#BACKGROUND:White1024x768.jpg;
#LYRICSPATH:;
#CDTITLE:!smb-title.bmp;
#MUSIC:The Berzerker- Death reveals.mp3;
#OFFSET:0.000;
#SAMPLESTART:99.860;
#SAMPLELENGTH:12.000;
#SELECTABLE:YES;
#BPMS:0.000=280.000,74.250=304.999,106.500=279.999,168.000=304.999,201.250=279.999,261.250=304.999,294.250=279.999,457.000=304.999,489.750=279.999;
#STOPS:;
#BGCHANGES:;
// cache tags:
#FIRSTBEAT:13.750;
#LASTBEAT:551.250;
#SONGFILENAME:Songs/toune 3/The Berzerker- Death reveals/The Berzerker- Death reveals.sm;
#HASMUSIC:1;
#HASBANNER:1;
#MUSICLENGTH:116.331;
// end cache tags

//---------------dance-single - ----------------
#NOTES:
     dance-single:
     :
     Hard:
     13:
     1.000,1.000,1.000,0.327,1.000,1241.000,447.000,38.000,0.000,2.000:
0000
0000
0000
0000
,
0000
0000
0000
0000
,
0000
0000
0000
0000
,
0000
0000
0000
0000
0000
0000
0000
1100
0000
0010
0000
1001
0000
0100
0000
1010
,
0000
0001
0000
1100
0000
0001
0000
1010
0000
0100
0000
0011
0000
0100
0000
1001
,
0000
0010
0000
1100
0000
0010
0000
0101
0000
1000
0000
0011
0000
0100
0000
1010
,
0000
0000
0000
0001
0000
0000
0000
0000
0000
0110
0000
0000
0000
0000
0000
1000
0000
0000
0000
0000
0000
0011
0000
0000
0000
0000
0000
1000
0000
0000
0000
0000
0000
0110
0000
0000
0000
0000
0000
0000
1000
0000
0001
0000
1000
0000
0001
0000
,
1000
0000
0001
0000
1000
0000
0001
0000
1000
0000
0000
0000
0000
0000
0000
0110
0000
0000
0000
0000
0000
0001
0000
0000
0000
0000
0000
1010
0000
0000
0000
0000
0000
0100
0000
0000
0000
0000
0000
0011
0000
0000
0000
0000
0000
1000
0000
0000
,
0000
0101
0000
0010
0000
1100
0000
0001
0000
1010
0000
0100
0000
1001
0000
0010
,
0000
1100
0000
0001
0000
0110
0000
1000
0000
0011
0000
1000
0000
0011
0000
0100
,
0000
0000
0000
1010
0000
0000
0001
0000
0100
0000
0001
0000
0100
0000
0001
0000
0100
0000
0001
0000
1000
0000
0010
0000
1000
0000
0010
0000
1000
0000
0010
0000
1000
0000
0010
0000
1000
0000
0000
0101
0000
0000
0000
0000
0000
0000
0000
0000
,
0000
1010
0000
0100
0000
1010
0000
0100
0000
1010
0000
0100
0000
1010
0000
0100
,
0000
0011
0000
1000
0000
0011
0000
1000
0000
0011
0000
0100
1000
0100
0010
0000
,
0000
0000
0000
1100
0000
0000
0000
0000
0000
0001
0000
0000
0000
0000
0000
1100
0000
0000
0000
0000
0000
0001
0000
0000
0000
0000
0000
1100
0000
0000
0000
0000
0000
0001
0000
0000
0000
0000
0000
1100
0000
0000
0000
0000
0010
0000
0100
0000
,
0010
0000
0100
0000
0010
0000
0100
0000
0010
0000
0100
0000
0010
0000
0100
0000
0010
0000
0100
0000
0010
0000
0100
0000
0010
0000
0100
0000
0010
0000
0100
0000
0010
0000
0100
0000
0010
0000
0000
1001
0000
0000
0000
0000
0000
0010
0000
0000
,
0000
1100
0000
0001
0000
0110
0000
1000
0000
0011
0000
0100
0000
1001
0000
0010
,
0000
1100
0000
0001
0000
1010
0000
0100
0000
0011
0000
1000
0000
0110
0000
0001
,
0000
1010
0000
0100
0000
1001
0000
0010
0000
1100
0000
0220
0000
0000
0000
0330
,
0000
0022
0000
0000
0000
0000
0000
0000
0033
1000
0100
0010
0001
0010
0100
1000
,
0100
0010
0100
1000
0100
0010
0001
0010
0100
1000
0100
0010
0100
1000
0100
0010
,
0001
0010
0100
0010
0100
0010
0100
0010
0100
0010
0001
0010
0100
1000
0100
0010
,
0001
0010
0100
0010
0001
0010
0100
1000
0100
0010
0001
0010
0100
0010
0001
0010
,
0100
1000
0100
0011
0000
0000
0000
0011
0000
0000
0000
0001
0010
0100
1000
0100
,
0010
0001
0010
0100
1000
0100
0010
0001
0010
0100
1000
0101
0000
0000
0000
0101
,
0000
0000
0000
1010
0000
0000
0000
1010
0000
0000
0000
1000
0100
0010
0001
1000
,
0100
0010
0001
0010
0100
1000
0001
0010
0100
1000
0100
0010
0001
1100
0000
0000
,
0000
1100
0000
0000
0000
0011
0000
1000
0000
0011
0000
1100
0000
0001
0000
1010
,
0000
0100
0000
1001
0000
0100
0000
1010
0000
0001
0000
0110
0000
1000
0000
0011
,
0000
0100
0000
1001
0000
0010
0000
1100
0000
0001
0000
0110
0000
1000
0000
0011
,
0000
0100
0000
1001
0000
0010
0000
1100
0000
0001
0000
0110
0000
1000
0000
0011
,
0000
0100
0000
1001
0000
1001
0000
1001
0000
0110
0000
0001
0000
1010
0000
0100
,
0000
1001
0000
0010
0000
1100
0000
0001
0000
0110
0000
1000
0000
0101
0000
0010
,
0000
1001
0000
0100
0000
0011
0000
1000
0000
0110
0000
0001
0000
1010
0000
0100
,
0000
1010
0000
1001
0000
1001
0000
0220
0000
0000
0000
0000
0330
0000
2002
0000
,
0000
0000
0000
0000
3003
0000
0000
1000
0100
0010
0001
0000
0000
0000
1100
0000
0000
0000
0010
0000
0000
0000
0101
0000
0000
0000
1000
0000
0000
0000
0110
0000
,
0000
0001
0000
1010
0000
0100
0000
0011
0000
0100
0000
1010
0000
0001
0000
1010
,
0000
0100
0000
0011
0000
0100
0000
0011
0000
1000
0000
0101
0000
0010
0000
1100
,
0000
0001
0000
0110
0000
1000
0000
0011
0000
0100
0000
1001
0000
0110
0000
0110
,
0000
0110
0000
1001
0000
0100
0000
0011
0000
0100
0000
1001
0000
0010
0000
1100
,
0000
0001
0000
0110
0000
1000
0000
0011
0000
0100
0000
1001
0000
0010
0000
1100
,
0000
0001
0000
1100
0000
0010
0000
0101
0000
1000
0000
0011
0000
1100
0000
1100
,
0000
0000
0022
0000
0000
0000
0000
0000
0000
0000
0000
0000
0000
0000
2233
0000
0000
0000
0000
0000
0000
0000
0000
0000
3300
0000
0001
0010
0100
1000
0000
0000
,
0000
0001
0010
0100
1000
0100
0010
0001
0010
0100
1000
0100
0010
0001
0010
0100
,
1000
0010
1000
0010
1000
0010
1000
0001
0100
0001
0100
0001
0100
0001
0100
0001
,
0010
0100
1000
0100
0010
0001
0010
0100
1000
0100
0010
0001
0010
0100
1000
0100
,
0010
0001
0010
0100
1000
0100
0010
0001
0010
1100
0000
0000
0000
1100
0000
0000
,
0000
1000
0100
0010
0001
0010
0100
1000
0100
0010
0001
0010
0100
1000
0100
0010
,
0001
1010
0000
0000
0000
1010
0000
0000
0000
0101
0000
0000
0000
0101
0000
0000
,
0000
0001
0010
0100
1000
0100
0010
0001
0010
0100
1000
0100
0010
0001
0010
0100
,
1000
0011
0000
0000
0000
0011
0000
0000
0000
1100
0000
0001
0000
1100
0000
0001
,
0000
1100
0000
0000
0000
0011
0000
1000
0000
0101
0000
0010
0000
1100
0000
0001
,
0000
0110
0000
0001
0000
1010
0000
0100
0000
0011
0000
1000
0000
0110
0000
0001
,
0000
1010
0000
0100
0000
1001
0000
0010
0000
1100
0000
0001
0000
0110
0000
0001
,
0000
1010
0000
0100
0000
0011
0000
0100
0000
1001
0000
1001
0000
1001
0000
0100
,
0000
0011
0000
1000
0000
0110
0000
0001
0000
1010
0000
0100
0000
0011
0000
1000
,
0000
0101
0000
0010
0000
1001
0000
0100
0000
1010
0000
0001
0000
0110
0000
1000
,
0000
0101
0000
0010
0000
1100
0000
0001
0000
1100
0000
0011
0000
0011
0000
2200
,
0000
0000
0000
0000
3300
0022
0000
0000
0000
0000
0033
0000
0000
1100
0000
0010
,
0000
1001
0000
0100
0000
0011
0000
1000
0000
0110
0000
0001
0000
1010
0000
0100
,
0000
0011
0000
0100
0000
1010
0000
0001
0000
0110
0000
0001
0000
1010
0000
0100
,
0000
1001
0000
0010
0000
1100
0000
0001
0000
0110
0000
1000
0000
0101
0000
0010
,
0000
1100
0000
1100
0000
1100
0000
0001
0000
1010
0000
0100
0000
0011
0000
1000
,
0000
0110
0000
0001
0000
1010
0000
0100
0000
0011
0000
0100
0000
1001
0000
0010
,
0000
1100
0000
0001
0000
0110
0000
0001
0000
1010
0000
0100
0000
0011
0000
1000
,
0000
0011
0000
1100
0000
1100
0000
0022
0000
0000
0000
0000
0000
2233
0000
0000
,
0000
0000
0000
3300
0000
0001
1000
0010
0100
0001
1000
0010
0100
0001
1000
0010
,
0100
0001
1000
0010
0100
0010
0001
0010
0100
1000
0100
0010
0001
0010
0100
1000
,
0001
1000
0001
1000
0001
1000
0001
1000
0001
0100
0010
1000
0001
0100
0010
1000
,
0001
0100
0010
1000
0001
0100
0010
1000
0001
0100
0010
1000
0001
0100
0010
1001
,
0000
0000
0000
1001
0000
0000
0000
1000
0001
0100
0010
1000
0001
0100
0010
1000
,
0001
0100
0010
1000
0001
0100
0000
1001
0000
0000
0000
1001
0000
0000
0000
0110
,
0000
0000
0000
0110
0000
0000
0000
1000
0001
0100
0010
1000
0001
0100
0010
1000
,
0001
0100
0010
1000
0001
0100
0010
1000
0101
0000
0000
0000
0101
0000
0000
0000
,
0011
0000
0100
0000
0011
0000
0100
0000
0000
1001
0000
0010
0000
1100
0000
0001
,
0000
0110
0000
0001
0000
1010
0000
0100
0000
0011
0000
1000
0000
0110
0000
0001
,
0000
1010
0000
0100
0000
0011
0000
1000
0000
0101
0000
0010
0000
1100
0000
0001
,
0000
0110
0000
1000
0000
0101
0000
0010
0000
1100
0000
0001
0000
0110
0000
0110
,
0000
0110
0000
1000
0000
0101
0000
0010
0000
1100
0000
0001
0000
0110
0000
1000
,
0000
0101
0000
0010
0000
1001
0000
0100
0000
0011
0000
0100
0000
1010
0000
0100
,
0000
0011
0000
1000
0000
0110
0000
0001
0000
1010
0000
0100
0000
0011
0000
0011
,
0000
0220
0000
0000
0000
0000
0330
0000
0000
2002
0000
0000
0000
0000
0000
3003
,
0000
0110
0000
0001
0000
1010
0000
0100
0000
1001
0000
0010
0000
1100
0000
0001
,
0000
0110
0000
1000
0000
0011
0000
0100
0000
1001
0000
0010
0000
1100
0000
0001
,
0000
0110
0000
1000
0000
0101
0000
0010
0000
1001
0000
0100
0000
1010
0000
0001
,
0000
1100
0000
0001
0000
0110
0000
1000
0000
0101
0000
0101
0000
0101
0000
0010
,
0000
1100
0000
0001
0000
0110
0000
1000
0000
0011
0000
0100
0000
1010
0000
0001
,
0000
0110
0000
1000
0000
0101
0000
0010
0000
1001
0000
0100
0000
0011
0000
1000
,
0000
0110
0000
0001
0000
1010
0000
0100
0000
0011
0000
0011
0000
2200
0000
0000
,
0000
0000
3300
0000
0000
0110
0000
0000
0001
0010
0100
2002
0000
0000
0000
0000
,
0000
3003
0000
0110
0000
0000
0000
0000
0000
0000
0000
0000
0000
0000
0101
0000
,
0000
0000
1010
0000
0000
0000
0110
0000
0000
1100
0000
0011
0000
1100
0000
0011
,
0000
1100
0000
0011
0000
1100
0000
1001
0000
0110
0000
1001
0000
0110
0000
1001
,
0000
0110
0000
1001
0000
0101
0000
1010
0000
0101
0000
1010
0000
0101
0000
1010
,
0000
0101
0000
1010
0000
0101
0000
1010
0000
0011
0000
1100
0000
0011
0000
1100
,
0000
0011
0000
1100
0000
0011
0000
1001
0000
0110
0000
1001
0000
0110
0000
1001
,
0000
0110
0000
1001
0000
0110
0000
0101
0000
1010
0000
0101
0000
1010
0000
0101
,
0000
1010
0000
0101
0000
1100
0000
0011
0000
1100
0000
0011
0000
1100
0000
0011
,
0000
1100
0000
0110
0000
1001
0000
0110
0000
1001
0000
0110
0000
1001
0000
0110
,
0000
1001
0000
0101
0000
1010
0000
0101
0000
1010
0000
0101
0000
1010
0000
0101
,
0000
1010
0000
0101
0000
1100
0000
0011
0000
1100
0000
0011
0000
1100
0000
0011
,
0000
1100
0000
0011
0000
1100
0000
0011
0000
0011
0000
0011
0000
0011
0000
0011
,
0000
0011
0000
0011
0000
0011
0000
0011
0000
0011
0000
0011
0000
0011
0000
0011
,
1000
0010
1000
0010
1000
0010
1000
0010
1000
0010
1000
0010
1000
0010
1000
0010
,
1000
0010
1000
0010
1000
0010
1000
0000
0000
0000
0000
0000
0000
0001
0100
0001
,
0100
0001
0100
0001
0000
0000
0000
0000
0000
0000
0000
0000
0000
0000
0000
0000
,
0000
0000
0000
0000
0000
0000
0000
0000
0000
0000
0000
0000
0010
0100
0010
0100
,
0010
0100
0010
0100
0010
0100
0010
0100
0010
0100
0010
0100
0010
0100
0010
0100
,
0010
0000
0000
0000
0000
0000
0000
0000
0000
0000
0000
0001
1000
0001
1000
0001
,
1000
0001
1000
0001
1000
0001
1000
0001
1000
0001
1000
0001
1000
0001
1000
0001
,
0000
0000
0000
0000
0000
0000
0000
0000
0000
0000
1000
0010
1000
0010
1000
0010
,
1000
0010
1000
0010
1000
0010
1000
0010
1000
0010
1000
0010
1000
0010
0000
0000
,
0000
0000
0000
0000
0000
0000
0000
0000
0100
0001
0100
0001
0100
0001
0100
0001
,
0100
0001
0100
0001
0100
0001
1010
0000
0000
0000
0000
0000
0100
0010
0100
0010
,
0100
0010
0100
0010
0100
1000
0100
0010
0001
0010
0100
1000
0100
0010
0001
0010
,
0100
1000
0100
0010
0100
1000
0100
0010
0001
0010
0100
1000
0001
0010
0100
1000
,
0100
0010
0001
1000
0100
0010
0001
0010
0100
1000
0001
0010
0100
1000
0001
1000
,
0001
1000
0001
1000
0001
1000
0100
0010
0001
0010
0100
1000
0001
0010
0100
1000
,
0100
0010
0001
1000
0100
0010
0001
0010
0100
1000
0001
0010
0100
0011
0000
0000
,
0000
0011
0000
0000
0000
1000
0100
0010
0001
0010
0100
1000
0001
0010
0100
1000
,
0100
0010
0001
1000
0100
0010
0001
1100
0000
0000
0000
1100
0000
0000
0000
0011
,
0000
0000
0000
0011
0000
1000
0100
0010
0001
0010
0100
1000
0001
0010
0100
1000
,
0100
0010
0001
1000
0100
0010
0001
1100
0000
0000
0000
1100
0000
0000
0000
0101
,
0000
0010
0000
0101
0000
0010
0000
1100
0000
0010
0000
0101
0000
0010
0000
1100
,
0000
0001
0000
0110
0000
1000
0000
0101
0000
0010
0000
1100
0000
0001
0000
0110
,
0000
1000
0000
0101
0000
0010
0000
1001
0000
0100
0000
0011
0000
0100
0000
1010
,
0000
0001
0000
0110
0000
1000
0000
0101
0000
1000
0000
0011
0000
0011
0000
0011
,
0000
0011
0000
0011
0000
0100
0000
1010
0000
0100
0000
0011
0000
0100
0000
1010
,
0000
0100
0000
0011
0000
1000
0000
0101
0000
0010
0000
1001
0000
0100
0000
0011
,
0000
1000
0000
0110
0000
0001
0000
1010
0000
0100
0000
1001
0000
0110
0000
0110
,
0000
2002
0000
0000
0000
0000
0000
3003
0000
0220
0000
0000
0000
0000
0330
0000
,
0000
1100
0000
0001
0000
0110
0000
1000
0000
0101
0000
0010
0000
1100
0000
0001
,
0000
0110
0000
1000
0000
0101
0000
0010
0000
1001
0000
0100
0000
0011
0000
1000
,
0000
0110
0000
0001
0000
1010
0000
0100
0000
1001
0000
0010
0000
1100
0000
0001
,
0000
0110
0000
0110
0000
0110
0000
0110
0000
0110
0000
0110
0000
0110
0000
0001
,
0000
1100
0000
0010
0000
1001
0000
0100
0000
0011
0000
1000
0000
0110
0000
0001
,
0000
1010
0000
0100
0000
1001
0000
0010
0000
1100
0000
0001
0000
0110
0000
1000
,
0000
0011
0000
0100
0000
0011
0000
1100
0000
1100
0000
0022
0000
0000
0000
0000
,
0033
2200
3300
0011
0000
0101
0000
0110
0000
2020
0000
0000
0000
3030
0000
0000
;

//---------------dance-single - Copied from----------------
#NOTES:
     dance-single:
     Copied from:
     Challenge:
     13:
     1.000,1.000,1.000,0.327,1.000,1240.000,448.000,38.000,0.000,81.000:
0000
0000
0000
0000
,
0000
0000
0000
0000
,
0000
0000
0000
0000
,
0000
0000
0000
0000
0000
0000
0000
1100
0000
0010
0000
1001
0000
0100
0000
1010
,
0000
0001
0000
1100
0000
0001
0000
1010
0000
0100
0000
0011
0000
0100
0000
1001
,
0000
0010
0000
1100
0000
0010
0000
0101
0000
1000
0000
0011
0000
0100
0000
1010
,
0000
0000
0000
0001
0000
0000
0000
0000
0000
0110
0000
0000
0000
0000
0000
1000
0000
0000
0000
0000
0000
0011
0000
0000
0000
0000
0000
1000
0000
0000
0000
0000
0000
0110
0000
0000
0000
0000
0000
0000
1000
0000
0001
0000
1000
0000
0001
0000
,
1000
0000
0001
0000
1000
0000
0001
0000
1000
0000
0000
0000
0000
0000
0000
0110
0000
0000
0000
0000
0000
0001
0000
0000
0000
0000
0000
1010
0000
0000
0000
0000
0000
0100
0000
0000
0000
0000
0000
0011
0000
0000
0000
0000
0000
1000
0000
0000
,
0000
0101
0000
0010
0000
1100
0000
0001
0000
1010
0000
0100
0000
1001
0000
0010
,
0000
1100
0000
0001
0000
0110
0000
1000
0000
0011
0000
1000
0000
0011
0000
0100
,
0000
0000
0000
1010
0000
0000
0001
0000
0100
0000
0001
0000
0100
0000
0001
0000
0100
0000
0001
0000
1000
0000
0010
0000
1000
0000
0010
0000
1000
0000
0010
0000
1000
0000
0010
0000
1000
0000
0000
0101
0000
0000
0000
0000
0000
0000
0000
0000
,
0000
1010
0000
0100
0000
1010
0000
0100
0000
1010
0000
0100
0000
1010
0000
0100
,
0000
0011
0000
1000
0000
0011
0000
1000
0000
0011
0000
0100
1000
0100
0010
0000
,
0000
0000
0000
1100
0000
0000
0000
0000
0000
0001
0000
0000
0000
0000
0000
1100
0000
0000
0000
0000
0000
0001
0000
0000
0000
0000
0000
1100
0000
0000
0000
0000
0000
0001
0000
0000
0000
0000
0000
1100
0000
0000
0000
0000
0010
0000
0100
0000
,
0010
0000
0100
0000
0010
0000
0100
0000
0010
0000
0100
0000
0010
0000
0100
0000
0010
0000
0100
0000
0010
0000
0100
0000
0010
0000
0100
0000
0010
0000
0100
0000
0010
0000
0100
0000
0010
0000
0000
1001
0000
0000
0000
0000
0000
0010
0000
0000
,
0000
1100
0000
0001
0000
0110
0000
1000
0000
0011
0000
0100
0000
1001
0000
0010
,
0000
1100
0000
0001
0000
1010
0000
0100
0000
0011
0000
1000
0000
0110
0000
0001
,
0000
1010
0000
0100
0000
0011
0000
1110
0000
1101
0000
0220
0000
0000
0000
0330
,
0000
0022
0000
0000
0000
0000
0000
0000
0033
1000
0100
0010
0001
0010
0100
1000
,
0100
0010
0100
1000
0100
0010
0001
0010
0100
1000
0100
0010
0100
1000
0100
0010
,
0001
0010
0100
0010
0100
0010
0100
0010
0100
0010
0001
0010
0100
1000
0100
0010
,
0001
0010
0100
0010
0001
0010
0100
1000
0100
0010
0001
0010
0100
0010
0001
0010
,
0100
1000
0100
1011
0000
0000
0000
1011
0000
0000
0000
0001
0010
0100
1000
0100
,
0010
0001
0010
0100
1000
0100
0010
0001
0010
0100
1000
0111
0000
0000
0000
0111
,
0000
0000
0000
1011
0000
0000
0000
1011
0000
0000
0000
1000
0100
0010
0001
1000
,
0100
0010
0001
0010
0100
1000
0001
0010
0100
1000
0100
0010
0001
1110
0000
0000
,
0000
1101
0000
0000
0000
0011
0000
1000
0000
0011
0000
1100
0000
0001
0000
1010
,
0000
0100
0000
1001
0000
0100
0000
1010
0000
0001
0000
0110
0000
1000
0000
0011
,
0000
0100
0000
1001
0000
0010
0000
1100
0000
0001
0000
0110
0000
1000
0000
0011
,
0000
0100
0000
1001
0000
0010
0000
1100
0000
0001
0000
0110
0000
1000
0000
0011
,
0000
0100
0000
1011
0000
1011
0000
1011
0000
0110
0000
0001
0000
1010
0000
0100
,
0000
1001
0000
0010
0000
1100
0000
0001
0000
0110
0000
1000
0000
0101
0000
0010
,
0000
1001
0000
0100
0000
0011
0000
1000
0000
0110
0000
0001
0000
1010
0000
0100
,
0000
1010
0000
1101
0000
1011
0000
0220
0000
0000
0000
0000
0330
0000
2002
0000
,
0000
0000
0000
0000
3003
0000
0000
1000
0100
0010
0001
0000
0000
0000
1100
0000
0000
0000
0010
0000
0000
0000
0101
0000
0000
0000
1000
0000
0000
0000
0110
0000
,
0000
0001
0000
1010
0000
0100
0000
0011
0000
0100
0000
1010
0000
0001
0000
1010
,
0000
0100
0000
0011
0000
0100
0000
0011
0000
1000
0000
0101
0000
0010
0000
1100
,
0000
0001
0000
0110
0000
1000
0000
0011
0000
0100
0000
1001
0000
0111
0000
0111
,
0000
0111
0000
1001
0000
0100
0000
0011
0000
0100
0000
1001
0000
0010
0000
1100
,
0000
0001
0000
0110
0000
1000
0000
0011
0000
0100
0000
1001
0000
0010
0000
1100
,
0000
0001
0000
1100
0000
0010
0000
0101
0000
1000
0000
0011
0000
1110
0000
1110
,
0000
0000
0022
0000
0000
0000
0000
0000
0000
0000
0000
0000
0000
0000
2233
0000
0000
0000
0000
0000
0000
0000
0000
0000
3300
0000
0001
0010
0100
1000
0000
0000
,
0000
0001
0010
0100
1000
0100
0010
0001
0010
0100
1000
0100
0010
0001
0010
0100
,
1000
0010
1000
0010
1000
0010
1000
0001
0100
0001
0100
0001
0100
0001
0100
0001
,
0010
0100
1000
0100
0010
0001
0010
0100
1000
0100
0010
0001
0010
0100
1000
0100
,
0010
0001
0010
0100
1000
0100
0010
0001
0010
1101
0000
0000
0000
1110
0000
0000
,
0000
1000
0100
0010
0001
0010
0100
1000
0100
0010
0001
0010
0100
1000
0100
0010
,
0001
1110
0000
0000
0000
1110
0000
0000
0000
0111
0000
0000
0000
0111
0000
0000
,
0000
0001
0010
0100
1000
0100
0010
0001
0010
0100
1000
0100
0010
0001
0010
0100
,
1000
0011
0000
0000
0000
0011
0000
0000
0000
1100
0000
0001
0000
1100
0000
0001
,
0000
1100
0000
0000
0000
0011
0000
1000
0000
0101
0000
0010
0000
1100
0000
0001
,
0000
0110
0000
0001
0000
1010
0000
0100
0000
0011
0000
1000
0000
0110
0000
0001
,
0000
1010
0000
0100
0000
1001
0000
0010
0000
1100
0000
0001
0000
0110
0000
0001
,
0000
1010
0000
0100
0000
0011
0000
0100
0000
1101
0000
1011
0000
1101
0000
0100
,
0000
0011
0000
1000
0000
0110
0000
0001
0000
1010
0000
0100
0000
0011
0000
1000
,
0000
0101
0000
0010
0000
1001
0000
0100
0000
1010
0000
0001
0000
0110
0000
1000
,
0000
0101
0000
0010
0000
1100
0000
0001
0000
1100
0000
1011
0000
0111
0000
2200
,
0000
0000
0000
0000
3300
0022
0000
0000
0000
0000
0033
0000
0000
1100
0000
0010
,
0000
1001
0000
0100
0000
0011
0000
1000
0000
0110
0000
0001
0000
1010
0000
0100
,
0000
0011
0000
0100
0000
1010
0000
0001
0000
0110
0000
0001
0000
1010
0000
0100
,
0000
1001
0000
0010
0000
1100
0000
0001
0000
0110
0000
1000
0000
0101
0000
0010
,
0000
1110
0000
1110
0000
1110
0000
0001
0000
1010
0000
0100
0000
0011
0000
1000
,
0000
0110
0000
0001
0000
1010
0000
0100
0000
0011
0000
0100
0000
1001
0000
0010
,
0000
1100
0000
0001
0000
0110
0000
0001
0000
1010
0000
0100
0000
0011
0000
1000
,
0000
0011
0000
1101
0000
1110
0000
0022
0000
0000
0000
0000
0000
2233
0000
0000
,
0000
0000
0000
3300
0000
0001
1000
0010
0100
0001
1000
0010
0100
0001
1000
0010
,
0100
0001
1000
0010
0100
0010
0001
0010
0100
1000
0100
0010
0001
0010
0100
1000
,
0001
1000
0001
1000
0001
1000
0001
1000
0001
0100
0010
1000
0001
0100
0010
1000
,
0001
0100
0010
1000
0001
0100
0010
1000
0001
0100
0010
1000
0001
0100
0010
1101
,
0000
0000
0000
1101
0000
0000
0000
1000
0001
0100
0010
1000
0001
0100
0010
1000
,
0001
0100
0010
1000
0001
0100
0000
1001
0000
0000
0000
1001
0000
0000
0000
0111
,
0000
0000
0000
0111
0000
0000
0000
1000
0001
0100
0010
1000
0001
0100
0010
1000
,
0001
0100
0010
1000
0001
0100
0010
1000
0111
0000
0000
0000
0111
0000
0000
0000
,
0011
0000
0100
0000
0011
0000
0100
0000
0000
1001
0000
0010
0000
1100
0000
0001
,
0000
0110
0000
0001
0000
1010
0000
0100
0000
0011
0000
1000
0000
0110
0000
0001
,
0000
1010
0000
0100
0000
0011
0000
1000
0000
0101
0000
0010
0000
1100
0000
0001
,
0000
0110
0000
1000
0000
0101
0000
0010
0000
1100
0000
0001
0000
0111
0000
1110
,
0000
0111
0000
1000
0000
0101
0000
0010
0000
1100
0000
0001
0000
0110
0000
1000
,
0000
0101
0000
0010
0000
1001
0000
0100
0000
0011
0000
0100
0000
1010
0000
0100
,
0000
0011
0000
1000
0000
0110
0000
0001
0000
1010
0000
0100
0000
0111
0000
1011
,
0000
0220
0000
0000
0000
0000
0330
0000
0000
2002
0000
0000
0000
0000
0000
3003
,
0000
0110
0000
0001
0000
1010
0000
0100
0000
1001
0000
0010
0000
1100
0000
0001
,
0000
0110
0000
1000
0000
0011
0000
0100
0000
1001
0000
0010
0000
1100
0000
0001
,
0000
0110
0000
1000
0000
0101
0000
0010
0000
1001
0000
0100
0000
1010
0000
0001
,
0000
1100
0000
0001
0000
0110
0000
1000
0000
0111
0000
0111
0000
0111
0000
0010
,
0000
1100
0000
0000
0000
0110
0000
1000
0000
0011
0000
0100
0000
1010
0000
0001
,
0000
0110
0000
1000
0000
0101
0000
0010
0000
1001
0000
0100
0000
0011
0000
1000
,
0000
0110
0000
0001
0000
1010
0000
0100
0000
1011
0000
0111
0000
2200
0000
0000
,
0000
0000
3300
0000
0000
1110
0000
0000
0001
0010
0100
2002
0000
0000
0000
0000
,
0000
3003
0000
0111
0000
0000
0000
0000
0000
0000
0000
0000
0000
0000
0101
0000
,
0000
0000
1010
0000
0000
0000
0110
0000
0000
1100
0000
0011
0000
1100
0000
0011
,
0000
1100
0000
0011
0000
1100
0000
1001
0000
0110
0000
1001
0000
0110
0000
1001
,
0000
0110
0000
1001
0000
0101
0000
1010
0000
0101
0000
1010
0000
0101
0000
1010
,
0000
0101
0000
1010
0000
0101
0000
1010
0000
0011
0000
1100
0000
0011
0000
1100
,
0000
0011
0000
1100
0000
0011
0000
1001
0000
0110
0000
1001
0000
0110
0000
1001
,
0000
0110
0000
1001
0000
0110
0000
0101
0000
1010
0000
0101
0000
1010
0000
0101
,
0000
1010
0000
0101
0000
1100
0000
0011
0000
1100
0000
0011
0000
1100
0000
0011
,
0000
1100
0000
0110
0000
1001
0000
0110
0000
1001
0000
0110
0000
1001
0000
0110
,
0000
1001
0000
0101
0000
1010
0000
0101
0000
1010
0000
0101
0000
1010
0000
0101
,
0000
1010
0000
0101
0000
1100
0000
0011
0000
1100
0000
0011
0000
1100
0000
0011
,
0000
1100
0000
0011
0000
1100
0000
0011
0000
0011
0000
0011
0000
0011
0000
0011
,
0000
0011
0000
0011
0000
0011
0000
0011
0000
0011
0000
0011
0000
0011
0000
0011
,
1000
0010
1000
0010
1000
0010
1000
0010
1000
0010
1000
0010
1000
0010
1000
0010
,
1000
0010
1000
0010
1000
0010
1000
0000
0000
0000
0000
0000
0000
0001
0100
0001
,
0100
0001
0100
0001
0000
0000
0000
0000
0000
0000
0000
0000
0000
0000
0000
0000
,
0000
0000
0000
0000
0000
0000
0000
0000
0000
0000
0000
0000
0010
0100
0010
0100
,
0010
0100
0010
0100
0010
0100
0010
0100
0010
0100
0010
0100
0010
0100
0010
0100
,
0010
0000
0000
0000
0000
0000
0000
0000
0000
0000
0000
0001
1000
0001
1000
0001
,
1000
0001
1000
0001
1000
0001
1000
0001
1000
0001
1000
0001
1000
0001
1000
0001
,
0000
0000
0000
0000
0000
0000
0000
0000
0000
0000
1000
0010
1000
0010
1000
0010
,
1000
0010
1000
0010
1000
0010
1000
0010
1000
0010
1000
0010
1000
0010
0000
0000
,
0000
0000
0000
0000
0000
0000
0000
0000
0100
0001
0100
0001
0100
0001
0100
0001
,
0100
0001
0100
0001
0100
0001
1110
0000
0000
0000
0000
0000
0100
0010
0100
0010
,
0100
0010
0100
0010
0100
1000
0100
0010
0001
0010
0100
1000
0100
0010
0001
0010
,
0100
1000
0100
0010
0100
1000
0100
0010
0001
0010
0100
1000
0001
0010
0100
1000
,
0100
0010
0001
1000
0100
0010
0001
0010
0100
1000
0001
0010
0100
1000
0001
1000
,
0001
1000
0001
1000
0001
1000
0100
0010
0001
0010
0100
1000
0001
0010
0100
1000
,
0100
0010
0001
1000
0100
0010
0001
0010
0100
1000
0001
0010
0100
1011
0000
0000
,
0000
0111
0000
0000
0000
1000
0100
0010
0001
0010
0100
1000
0001
0010
0100
1000
,
0100
0010
0001
1000
0100
0010
0001
1110
0000
0000
0000
1101
0000
0000
0000
1011
,
0000
0000
0000
0111
0000
1000
0100
0010
0001
0010
0100
1000
0001
0010
0100
1000
,
0100
0010
0001
1000
0100
0010
0001
1110
0000
0000
0000
1101
0000
0000
0000
0101
,
0000
0010
0000
0101
0000
0010
0000
1100
0000
0010
0000
0101
0000
0010
0000
1100
,
0000
0001
0000
0110
0000
1000
0000
0101
0000
0010
0000
1100
0000
0001
0000
0110
,
0000
1000
0000
0101
0000
0010
0000
1001
0000
0100
0000
0011
0000
0100
0000
1010
,
0000
0001
0000
0110
0000
1000
0000
0101
0000
1000
0000
0111
0000
0111
0000
0111
,
0000
0111
0000
0111
0000
0100
0000
1010
0000
0100
0000
0011
0000
0100
0000
1010
,
0000
0100
0000
0011
0000
1000
0000
0101
0000
0010
0000
1001
0000
0100
0000
0011
,
0000
1000
0000
0110
0000
0001
0000
1010
0000
0100
0000
1001
0000
1110
0000
0111
,
0000
2102
0000
0000
0000
0000
0000
3003
0000
0221
0000
0000
0000
0000
0330
0000
,
0000
1100
0000
0001
0000
0110
0000
1000
0000
0101
0000
0010
0000
1100
0000
0001
,
0000
0110
0000
1000
0000
0101
0000
0010
0000
1001
0000
0100
0000
0011
0000
1000
,
0000
0110
0000
0001
0000
1010
0000
0100
0000
1001
0000
0010
0000
1100
0000
0001
,
0000
1110
0000
0111
0000
1110
0000
0111
0000
1110
0000
0111
0000
1110
0000
0001
,
0000
1100
0000
0010
0000
1001
0000
0100
0000
0011
0000
1000
0000
0110
0000
0001
,
0000
1010
0000
0100
0000
1001
0000
0010
0000
1100
0000
0001
0000
0110
0000
1000
,
0000
0011
0000
0100
0000
0011
0000
1100
0000
1100
0000
0022
0000
0000
0000
0000
,
0033
2200
3300
0011
0000
0101
0000
0110
0000
2020
0000
0000
0000
3030
0000
0000
;
