#TITLE:No. 13;
#SUBTITLE:;
#ARTIST:dj TAKA respect for J.S.B.;
#TITLETRANSLIT:;
#SUBTITLETRANSLIT:;
#ARTISTTRANSLIT:;
#CREDIT:;
#BANNER:;
#BACKGROUND:;
#LYRICSPATH:;
#CDTITLE:;
#MUSIC:No. 13.MP3;
#OFFSET:-1.277;
#SAMPLESTART:36.161;
#SAMPLELENGTH:12.000;
#SELECTABLE:YES;
#BPMS:0.000=172.000;
#STOPS:;
#BGCHANGES:;
// cache tags:
#FIRSTBEAT:0.000;
#LASTBEAT:331.000;
#SONGFILENAME:Songs/keyboard/No.13/No. 13.sm;
#HASMUSIC:1;
#HASBANNER:0;
#MUSICLENGTH:122.441;
// end cache tags

//---------------dance-single - Hard----------------
#NOTES:
     dance-single:
     Hard:
     Hard:
     10:
     1.000,1.000,1.000,0.400,1.000,851.000,141.000,49.000,0.000,0.000:
1001
0000
0000
0000
1000
0001
1000
0001
1000
0000
1000
0001
1000
0000
0001
0100
,
0001
0000
1000
0100
0010
0001
1000
0100
0010
0000
0010
0100
0010
0000
1000
0100
,
1000
0000
0001
0010
0001
0010
0001
0010
0001
0000
0010
0001
0010
0000
0100
1000
,
0100
0000
1000
0010
0100
0001
1000
0010
0100
0000
0100
1000
0100
0000
0010
0001
,
0010
0000
0000
0000
0100
1000
0010
1000
0100
0000
0010
0001
0010
0000
0100
1000
,
0100
0010
0100
1000
0100
0010
0100
1000
0100
0000
0100
0001
0100
0000
1000
0001
,
1000
0001
1000
0001
1000
0010
1000
0100
1000
0000
1000
0100
1000
0000
0001
0010
,
0100
1000
0001
0010
0100
1000
0001
0010
0001
0000
1000
0100
1000
0000
0010
0001
,
0010
0000
1001
0000
1000
0100
1000
0000
0001
0000
1000
0100
1000
0000
0010
0000
,
1000
0001
1000
0000
1000
0010
1000
0000
0001
0100
0001
0000
0001
0010
0001
0000
,
1000
0001
1000
0000
1000
0001
1000
0000
1000
0100
0010
0001
1000
0100
0010
0001
,
1000
0000
1000
0100
1000
0000
0010
0001
0010
0000
1001
0000
0000
0000
1001
0000
,
0110
0000
1001
0000
1000
0100
1000
0000
0001
0000
1000
0100
1000
0000
0010
0000
,
1000
0000
1001
0000
1000
0100
1000
0000
0001
0100
0001
0000
0001
0010
0001
0000
,
1000
0000
1001
0000
1000
0001
1000
0000
1000
0000
1001
0000
1000
0100
1000
0000
,
0001
0000
1001
0000
1000
0000
0010
1000
0010
0000
1001
0000
0000
0000
1001
0000
,
0110
1001
1000
1000
0100
0010
0001
1000
,
0100
0010
1001
1000
1010
0010
0100
0101
,
0101
0000
1010
0000
1100
0000
1010
0000
1000
0100
0010
0001
1000
0000
0110
0000
,
1000
0100
1000
1100
0000
0101
0000
0011
,
1001
1000
1010
0010
0100
0101
0101
1010
,
1100
0000
1010
0000
1000
0100
0010
0001
1000
0000
0110
0000
1000
0000
0100
0000
,
1000
1100
0000
0101
0000
0011
1010
0000
,
0110
0000
1001
0110
0000
0110
1001
0000
,
1000
0100
0010
0001
1000
0001
1000
0001
1000
0100
1000
0100
1000
0010
1000
0010
,
1000
0100
1000
0100
1000
0000
1100
0000
1010
0000
1100
0000
1001
0000
1010
0000
,
1100
0000
1010
0000
1000
0010
0100
0001
1000
0010
0100
0001
1000
0100
0010
0001
,
1000
0100
0010
0001
1001
0000
0101
0000
0011
0000
0101
0000
1001
0000
0011
0000
,
0101
0000
1001
0000
0001
0010
0100
1000
0001
0010
0100
1000
0001
0000
1100
0000
,
0101
0000
1100
0000
1000
0100
0010
0001
1000
0100
0010
0001
1001
0000
0110
0000
,
1001
0000
1000
0100
0010
0001
1000
0001
0010
0100
1000
0001
1000
0100
0010
0001
,
1000
0001
0010
0100
1000
0001
1000
0000
0022
0000
0033
0000
2200
0000
3300
0000
,
2002
0000
3003
0000
1100
0000
1100
0000
0010
0001
0000
0011
0000
0000
1000
0000
,
1010
1001
1000
1010
0010
0100
0101
0101
,
1010
0000
1100
0000
1010
0000
1000
0100
0010
0001
1000
0000
0110
0000
1000
0000
,
0100
1000
1100
0000
0101
0000
0011
1001
,
0110
0000
1001
0000
1000
0100
0010
0001
1000
0100
0010
0001
0010
0100
1000
0001
,
0010
0100
1000
0010
1000
0100
1000
0010
1000
0100
1000
0010
1000
0100
1000
0000
,
1010
0000
1100
0000
0001
0010
0100
1000
0001
0010
0100
1000
0100
0010
0001
1000
,
0100
0010
0001
0100
0001
0010
0001
0100
0001
0010
0001
0100
0001
0010
0001
0000
,
0101
0000
1001
0000
1000
0100
0010
0001
0010
0100
1000
0001
1000
0100
0010
0001
,
1000
0001
0010
0100
1000
0001
1000
0100
0010
0001
0010
0100
1000
0100
0010
0001
,
0010
0100
1000
0100
0010
0001
0010
0100
0010
0001
0010
0100
1000
0100
0010
0100
,
1000
0100
0010
0100
1000
0000
1000
0000
0010
0000
0100
0000
0001
0000
1000
0000
,
0010
0000
0100
0000
1001
0000
0000
1000
0001
0000
0000
0001
1000
0000
0000
1000
,
0001
0000
0000
0001
2000
0000
0000
0000
3001
0000
0000
0000
0020
0000
0000
0000
,
1030
0000
0000
0000
0200
0000
0000
0000
0301
0000
1000
0100
1000
0100
1000
0100
,
0010
0002
0000
0000
1003
0000
0000
0000
2000
0000
0000
0000
3010
0000
0000
0000
,
0010
1000
0020
0000
0230
0000
0320
0000
,
2030
3000
0220
0330
0202
0303
2200
3300
,
2020
0000
3030
0000
1001
0000
0001
0010
0001
0000
1000
0100
1000
0000
0010
0001
,
0010
0000
1000
0100
0022
0000
0033
0000
2200
0000
3300
0000
0202
0000
0303
0000
,
2020
3030
2000
3002
0203
0320
2030
3002
,
0023
0000
0130
0000
2200
0000
3300
0000
0010
0001
0010
0000
0100
1000
0100
0000
,
1001
0000
0110
0000
1001
0000
0010
1000
0010
0000
0100
0001
0100
0000
0010
0100
,
0010
0000
1000
0001
1000
0000
1000
0000
1000
0000
1000
0000
0001
0000
0001
0000
,
0100
0000
0001
0000
0001
0010
0001
0000
1000
0000
0100
0000
0010
0000
0001
0000
,
1000
0100
0020
0000
0000
0000
0000
0000
,
0000
0030
0000
0000
1000
0100
0010
0001
1000
0100
0010
0001
0010
0100
1000
0001
,
0010
0100
1000
0100
0010
0001
1000
0100
0010
0001
0010
0100
1000
0000
1001
0000
,
1010
0000
1100
0000
1001
0000
0001
0010
0100
1000
0001
0010
0100
1000
0100
0010
,
0001
1000
0100
0010
0001
0010
0100
1000
0001
0010
0100
0000
0101
0000
1001
0000
,
0011
0000
0101
0000
1001
0000
1000
0100
0010
0001
1000
0100
0010
0001
0010
0100
,
1000
0001
0010
0100
1000
0001
1000
0100
0010
0001
1000
0001
0010
0000
1010
0000
,
1100
0000
1010
0000
1001
0000
0001
0010
0100
1000
0001
0010
0100
1000
0100
0010
,
0001
1000
0100
0010
0001
0010
0100
1000
0001
0010
0100
0000
0101
0000
1001
0000
,
0011
0101
1001
1000
0100
0010
0001
0001
,
0010
0100
1000
1000
0100
0010
0001
0001
,
0010
0100
1001
0110
1001
0110
1010
0101
,
1010
0101
0011
1100
0011
1100
0101
1100
,
0101
1100
1001
0000
0000
0000
0000
0000
,
0000
0000
0000
0000
0000
0000
0000
0000
0000
0000
0000
0000
1000
0001
1000
0001
,
1000
0001
1000
0001
1000
0001
1000
0001
1000
0001
1000
0010
1000
0010
1000
0001
,
1000
0001
1000
0001
1000
0001
1000
0001
1000
0010
1000
0010
1000
0001
1000
0001
,
1000
0001
1000
0001
1000
0000
0000
0000
2020
0000
3030
0000
0202
0000
0303
0000
,
0022
0033
1000
0100
0010
0001
0001
0010
,
0100
1000
1000
1000
0100
0010
0010
0010
,
0100
0000
0001
0000
0001
0000
0001
0000
0001
0010
0100
1000
0001
0010
0100
1000
,
0001
0010
0100
1000
0001
0010
0100
1000
0100
0010
0001
1000
0100
0010
0001
1000
,
0100
0010
0001
1000
0100
0010
0001
1000
0100
0010
0001
0010
0100
1000
0100
0010
,
0001
0010
0100
0000
1000
0100
1000
0000
0001
0010
0001
0000
1000
0100
1000
0000
,
1000
0001
0010
0010
0110
0000
2000
0000
,
0002
0000
0000
3003
;
