#TITLE:Shining collection;
#SUBTITLE:;
#ARTIST:Gravitation;
#TITLETRANSLIT:;
#SUBTITLETRANSLIT:;
#ARTISTTRANSLIT:;
#CREDIT:;
#BANNER:banner.png;
#BACKGROUND:background.png;
#LYRICSPATH:;
#CDTITLE:!title.png;
#MUSIC:music.mp3;
#OFFSET:-0.222;
#SAMPLESTART:35.467;
#SAMPLELENGTH:12.000;
#SELECTABLE:YES;
#BPMS:0.000=169.960;
#STOPS:520.500=1.060
;
#BGCHANGES:;
// cache tags:
#FIRSTBEAT:1.000;
#LASTBEAT:768.000;
#SONGFILENAME:Songs/Bemani.se Megapack/(Kasu) Shining Collection/steps.sm;
#HASMUSIC:1;
#HASBANNER:1;
#MUSICLENGTH:279.919;
// end cache tags

//---------------dance-single - KASU----------------
#NOTES:
     dance-single:
     KASU:
     Challenge:
     12:
     0.921,1.000,0.707,0.257,0.773,1534.000,198.000,72.000,0.000,0.000:

0000
0000
0000
0000
1000
0000
0010
0100
0001
1000
0100
0010
0000
0001
1000
0000
,
1000
0010
0000
0010
0100
0000
0100
0001
0000
0001
1000
0000
1000
0100
0000
0100
,
0010
0000
0000
0000
0001
0000
1000
0100
0001
0100
0010
0001
0000
0001
1000
0000
,
1000
0010
0000
0010
1000
0000
1000
0100
0000
0100
0001
0000
0001
0100
0000
0100
,
0010
0000
0000
0000
0001
0000
0100
0010
1000
0001
0010
0001
0000
0010
0001
0000
,
0001
0100
0000
0100
1000
0000
1000
0001
0000
0001
0010
0000
0010
0100
0000
0100
,
1000
0000
0100
0000
0001
0000
1000
0010
0100
0001
1000
0001
0000
0001
0100
0000
,
0100
0010
0000
0010
1000
0001
0100
0010
1000
0001
0100
0010
1000
0010
0100
0001
,
1000
0010
0100
0001
1001
0000
1010
0000
0101
0000
0110
0000
1100
0000
0011
0000
,
1010
0000
0101
0000
0110
0000
1100
0000
1001
0000
1010
0000
0011
0000
1000
0001
,
1000
0000
0011
0110
1100
0110
0011
0110
,
1100
0000
0110
0000
0011
0000
1010
0000
1001
0000
0101
0000
1001
0000
1000
0001
,
1000
0000
0011
0110
1100
1010
0110
0011
,
0101
0000
0110
0000
1100
0000
1010
0000
0110
0000
1001
0000
0110
0000
1000
0001
,
1000
0000
1001
1100
0011
1010
0101
1010
,
1100
0000
0011
0000
1010
0000
1001
0000
0101
0000
0001
0010
0000
0010
0001
0010
,
0100
1000
0001
0010
0001
0100
0001
0010
0001
0000
1000
0000
0001
0000
1000
0001
,
0000
0001
0100
0001
1000
0001
0010
0000
0010
0000
0100
0000
1000
0000
1000
0100
,
0000
0000
0001
0000
0100
0000
1000
0000
0010
0000
0001
0000
0010
0000
1000
0100
,
0000
0000
0010
0001
1000
0000
0000
1100
0000
0000
0011
0000
1100
0000
0000
0000
,
0000
0000
0000
0000
1010
0000
0011
0000
1100
0000
0011
0000
1001
0000
0100
0001
,
0000
0000
0010
0001
1000
0000
1100
0000
0011
0000
1100
0000
0110
0000
0100
1000
,
0000
0000
1001
0000
1100
0000
0011
0000
1100
0000
0101
0000
1010
0000
0010
0100
,
0000
0000
0010
0100
0001
0000
0000
1100
0000
0000
0110
0000
0101
0000
0001
1000
,
0000
1000
0100
0010
0001
0000
0000
1000
0001
0000
0000
0001
0100
0000
0000
0100
,
0001
0000
0001
0010
1000
0010
0001
0000
,
1000
0000
0000
0010
1000
0000
0000
1000
0010
0000
0000
0010
0100
0000
0000
0100
,
1000
0000
0100
0000
0001
0010
0001
1000
0001
0000
0010
0000
0100
0000
0000
0000
,
1000
0000
0000
1000
0001
0000
0000
0001
0100
0000
0000
0100
0010
0000
0000
0010
,
1000
0000
0100
0000
1000
0001
1000
0100
1000
0000
0100
0000
1000
0000
0000
0000
,
1001
0000
0000
0001
0010
0000
0000
0010
1000
0000
0000
1000
0010
0000
0000
0010
,
0001
0000
0000
0000
0101
0000
0000
1010
0000
0000
1100
0000
0011
0000
0010
0000
,
1001
0000
0100
0000
0001
0010
0100
1000
0100
0010
0001
0010
0100
0000
1001
0000
,
1010
0000
0000
0000
0010
0000
0100
0001
0000
0001
0010
0000
0001
0000
0010
0001
,
0000
0001
0100
0000
0001
0000
0100
0000
1000
0000
0100
0000
0001
0000
1000
0000
,
0010
1000
0002
0000
0203
0000
0320
0000
,
2030
0000
3002
0000
0003
1000
0001
0000
,
1001
0000
0000
0000
1000
0000
0100
1000
0000
1000
0010
0000
1000
0000
0010
1000
,
0000
1000
0100
0000
1000
0000
0010
1000
0001
0000
1000
0000
0010
0000
1000
0100
,
0000
1000
0001
0000
1000
0000
0001
0010
0000
0001
1000
0000
0010
0000
0100
0001
,
0000
0001
0010
0000
0001
0000
1000
0000
0010
0000
1000
0000
0001
0000
0000
0000
,
1000
0000
0000
0000
0001
0000
0010
0001
0000
0001
0100
0000
0001
0000
0100
0001
,
0000
0001
0010
0000
0001
0000
1000
0001
1000
0000
0001
0000
0010
0000
0001
0000
,
1000
0000
0001
0000
0011
0000
0000
1100
0000
0000
0011
0000
1001
0000
0000
0101
,
0000
1001
1010
0000
0000
0010
1000
0000
,
0001
0000
0000
0000
1000
0000
1000
0100
0010
0100
0001
0100
1000
0010
0100
1000
,
0100
0010
1000
0000
0002
0000
0000
0000
2003
0000
0000
0000
3020
0000
0000
0000
,
2030
0000
3002
0000
0003
1000
1000
1000
,
0000
0000
0000
0000
0010
0000
1000
0010
0100
0000
0001
0100
0010
0000
0000
0000
,
1001
0000
1000
0010
0001
0010
1000
0001
,
1000
0100
0001
1000
0001
0100
2000
0001
,
3010
0000
0000
0000
1001
0000
0010
0001
1000
0000
1001
0000
0100
0000
0010
0001
,
1000
0000
1001
0000
1000
0010
0100
0001
1000
0100
0010
0001
1000
0000
1001
0000
,
1010
0110
0010
0010
0100
0001
1000
0100
,
0001
0100
1000
0001
1000
0100
2000
0001
,
3010
0000
0000
0000
0001
0000
0010
0100
1000
0010
1000
0000
0010
0000
1000
0000
,
0001
0000
1000
0000
0001
0100
0010
1000
0001
0010
0100
0010
0001
1000
0010
0100
,
0001
1000
0100
0010
0001
0000
0001
0000
0010
0000
0011
0000
0010
0001
1000
0100
,
0000
0000
0010
0000
0001
0000
0100
0000
0010
0000
0110
0000
0010
0100
0001
1000
,
0000
0000
0001
0000
0010
0000
0001
0000
1000
0000
1010
0000
1000
0010
0100
0001
,
0000
0000
0001
0100
1000
0000
0000
1000
0000
0000
0100
0000
0001
0000
0000
0000
,
1000
0000
0000
0000
1000
0000
0100
0000
0010
0000
0011
0000
0010
1000
0010
0001
,
0000
0000
0010
0001
1000
0000
0100
0000
0010
0000
0110
0000
0100
0010
0001
1000
,
0000
0000
0100
1000
0001
0000
0100
0000
0010
0000
0110
0000
0100
0010
1000
0001
,
0000
0000
0010
0001
1000
0000
0000
0011
0000
0000
0110
0000
1100
0000
0000
0000
,
0000
0000
0000
0010
0001
0000
0000
0001
1000
0000
0000
1000
0100
0000
0000
0100
,
0010
0000
0000
0010
1000
0000
0010
0000
0001
0000
1000
0000
0010
0000
1000
0000
,
0001
0000
0000
0001
1000
0000
0000
1000
0010
0000
0000
0010
0001
0000
0000
0001
,
0010
0000
0000
0010
1000
0000
0010
0000
1000
0000
0001
0000
1000
0000
0010
0000
,
1000
0000
0000
1000
0001
0000
0000
0001
0010
0000
0000
0010
0001
0000
0000
0001
,
1000
0000
0000
1000
0010
0000
1000
0000
0001
0000
0010
0000
0001
0000
0000
0000
,
1000
0000
0000
0001
0010
0000
0000
0010
0001
0000
0000
0001
1000
0000
0000
1000
,
0010
0000
0100
0010
0100
0000
0000
0110
0000
0000
0101
0000
1001
0000
0000
0000
,
0001
0000
0000
0000
1000
0100
0010
0001
0010
0100
1000
0100
0010
0000
0001
0000
,
0011
0000
0000
0000
0001
0000
0010
0001
0000
0001
1000
0000
0001
0000
1000
0001
,
0000
0001
0010
0000
0002
0000
0000
0000
2003
0000
0000
0000
3020
0000
0000
0000
,
0230
0000
0000
0000
0301
0000
1000
0001
0000
0001
1000
0000
0001
0000
1000
0010
,
0000
0010
1000
0000
0001
0000
0000
0000
1000
0000
0100
0000
0010
0000
0001
0000
,
0010
0000
0001
0010
0001
0000
1000
0001
0000
0001
0010
0000
0001
0000
0010
0001
,
0000
0001
1000
0000
0001
0000
0010
0001
1000
0001
0010
0001
1000
0000
0001
0000
,
1000
0010
0100
0010
0001
0010
0100
1000
,
0100
0000
0001
0000
1000
0000
0100
0000
0010
0000
0001
1000
0001
0000
0010
0100
,
0000
0100
1000
0000
1100
0000
1000
0010
0000
0010
1000
0000
1001
0000
0001
0100
,
0000
0100
0001
0000
1001
0000
0001
1000
0001
0000
1000
0000
0100
0000
0010
0000
,
0001
0000
0010
0000
0100
0000
1000
0100
0000
0100
0010
0000
0011
0000
0001
0100
,
0000
0100
0010
0000
1010
0000
0000
0000
1000
0000
0000
0000
0001
0000
0000
0000
,
1000
0000
0010
0000
1000
0000
0001
1000
0000
1000
0001
0000
1001
0000
1000
0010
,
0000
0010
1000
0000
1000
0000
0010
0000
1000
0000
0001
0000
1000
0000
0001
1000
,
0001
0000
1000
0000
0010
1000
0001
0000
0100
0000
0001
0100
1000
0100
0001
0010
,
1000
0000
0010
0000
0001
0000
0100
0001
1000
0000
0001
0010
0001
0000
0010
0001
,
0010
0000
0000
0000
0001
1000
0001
0100
0001
1000
0001
0100
0001
1000
0001
0100
,
0001
1000
0001
0100
0001
1000
0001
0100
0001
1000
0001
0100
0001
1000
0001
0100
,
0001
0000
1000
0000
0001
0000
0100
0000
1001
0000
0000
0000
0000
0000
0000
0000
0010
0001
0000
0000
0000
0000
0000
0000
0001
1000
0000
0000
0000
0000
0000
0000
,
1000
0001
0000
0000
0000
0000
0000
0000
0001
0100
0000
0000
0000
0000
0000
0000
0100
0001
0000
0000
0000
0000
0000
0000
0001
1000
0000
0000
0000
0000
0000
0000
,
1000
0001
0000
0000
0000
0000
0000
0000
1000
0000
0100
0000
1000
0000
0001
0000
1000
0000
0100
0000
1000
0000
0001
0000
1000
0000
0100
0000
1000
0000
0001
0000
,
1000
0100
1000
0001
1000
0100
1000
0001
1000
0100
1000
0001
1000
0100
1000
0001
,
1000
0000
0100
0000
1000
0000
0001
0000
1001
0000
0000
0000
0000
0000
0000
0000
0001
0010
0000
0000
0000
0000
0000
0000
1000
0001
0000
0000
0000
0000
0000
0000
,
1000
0100
0000
0000
0000
0000
0000
0000
0001
0010
0000
0000
0000
0000
0000
0000
0001
0010
0000
0000
0000
0000
0000
0000
1000
0100
0000
0000
0000
0000
0000
0000
,
1000
0001
0000
0000
0000
0000
0000
0000
1000
0000
0100
0000
0010
0000
0100
0000
0001
0000
0100
0000
0010
0000
0001
0000
1000
0000
0000
0000
0000
0000
0000
0000
,
0002
2003
3020
0230
,
0301
2000
0000
0000
0000
0000
0000
0000
,
3000
0000
1000
0000
0001
0010
0002
0000
,
2003
3020
0000
0000
,
0230
2300
3200
0302
,
0203
0000
0320
0000
0030
1000
0200
0000
,
0000
0000
0000
0301
,
0200
0000
0320
0000
0000
0032
0000
0000
,
2003
3020
0000
0000
,
1030
0100
0200
0000
0000
0320
0000
0000
,
0032
2003
0000
0000
,
3200
0302
0000
0203
,
0000
2300
0000
3002
,
0000
0000
2003
0000
0000
3000
0000
0000
,
1000
0100
0020
0000
0000
0000
0001
0000
,
0001
0000
0031
0000
0000
0001
1000
0000
,
0000
0000
0001
0000
0000
1000
0001
0000
,
0000
0000
0000
0000
1000
0001
1000
0000
0001
0000
0010
0001
0000
0001
1000
0000
,
0010
0000
1000
0000
0100
1000
0001
0000
0001
0000
1000
0001
1000
0001
1000
0000
,
0001
0000
0010
0001
1000
0000
0010
0000
1000
0000
0001
0000
1000
0000
0010
0000
,
1000
0100
1000
0010
1000
0001
1000
0100
,
0001
0100
1000
0010
1000
0100
1000
0010
,
0001
0000
0010
0000
1000
0010
0100
0001
1000
0010
0100
0001
1000
0010
0100
0001
,
1000
0100
0010
0001
1001
0000
0001
0000
1000
0000
0001
0000
0010
0000
1000
0000
,
0010
0000
0001
0000
1000
0000
0100
0000
0010
0000
0100
0000
1000
0000
0001
1000
,
0001
0000
1100
0110
0011
1010
0101
1010
,
0101
0000
0011
0000
1100
0000
0110
0000
0011
0000
0110
0000
1100
0000
0001
1000
,
0001
0000
1001
1010
0011
0110
1100
1001
,
0011
0000
0110
0000
1001
0000
1010
0000
0101
0000
1001
0000
1010
0000
0100
1000
,
0100
0000
0000
0000
1000
0000
0001
0000
1001
0000
1100
0000
0100
0010
0001
0010
,
0100
0000
1100
0000
0011
0000
0101
0000
1100
0000
1100
0000
0001
0000
1000
0001
,
1000
0000
0000
0000
0000
0000
0000
0000
0002
0003
0000
0000
0000
0000
0000
0000
0000
0000
0000
0000
0000
0000
0000
0000
0000
0000
0000
0000
0000
0000
0000
0000
1001
0000
0000
0000
0000
0000
0000
0000
0010
0000
0000
0000
0001
0000
0000
0000
0000
0000
0000
0000
0001
0000
0000
0000
1000
0000
0000
0000
0000
0000
0000
0000
,
1001
0000
1000
0001
0000
0001
0010
0000
0002
0000
0000
0000
0203
0000
0000
0000
,
2300
3200
0302
0023
,
2030
3020
0032
0003
,
1000
0000
0000
0000
0001
0000
0000
0000
1000
0000
0001
0010
0000
0010
0001
0000
,
1000
0000
0100
1000
0000
1000
0010
0000
1000
0000
0001
1000
0001
0000
0010
0000
,
0001
0000
0010
0001
1000
0000
0001
0000
1000
0100
0010
0100
1000
0010
1000
0100
,
0010
0100
0001
0100
1000
0100
0010
0001
0010
0000
0001
0000
0011
0000
0000
0000
,
1000
0000
0001
0000
1000
0000
0100
0000
0010
0000
0001
1000
0000
1000
0001
0000
,
0100
0000
0001
0100
0000
0010
1000
0000
0010
0000
0001
0010
0001
0000
1000
0000
,
0100
0000
1000
0100
1000
0000
0100
0000
0010
0000
0010
0100
0000
0100
0010
0000
,
0100
0000
0100
0001
0000
0001
1000
0000
1010
0000
0000
0000
0000
0000
0010
0000
,
1000
0000
0000
0000
1000
0100
0010
0001
1000
0000
0100
1000
0001
1000
0100
0010
,
0001
1000
0010
1000
0001
0100
0001
1000
0100
0010
0100
1000
0010
0100
0001
1000
,
0100
1000
0001
0100
0001
0010
0100
0010
0002
0000
0000
0000
0000
0000
0013
0000
,
0001
0000
0001
0000
0000
0000
0000
0000
1000
0000
0001
1000
0001
0000
0010
0000
,
0100
0000
1000
0000
0001
0000
0010
0000
0001
0010
0001
0000
0100
0000
1000
0100
,
1000
0000
0000
0000
0000
0000
0100
0000
0001
0000
1000
0001
0000
0001
0100
0000
,
0001
0000
0010
0100
0000
1000
0100
0000
1000
0000
0001
1000
0001
0000
1000
0010
,
1000
0000
1000
0001
0000
1000
0100
0000
1100
0000
0000
0000
0001
0000
0010
0000
,
0001
0000
1000
0000
0010
0000
0100
0000
0001
0000
0100
0010
0000
0100
0010
0000
,
1000
0000
0100
0010
0000
0100
0010
0000
0010
0001
1000
0001
1000
0000
0001
0000
,
0100
0000
0001
0100
0001
0000
0100
0000
0001
0000
0010
0001
0010
0000
0001
1000
,
0001
0000
1000
0100
1000
0000
0010
0000
2000
0000
0000
0000
3200
0000
0000
0000
,
0310
0000
0001
1000
0001
1000
0001
1000
0001
0000
1000
0100
0000
0100
1000
0000
,
1001
0000
0001
0010
0000
0010
0001
0000
0100
0000
0001
1000
0001
0000
1000
0000
,
0100
0000
1000
0010
1000
0000
0100
0000
1100
0000
0000
0011
0000
0000
0110
0000
,
1001
0000
0000
1100
0000
0000
1100
0000
1001
0000
0000
0000
0000
0000
0001
0000
,
1000
0000
0000
0000
0010
0000
0000
0000
0100
0000
0001
1000
0001
0010
0001
0010
,
0001
0100
0001
0100
0001
1000
0100
1000
0200
0000
0000
0000
0320
0000
0000
0000
,
0032
0000
2003
0000
3200
0000
0300
1000
,
0100
0000
0100
0000
0000
0000
0000
0000
1000
0000
0010
0100
0001
0000
0001
1000
,
0010
0000
0000
0000
1001
0000
0000
0000
0010
0000
0000
0000
0000
0000
0010
1000
,
0001
0000
0002
0023
,
0032
0000
0000
0000
2003
0000
0000
0000
3100
0000
1000
0100
0000
1000
0010
0000
,
0100
0000
0001
0100
0000
0001
0010
0000
0001
0000
0000
0000
0000
0000
1000
0000
,
0001
0000
0000
0000
0010
0000
0000
0000
0001
0000
0000
0000
0000
0000
1000
0100
,
0010
0000
0000
0000
0000
0000
0010
0001
1000
0000
0000
0000
0001
0000
0000
0000
,
0010
0000
0000
0000
0001
0000
0000
0000
1000
0100
1000
0000
0100
0010
0100
0000
,
0010
0001
0010
0000
1001
0000
0000
0000
0010
0000
0000
0000
0000
0000
0001
1000
,
0001
0000
1000
0000
0001
0000
0000
0100
,
0010
0000
0000
0000
0000
0000
1000
0100
1000
0000
0000
0000
0001
0000
0000
0000
,
0010
0000
0000
0000
0001
0000
0000
0000
1001
0000
1000
0001
0000
0001
1000
0000
,
1001
0000
0001
1000
0000
1000
0001
0000
1000
0000
0010
1000
0100
0000
1000
0000
,
0100
0000
0010
0000
0001
0000
0000
1000
,
1000
0000
0000
1001
0001
0000
1000
0000
,
0010
0000
1000
0000
1001
1001
0011
0011
,
0011
0000
0110
0000
0110
0000
0110
0000
0100
1000
0100
1000
0100
1000
0001
0010
,
0011
0000
1001
0000
1001
1001
1001
0011
,
0011
0000
0110
0000
0010
0100
1000
0100
1100
0000
1001
0000
0010
0001
0010
0001
,
0012
0000
0000
0000
0000
0000
0003
0000
0010
0001
0010
0100
1000
0001
1000
0010
,
0100
0001
1000
0100
1000
0001
1000
0000
1100
0000
1100
0000
1100
0000
1001
0000
,
0001
1000
0010
0100
0002
0003
0000
0000
1001
0000
1000
0001
1000
0000
0010
0100
,
0010
0110
0110
0101
1010
1100
1001
1001
,
0010
1000
0100
0010
0001
0010
0100
1000
0100
0001
0100
1000
0001
0100
0010
1000
,
0001
1000
0001
1000
0001
1000
0001
1000
0001
1000
0001
1000
0002
0000
0000
0000
0000
0000
0000
0000
0000
0000
0000
0000
,
0000
0000
0000
0000
,
0000
0000
0000
0000
,
0000
0000
0000
0000
,
0000
0000
0000
0000
,
0000
0000
0000
0000
,
0000
0000
0000
0000
,
0003
0000
0000
0000
;

//---------------dance-single - KASU----------------
#NOTES:
     dance-single:
     KASU:
     Hard:
     11:
     0.743,1.000,0.011,0.232,0.577,1388.000,3.000,65.000,0.000,0.000:







0000
0000
0000
0000
,
0000
0000
0000
0000
,
0000
0000
0000
0000
,
0000
0000
0000
0000
,
0000
0000
0000
0000
1000
0000
0001
1000
0001
0000
1000
0010
0100
0000
0010
1000
,
0010
0000
1000
0100
1000
0000
0100
0010
0100
0000
0010
0001
0010
0000
0001
1000
,
0001
0000
1000
0010
0100
0000
0010
1000
0010
0000
1000
0100
0010
0000
0001
0010
,
0001
0000
1000
0010
1000
0001
0010
0100
1000
0001
0100
0010
1000
0001
0010
0100
,
1000
0001
0100
0010
1000
0000
0001
0000
0100
0000
0010
0000
0100
0000
1000
0000
,
0100
0010
1000
0100
0010
1000
0020
0000
,
0000
0030
0001
1000
0010
0100
1000
0100
,
0010
1000
0100
0010
0001
1000
0020
0000
,
0000
0030
0100
0010
1000
0100
0010
0001
,
1000
0010
0100
0010
1000
0100
0020
0000
,
0000
0000
0000
0030
0001
0000
1000
0000
0010
0000
0100
0000
0001
1000
0001
1000
,
0010
0000
0100
0000
0010
0000
1000
0010
1000
0000
0100
0010
0001
0000
0010
0000
,
0001
0000
1000
0000
0010
0000
0100
0000
0010
0000
1000
0000
0100
1000
0001
1000
,
0000
0001
0100
0010
0100
0010
1000
0000
0010
0000
1000
0000
0100
0000
1000
0001
,
0000
0000
1000
0001
0010
0000
0100
0000
1000
0000
0001
0000
0100
0000
0010
1000
,
0000
0000
0010
1000
0100
0000
0000
0010
0000
0000
0001
0000
2000
0000
0000
0000
,
0000
0000
3000
0000
0010
0000
0100
0000
0001
0000
0010
0000
0100
0000
1000
0001
,
0000
0000
1000
0010
1000
0000
0010
0000
0100
0000
0010
0000
1000
0000
0010
1000
,
0000
0000
0100
0010
0001
0000
0010
0000
0100
0000
1000
0000
0010
0000
0100
0010
,
0000
0000
1000
0100
1000
0000
0000
0001
0000
0000
0010
0000
0100
0000
0000
0000
,
1000
0000
0000
0010
1000
0000
0000
1000
0010
0000
0010
0000
0100
0000
0000
0100
,
0001
0001
1000
1000
0010
1000
0001
0000
,
0010
0000
0000
0100
1000
0000
1000
0000
0010
0000
0000
0010
0100
0000
0100
0000
,
0001
0000
1000
0000
0010
1000
0100
1000
0010
0000
1000
0000
0001
0000
0000
0000
,
0010
0000
0000
0001
1000
0000
0000
1000
0010
0000
0000
0010
0100
0000
0000
0100
,
0010
0000
0000
0010
1000
0000
0100
0000
1000
0000
0001
0000
0020
0000
0000
0000
,
0000
0030
0001
1000
0001
0000
0000
1000
0010
0000
0000
0000
0100
0000
0000
0000
,
1000
0000
0100
0000
0010
0000
0000
1000
0000
0000
0100
0000
0020
0000
0000
0000
,
0000
0030
0000
0000
0001
1000
0001
0000
0010
0000
0100
1000
0100
0000
0000
0000
,
1000
0000
0000
0000
0001
0000
0010
0001
0000
0001
1000
0000
0010
0000
1000
0010
,
0000
0010
0100
0000
0001
0010
0001
0000
0001
0000
1000
0000
0100
0000
1000
0000
,
0010
0100
0001
0000
1000
0000
0010
0000
,
0100
0000
0020
0000
0030
1000
0100
0000
,
0010
0000
0000
0000
0001
0000
1000
0001
0000
1000
0010
0000
1000
0000
0010
0100
,
0000
0010
1000
0000
0001
0000
1000
0001
1000
0000
0010
0000
0100
0000
0001
0000
,
0010
0100
1000
0000
0001
0000
0100
0000
,
0010
0000
0000
0000
2000
0000
0000
0000
0000
3000
0001
0000
1000
0000
0000
0000
,
0010
0000
0000
0000
0100
0000
0001
0010
0000
0010
0100
0000
0100
0000
1000
0010
,
0000
0010
0100
0000
0100
0000
0001
0000
1000
0000
0001
0000
0010
0000
0000
0000
,
0100
0000
0000
0000
1000
0000
0000
0001
0000
0000
0100
0000
0010
0000
0000
1000
,
0000
0000
0010
0000
0200
0000
0000
0000
0000
0300
1000
0000
0100
0000
0000
0000
,
0010
0000
0000
0000
1000
0000
0100
0010
0000
0001
0010
0001
1000
0000
0010
1000
,
0000
0010
0100
0010
1000
0000
0010
0000
1000
0000
0100
0000
0010
0000
0001
0000
,
1000
0000
0001
0000
0200
0000
0000
0000
0000
0300
0010
1000
0010
0000
1000
0000
,
0100
0000
0000
0000
0010
0000
0001
0010
0001
0000
0010
0100
0010
0000
0100
0000
,
1000
0000
0010
1000
0010
1000
0001
0100
,
0001
0010
0100
1000
0010
0100
2000
0000
,
0000
0000
0000
3000
0100
0000
0010
0000
1000
0000
0100
0000
0010
0000
1000
0000
,
0010
0001
1000
0010
0100
0001
0020
0000
,
0000
0030
0100
1000
0010
0100
0010
1000
,
0100
0010
0001
0001
0100
0010
2000
0000
,
0000
0000
0000
3000
0010
0000
1000
0000
0100
0000
0010
0000
1000
0000
0010
0000
,
0100
0010
0001
0100
0010
0001
0020
0000
,
0030
0000
0000
0010
0100
0000
0010
0000
0010
0000
1000
0000
0101
0000
0001
0010
,
0000
0000
0100
0000
1000
0000
0010
0000
0100
0000
0001
0000
1100
0000
1000
0010
,
0000
0000
0100
0000
0001
0000
0010
0000
0100
0000
1000
0000
1001
0000
0001
0100
,
0000
0000
0010
1000
0010
0000
0000
1000
0000
0000
0001
0000
0020
0000
0000
0000
,
0000
0000
0030
0000
0100
0000
1000
0000
0010
0000
0100
0000
0010
1000
0010
1000
,
0000
0000
0100
0010
0001
0000
0010
0000
0001
0000
1000
0000
0010
0100
0010
1000
,
0000
0000
0001
0010
0001
0000
0010
0000
0100
0000
1000
0000
0001
1000
0001
1000
,
0000
0000
0010
0100
0010
0000
0000
1000
0000
0000
0001
0000
0020
0000
0000
0000
,
0030
0000
0000
0001
1000
0000
0000
1000
0010
0000
0000
0010
0100
0000
0000
0100
,
0001
0000
0000
0010
0100
0000
1000
0000
0001
0000
1000
0000
0010
0000
0100
0000
,
0001
0000
0000
0001
1000
0000
0000
1000
0010
0000
0000
0010
0100
0000
0000
0100
,
1000
0000
0000
1000
0100
0000
0010
0000
1000
0000
0100
0000
0010
0000
0001
0000
,
1000
0000
0000
0001
1000
0000
0000
1000
0010
0000
0000
0010
0100
0000
0000
0100
,
0010
0000
0000
0010
1000
0000
0100
0000
0010
0000
0001
0000
1000
0000
0100
0000
,
1000
0000
0000
0010
0100
0000
0000
0100
0010
0000
0000
0010
1000
0000
0000
1000
,
0100
0000
0010
0000
0001
0000
0000
1000
0000
0000
0100
0000
2000
0000
0000
0000
,
0000
0000
3000
0000
0001
0010
0100
0010
0001
1000
0001
1000
0010
0000
0000
0000
,
0100
0000
0000
0000
0001
0000
1000
0001
0000
0001
1000
0000
0010
0000
1000
0010
,
0000
1000
0010
0000
0100
0000
0010
1000
0010
0000
1000
0000
0100
0000
0010
0000
,
0001
1000
0100
0000
1000
0000
0010
0000
,
0100
0000
0001
0000
0000
0010
0100
0000
,
1000
0000
0000
0000
0001
0000
1000
0010
0000
0010
1000
0000
0010
0000
0100
0010
,
0000
0010
0100
0000
0010
0000
1000
0100
1000
0000
0001
0000
0010
0000
0100
0010
,
0100
0000
1000
0000
0001
1000
0001
0000
0100
0010
0100
0000
0010
1000
0010
0000
,
1000
0000
0100
0000
0010
0000
0001
0010
0001
0000
1000
0000
0100
0000
1000
0000
,
0010
0000
0100
0000
0010
0000
1000
0010
0000
0010
1000
0000
0010
0000
0100
0010
,
0000
0010
1000
0000
0010
0000
1000
0100
0010
0000
0001
0000
0010
0000
0100
0000
,
0010
0000
1000
0000
0010
0000
0000
0001
0000
0000
1000
0000
0010
0000
0000
0100
,
0000
0010
1000
0000
0000
0001
0010
0000
,
0100
0000
0000
0000
1000
0000
0001
0010
0100
0010
0001
1000
0001
1000
0100
0010
,
0100
1000
0100
0010
0001
0000
0000
0000
0001
0000
0000
0000
0010
0000
0000
0000
,
0100
0000
0000
0000
2000
0000
0000
0000
3000
0000
0001
0000
0100
0000
0001
1000
,
0010
0000
1000
0000
0010
1000
0010
0000
0100
0000
0010
0100
0010
0000
1000
0000
,
0100
0000
0010
0000
0001
0010
0100
1000
0001
1000
0001
0100
0010
1000
0001
0010
,
0001
0010
0001
1000
0010
0100
0001
1000
0100
0010
0001
0010
0001
1000
0001
1000
,
0010
0100
0010
1000
0001
0000
0000
0000
0010
0000
0000
0000
0100
0000
0000
0000
,
1000
0010
0100
0001
,
1000
0000
0000
0000
0001
0100
0010
1000
0100
0010
0001
1000
0001
1000
0010
0100
,
0010
1000
0001
1000
0001
0010
0001
0010
0100
1000
0001
0100
0001
1000
0010
1000
,
0001
0010
0100
0010
0001
0000
0000
0000
1000
0000
0000
0000
0010
0000
0000
0000
,
0100
1000
0100
0010
,
1000
0000
0000
0000
0001
0010
0100
1000
0001
1000
0010
0100
0010
0000
0000
0000
,
1000
0001
0010
0001
,
1000
0001
0000
0000
0000
0000
0100
0000
,
0000
0000
0010
0000
1000
0100
0010
0000
,
0001
0000
0000
0000
2000
0000
0000
0000
0000
0000
0000
0000
0000
0000
0000
3000
,
0010
0000
0100
0000
0001
0010
0100
0000
,
1000
0000
0000
0000
0020
0000
0000
0000
0030
0000
0100
0001
0100
0000
0010
0000
,
1000
0000
0000
0000
0100
0000
0000
0000
0000
0000
0010
0001
0010
0000
0100
0000
,
1000
0000
0010
0000
0200
0000
0000
0000
0000
0300
0002
0000
0000
0000
0000
0003
,
1000
0000
0020
0000
0000
0000
0000
0030
,
0100
0000
0001
0000
2000
0000
0000
0000
0000
3000
0020
0000
0000
0000
0000
0030
,
1000
0000
0200
0000
0000
0000
0000
0300
,
0010
0000
0001
1000
0002
0000
0000
0000
0000
0000
0000
0000
2003
0000
0000
0000
,
0000
0000
0000
3000
0020
0000
0000
0000
0000
0000
0000
0030
0200
0000
0000
0000
,
0000
0000
0000
0300
0002
0000
0000
0000
0000
0000
2003
0000
0000
0000
0000
3000
,
0010
0000
0100
0000
0001
0000
0010
0100
1000
0000
0001
0000
1000
0000
0010
0000
,
0100
0000
0000
0000
0002
0000
0000
0000
0000
0003
1000
0000
0020
0000
0000
0000
,
0000
0000
0000
0030
0100
0000
0001
1000
0001
0000
1000
0000
2000
0000
0000
0000
,
0000
0000
0000
3000
0010
1000
0010
0000
0010
0000
1000
0100
0000
0100
1000
0000
,
0010
0000
0100
0000
0001
0010
0001
0000
0001
0000
1000
0001
0000
0001
1000
0000
,
0001
0000
1000
0001
1000
0000
0010
0000
0100
0000
0010
0000
1000
0000
0100
0000
,
0010
0001
0010
0100
1000
0010
0100
0001
,
1000
0000
0100
1000
0100
0000
1000
0000
0010
0000
0100
0000
0001
0000
0010
0000
,
0100
0000
1000
0010
1000
0010
1000
0010
1000
0010
0100
0001
0100
0001
0100
0001
,
0010
0000
0000
0000
0010
0001
0010
0000
0001
0000
1000
0000
0100
0000
1000
0000
,
0010
0100
0010
1000
0100
0010
0001
0010
,
0100
0000
0000
0000
1000
0000
0001
1000
0001
0000
1000
0000
0010
0000
1000
0010
,
1000
0000
0010
0000
0100
0010
1000
0010
1000
0010
1000
0100
0010
0000
0001
0000
,
1000
0000
0000
0000
0001
0000
1000
0001
1000
0000
0010
0000
1000
0010
1000
0000
,
0010
0000
0100
0000
0010
0100
0010
0000
1000
0000
0010
1000
0100
0000
1000
0000
,
0001
0000
0000
0000
0010
0000
0001
0010
0001
0000
0010
0000
0100
1000
0100
0000
,
1000
0000
0001
0000
1000
0000
0010
1000
0010
0000
0100
0000
0010
1000
0020
0000
,
0000
0000
0000
0030
0000
0000
0000
0000
0001
0000
0010
0100
0000
0010
0001
0000
,
1000
0000
0001
1000
0000
0010
0100
0000
0010
0000
1000
0010
1000
0000
0100
0000
,
0010
0001
1000
0001
1000
0000
0001
0000
,
0010
0000
0000
0000
0100
0000
0000
0000
2000
0000
0000
0000
0000
3000
0001
0000
,
0100
0000
0000
0000
0010
0000
0000
0000
1000
0000
0001
0010
0000
0010
0100
0000
,
1000
0000
0010
1000
0000
1000
0010
0000
0100
0000
0010
0100
0010
0000
1000
0000
,
0001
0000
1000
0001
1000
0000
0001
0000
0010
0001
0010
0000
0100
1000
0100
0000
,
1000
0010
1000
0000
0010
0100
0010
0000
0100
0000
0001
1000
0001
0000
1000
0000
,
0100
0000
0010
0000
0001
0000
1000
0000
0010
0000
0100
0010
0000
1000
0010
0000
,
1000
0000
0100
0010
0000
0001
0010
0000
0001
0000
1000
0010
1000
0000
0001
0000
,
0100
0000
0001
0000
1000
0000
0010
0000
1000
0000
0000
0100
0000
0000
0010
0000
,
0001
0000
0000
1000
0000
0000
0010
0000
0200
0000
0000
0000
0300
0000
0001
0000
,
0010
0000
0000
0000
0100
0000
0000
0000
1000
0000
0010
0100
0001
1000
0100
0010
,
0001
1000
0001
0100
0010
1000
0001
0010
0100
0000
0000
0000
2000
0000
0000
0000
,
3001
0000
0000
0000
0200
0000
0000
0000
0302
0000
0000
0000
0000
0003
0010
0000
,
0100
0000
2000
0000
0000
0000
3000
0000
0010
0000
0100
0010
1000
0000
0001
0000
,
0010
0000
0100
0000
1000
0000
0001
0000
0010
0001
0010
0000
0100
0000
1000
0010
,
1000
0000
0010
0000
0100
0000
0001
0000
0010
0000
0001
0010
0000
0100
1000
0000
,
0010
0000
0100
0010
0000
0100
0010
0000
1000
0000
0001
1000
0001
0000
0010
0000
,
0100
0010
0100
0000
1000
0000
0001
1000
0001
0000
0100
0000
0010
0000
1000
0000
,
0001
0000
0000
0000
0010
0000
0000
0000
0001
0000
1000
0010
0000
0100
0010
0000
,
1000
0000
0100
0010
0000
0001
1000
0000
0001
0000
1000
0010
0100
0000
0010
0000
,
1000
0001
0010
0001
1000
0000
0020
0000
,
0130
0000
0001
0000
0020
0000
0030
0100
,
1000
0000
0000
0000
0001
0000
0000
0000
0010
0000
0001
1000
0000
1000
0010
0000
,
0100
0000
0010
1000
0000
1000
0100
0000
0010
0000
0001
0010
0001
0000
1000
0000
,
0100
0000
1000
0010
1000
0000
0010
0000
0100
0000
0010
1000
0000
0010
1000
0000
,
0100
0000
0010
0001
0000
0010
0001
0000
1000
0000
0100
1000
0001
0000
0100
0000
,
0001
0000
0010
0000
0100
0000
1000
0000
0001
0000
1000
0001
1000
0000
0001
0100
,
0010
0000
1000
0010
1000
0000
0100
0000
0010
0000
0000
0000
0002
0000
0000
0000
,
1003
0000
0010
0000
0200
0000
0000
0001
,
0001
0000
0001
0000
0000
0300
0000
0000
0100
0000
0010
1000
0010
0000
0100
0010
,
2000
0000
0000
0000
3001
0000
0000
0000
0020
0000
0000
0000
0000
0030
0100
1000
,
0200
0000
0000
0000
0000
0300
0010
0001
0010
0000
0000
0000
0001
0000
0000
0000
,
0100
0000
0000
0000
0010
0000
0000
0000
2000
0000
0000
0000
0000
0000
0000
3000
,
0020
0000
0000
0030
0100
0000
0000
0000
0002
0000
0000
0000
0000
0000
0013
0100
,
0010
0000
0000
0000
0100
0000
0000
0000
2000
0000
0000
0000
0000
3000
0001
0100
,
0002
0000
0000
0000
0003
0000
1000
0010
1000
0000
0000
0000
0010
0000
0000
0000
,
0100
0000
0000
0000
0001
0000
0000
0000
0010
0000
0000
0000
0200
0000
0000
0300
,
1000
0000
0010
0000
0200
0000
0300
0001
,
1000
0000
0000
0000
0100
0000
0000
0000
0020
0000
0000
0000
0030
0000
0001
0010
,
0002
0000
0000
0000
0000
0003
1000
0001
1000
0000
0000
0000
0010
0000
0000
0000
,
0100
0000
0000
0000
0001
0000
0000
0000
1000
0000
0010
1000
0000
0010
0100
0000
,
0010
0000
1000
0100
0000
0010
0001
0000
0010
0000
0001
1000
0100
0000
1000
0000
,
0010
0000
0000
0000
0100
0000
0000
0000
0002
0000
0000
0000
0000
0003
1000
0001
,
2000
0000
0000
0000
0000
3000
0001
0010
0001
0000
0000
0000
1000
0000
0000
0000
,
0020
0000
0130
0000
0001
0010
0100
1000
,
0001
0100
0010
0100
0010
1000
0100
0010
,
0002
0000
0000
0000
0000
0000
0003
0000
1000
0000
0001
1000
0001
0000
1000
0000
,
0010
0000
0100
0010
0100
0000
0010
0000
1000
0100
1000
0000
0100
0000
0010
0001
,
0020
0000
0000
0000
0000
0000
0030
0000
0001
0000
1000
0010
1000
0000
0010
0100
,
0010
0000
1000
0001
1000
0000
0001
0010
0100
0000
0010
0000
0100
0000
1000
0000
,
0002
0000
0000
0000
0000
0000
0003
0000
1000
0001
1000
0000
0010
0000
0100
0010
,
0100
0000
0010
0000
1000
0000
0100
0000
1000
0001
1000
0001
0010
0001
0010
0100
,
1000
0000
0001
0000
1000
0000
0010
0000
0100
0010
1000
0001
0100
0010
1000
0001
,
0100
0010
1000
0100
0010
0001
1000
0010
2000
0000
0000
0000
0000
0000
0000
0000
,
0000
0000
0000
0000
,
0000
0000
0000
0000
,
0000
0000
0000
0000
,
0000
0000
0000
0000
,
0000
0000
0000
0000
,
0000
0000
0000
0000
,
3000
0000
0000
0000
;

//---------------dance-single - KASU----------------
#NOTES:
     dance-single:
     KASU:
     Medium:
     9:
     0.698,0.823,0.011,0.232,0.405,1299.000,3.000,65.000,0.000,0.000:





0000
0000
0000
0000
,
0000
0000
0000
0000
,
0000
0000
0000
0000
,
0000
0000
0000
0000
,
0000
0000
1000
0001
1000
0010
0100
0001
,
1000
0100
0010
0001
0010
0100
1000
0010
,
0100
0001
1000
0100
0010
0100
0001
0100
,
0010
0000
0100
0000
1000
0010
1000
0000
0010
0000
0100
0010
0100
0000
0001
0000
,
0010
0000
0100
0000
1000
0001
1000
0000
0001
0000
0100
0000
0010
0000
1000
0000
,
0100
0010
0001
0010
0100
1000
0020
0000
,
0000
0030
0100
0001
1000
0100
0010
0001
,
0010
0100
1000
0010
0100
0001
0020
0000
,
0000
0000
0030
0000
0001
1000
0001
0000
1000
0000
0010
0000
0100
0000
0001
0000
,
0010
0100
1000
0001
0100
0010
0200
0000
,
0000
0300
0000
0000
0010
1000
0010
0000
1000
0000
0100
0000
0010
0000
0001
0000
,
0010
0100
1000
0001
0100
0020
1000
1000
,
1000
0000
0030
0000
0100
0001
0100
0000
0001
0000
1000
0000
0100
0000
0010
0001
,
0000
0000
0010
0100
0010
0000
0001
0000
1000
0000
0010
0000
0100
0000
0010
0100
,
0000
0000
0010
0000
1000
0000
0100
0000
0010
0000
0001
0000
0010
0000
0100
1000
,
0000
0000
0001
0000
0100
0000
0000
0010
0000
0000
1000
0000
0020
0000
0000
0000
,
0030
0000
0000
0000
0100
0001
0100
0000
0001
0000
0010
0000
0100
0000
1000
0001
,
0000
0000
1000
0000
0010
0000
0100
0000
0001
0000
0010
0000
0100
0000
1000
0001
,
0000
0000
1000
0000
0010
0000
0100
0000
0001
0000
0100
0000
0010
0000
1000
0010
,
0000
0000
1000
0100
1000
0000
0000
0001
0000
0000
0010
0000
0100
0000
0000
0000
,
0000
0000
0000
1000
0010
0000
0000
0010
0100
0000
0000
0100
0001
0000
0000
0001
,
0010
0000
0100
1000
0010
0100
0002
0000
,
0003
0000
0000
0001
1000
0000
0000
1000
0010
0000
0000
0010
0100
0000
0000
0100
,
0001
0010
0100
1000
0001
1000
0010
0000
,
0000
0000
0000
0100
0001
0000
0000
0001
0010
0000
0000
0010
0100
0000
0000
0100
,
1000
0000
0000
1000
0010
0000
0100
0000
0001
0000
1000
0000
0010
0000
0000
0000
,
0000
0000
0000
0010
1000
0000
0000
1000
0010
0000
0000
0010
0100
0000
0000
0010
,
1000
0000
0100
0000
0010
0000
0000
0001
0000
0000
1000
0000
0100
0000
0000
0000
,
0000
0000
1000
0001
0010
0100
1000
0000
,
0010
0000
0000
0000
0100
0000
0001
1000
0000
0001
1000
0000
0010
0000
1000
0010
,
0000
1000
0010
0000
0100
0000
0010
0000
1000
0000
0010
0000
1000
0000
0100
0000
,
0010
0001
0010
0000
0100
0000
1000
0000
,
0010
0000
0100
0000
0000
0001
0010
0000
,
0100
0000
0000
0000
1000
0000
0001
1000
0000
0001
1000
0000
0010
0000
1000
0010
,
0000
1000
0010
0000
0100
0000
0001
0100
0001
0000
0010
0000
0100
0000
1000
0000
,
0001
1000
0010
0000
1000
0000
0100
0000
,
0010
0000
0002
0000
0003
1000
0001
0000
,
0100
0000
0000
0000
0010
0000
1000
0010
0000
1000
0010
0000
0100
0000
0010
0100
,
0000
0010
1000
0000
0100
0000
1000
0001
1000
0000
0001
0000
0010
0000
0100
0000
,
1000
0000
0001
0000
0100
0000
0000
0010
0000
0000
1000
0000
0100
0000
0000
0010
,
0000
0001
0010
0000
0000
0001
0010
0000
,
0100
0000
0000
0000
1000
0000
0010
0100
0000
0010
1000
0000
0001
0000
0010
0001
,
0000
0010
0100
0000
1000
0000
0001
1000
0001
0000
0100
0000
0010
0000
1000
0000
,
0100
0000
0010
0000
0001
0010
0001
0000
1000
0000
0010
1000
0010
0000
0100
0000
,
0001
0000
1000
0000
0100
0000
0010
0001
0010
0000
0001
0000
1000
0000
0000
0000
,
0010
0000
0100
0001
1000
0010
1000
0100
,
0010
0001
0010
0100
1000
0001
0200
0000
,
0000
0300
0010
1000
0100
0010
0001
0100
,
1000
0100
0010
1000
0100
0001
0200
0000
,
0000
0300
0010
0100
1000
0001
0100
0010
,
1000
0100
0001
0100
0010
1000
0020
0000
,
0000
0000
0000
0030
0001
0000
0100
0000
0010
0000
1000
0000
0100
0000
1000
0000
,
0001
0100
0010
1000
0100
0010
0002
0000
,
0000
0000
0000
0003
1000
0000
0010
0000
1000
0000
0010
0000
0100
0001
0100
0001
,
0000
0000
1000
0000
0100
0000
1000
0000
0010
0000
0100
0000
0001
1000
0001
1000
,
0000
0000
0100
0000
0010
0000
0001
0000
1000
0000
0100
0000
1000
0001
1000
0001
,
0000
0000
0100
0010
1000
0000
0000
0100
0000
0000
0010
0000
0002
0000
0000
0000
,
0000
0000
0003
0000
1000
0000
0001
0000
0100
0000
0010
0000
0100
0010
0100
0010
,
0000
0000
1000
0010
1000
0000
0100
0000
0010
0000
0001
0000
1000
0001
1000
0001
,
0000
0000
1000
0000
0010
0000
0100
0000
0010
0000
1000
0000
0100
1000
0100
1000
,
0000
0000
0001
0010
0001
0000
0000
0010
0000
0000
0100
0000
2000
0000
0000
0000
,
0000
3000
0000
0001
0100
0000
0000
0100
0010
0000
0000
0010
1000
0000
0000
1000
,
0100
0000
0000
0010
0001
0000
0010
0000
0001
0000
1000
0000
0010
0000
0100
0000
,
0001
0000
0000
0001
1000
0000
0000
1000
0001
0000
0000
0001
0100
0000
0000
0100
,
0010
0000
0000
0010
1000
0000
0100
0000
1000
0000
0001
0000
0010
0000
0001
0000
,
0010
0000
0000
0001
1000
0000
0000
1000
0001
0000
0000
0001
1000
0000
0000
1000
,
0010
0000
0000
0010
0100
0000
0001
0000
0100
0000
0001
0000
1000
0000
0010
0000
,
1000
0000
0000
0100
1000
0000
0000
1000
0010
0000
0000
0010
0100
0000
0000
0100
,
0001
0000
0000
0001
0010
0000
0000
0100
0000
0000
1000
0000
0002
0000
0000
0000
,
0000
0003
1000
0010
0100
0001
0010
0000
,
0100
0000
0000
0000
1000
0000
0001
1000
0000
1000
0001
0000
0001
0000
1000
0010
,
0000
1000
0010
0000
0100
0000
0010
1000
0010
0000
1000
0000
0100
0000
0010
0000
,
0001
0010
0100
0000
1000
0000
0010
0000
,
0100
0000
0000
0000
0002
0000
0000
0000
0000
0003
0010
0000
0100
0000
0000
0000
,
1000
0000
0000
0000
0010
0000
1000
0010
0000
1000
0010
0000
0100
0000
0010
0100
,
0000
0010
1000
0000
0100
0000
0010
0001
0010
0000
0001
0000
0010
0000
0100
0000
,
1000
0001
2000
0000
3010
0000
0100
0000
,
0001
0000
0000
0000
2000
0000
0000
0000
0000
3000
0001
0000
0100
0000
0000
0000
,
0010
0000
0000
0000
1000
0000
0100
0010
0000
0001
0010
0000
0100
0000
0010
0001
,
0000
0001
1000
0000
1000
0000
0010
0100
0010
0000
1000
0000
0100
0000
0010
0000
,
0001
0000
1000
0000
0100
0000
0000
1000
0000
0000
0010
0000
0100
0000
0000
0001
,
0000
1000
0002
0000
0003
0010
0100
0000
,
1000
0000
0000
0000
0010
0000
0100
0001
0000
0100
0001
0000
1000
0000
0010
1000
,
0000
0010
1000
0000
0100
0000
0010
0001
0010
0000
0001
0000
1000
0100
1000
0000
,
0100
0000
1000
0010
0100
0000
0001
0000
1000
0000
0001
1000
0001
1000
0001
1000
,
0001
0000
1000
0000
0010
0000
0100
0010
0100
0000
0010
1000
0010
0000
0000
0000
,
1000
0000
0001
0010
0001
1000
0100
1000
,
0010
0100
1000
0100
0010
1000
0100
0001
,
0100
0010
1000
0000
0010
0000
0001
0000
,
0100
0010
1000
0100
,
0010
0000
0001
1000
0010
0100
1000
0100
,
0010
1000
0100
0001
1000
0010
0001
0100
,
0010
0100
1000
0000
0100
0000
0010
0000
,
0001
0000
0000
0000
0010
0000
0000
0000
1000
0000
0000
0000
0200
0000
0000
0300
,
0001
0000
1000
0010
0001
1000
0010
0000
,
0100
0001
1000
0010
,
0100
0002
0000
0000
0000
0003
0020
0000
,
0030
0000
0000
0000
0100
0000
1000
0100
1000
0000
0010
0000
0100
0000
0001
0000
,
0010
0000
0100
0000
1000
0000
0001
0000
0100
0000
0010
0100
0010
0000
0000
0000
,
1000
0000
0100
1000
0100
0000
1000
0000
0001
0000
0010
0000
0100
0000
0000
0000
,
1000
0000
0010
0100
0010
0000
1000
0000
0100
0000
0010
0000
0001
0000
0010
0100
,
0000
0010
0100
0000
1000
0000
0010
1000
0010
0000
0100
0000
0001
0000
0010
0000
,
0100
0000
1000
0000
0001
0000
1000
0001
1000
0000
0010
0000
0100
0010
0100
0000
,
0010
0000
1000
0100
1000
0000
0001
0000
0010
0000
0100
0000
1000
0000
0001
0000
,
0100
0001
0100
0000
0001
0000
1000
0010
1000
0000
0010
0000
0100
0010
0100
0000
,
0010
0000
1000
0100
1000
0000
0001
0000
0010
0000
0100
0010
0100
0000
1000
0000
,
0001
0000
1000
0000
0010
0000
1000
0010
1000
0000
0010
0000
0100
0000
0001
0000
,
1000
0000
0100
1000
0100
0000
1000
0000
0010
0000
0100
0010
0100
0000
0001
0000
,
1000
0000
0100
0000
1000
0001
1000
0000
1000
0000
0001
0000
1000
0010
1000
0000
,
1000
0000
0010
0000
1000
0100
1000
0000
0001
0100
0001
0000
0001
0000
1000
0010
,
1000
0000
0100
0000
1000
0000
0001
0010
0001
0000
0010
0000
0200
0000
0000
0000
,
1300
0000
0000
0000
0001
0000
0100
0001
0100
0000
0010
0000
1000
0000
0100
0000
,
0010
0000
0000
0000
0001
1000
0001
0000
1000
0000
0010
0100
0000
0010
1000
0000
,
0100
0000
0010
0000
0001
0000
0010
0001
0010
0000
0100
0000
1000
0001
1000
0000
,
0001
0000
1000
0001
1000
0000
0010
0000
0100
0000
0010
0000
1000
0000
0100
0000
,
0010
0001
0010
0100
1000
0001
0100
1000
,
0100
0010
1000
0100
0001
0100
0010
1000
,
0010
0000
0001
0000
1000
0010
0100
0000
0010
0000
1000
0100
1000
0000
0001
0000
,
0010
0000
0000
0000
0001
1000
0001
0000
1000
0000
0010
0000
0100
0000
0010
0000
,
1000
0100
0001
0100
0010
1000
0010
0001
,
1000
0000
0000
0000
0010
0100
0010
0000
0100
0000
1000
0000
0100
0000
0010
0000
,
1000
0100
0010
0001
1000
0010
0100
0010
,
0001
0000
0000
0000
0010
1000
0010
0000
1000
0000
0100
0000
0010
0000
0001
0000
,
1000
0010
0100
0001
1000
0100
0010
0001
,
1000
0000
0000
0000
0001
1000
0001
0000
1000
0000
0010
0000
0100
0000
0001
0000
,
1000
0000
0100
0000
0010
0000
0001
0010
0001
0000
0100
1000
0100
0000
0000
0000
,
0000
0000
0000
0000
0000
0000
0000
0000
0001
0000
1000
0001
0000
1000
0010
0000
,
0100
0000
0010
1000
0000
0100
1000
0000
0001
0000
0010
0100
0010
0000
0001
0000
,
1000
0010
0100
0001
1000
0000
0010
0000
,
0100
0000
1000
0000
0200
0000
0300
0010
,
1000
0000
0000
0000
0100
0000
0000
0000
0001
0000
0100
0010
0000
0100
1000
0000
,
0001
0000
1000
0010
0000
0100
0010
0000
1000
0000
0001
0010
0001
0000
0010
0000
,
0100
1000
0010
0100
0001
0000
1000
0000
,
0010
0000
0100
0000
0002
0000
0003
1000
,
0010
0000
0000
0000
1000
0000
0000
0000
0100
0000
0010
0001
0000
0010
0001
0000
,
1000
0000
0010
1000
0000
0010
0100
0000
0001
0000
1000
0100
1000
0000
0001
0000
,
0100
0000
0001
0100
0001
0000
1000
0000
0010
0000
1000
0010
0000
1000
0001
0000
,
0010
0000
0001
0010
0000
0001
1000
0000
0020
0000
0000
0000
0030
0000
0100
0000
,
0010
0000
0000
0000
1000
0000
0000
0000
0100
0000
0010
0001
0010
0000
0001
1000
,
0100
0000
1000
0100
1000
0000
0010
0100
0001
0000
0000
0000
2000
0000
0000
0000
,
3001
0000
0000
0000
0010
0000
0000
0000
0200
0000
0000
0000
0000
0300
1000
0000
,
0001
0000
0001
0000
0000
0000
0000
0000
0100
0000
0010
1000
0010
0000
1000
0000
,
0100
0000
0010
0000
0001
0000
0010
0000
0100
1000
0100
0000
1000
0000
0010
0100
,
0010
0000
0000
0000
0000
0000
0100
0000
0001
0000
1000
0001
0000
1000
0001
0000
,
1000
0000
0010
1000
0000
0010
0100
0000
0010
0000
1000
0100
0010
0000
0001
0010
,
0001
0000
1000
0100
1000
0000
0010
0100
0020
0000
0000
0000
0030
0000
1000
0000
,
0001
0000
0000
0000
0010
0000
0000
0000
0200
0000
0000
0000
0000
0300
1000
0000
,
0001
0000
0000
0000
0000
0000
0100
0001
0100
0000
0000
0000
0010
0000
0000
0000
,
1000
0000
0000
0000
0100
0000
0000
0000
0020
0000
0000
0000
0000
0030
0001
0000
,
1000
0000
0000
0000
0010
0000
0000
0000
0100
0000
0001
1000
0001
0000
1000
0000
,
0010
0000
0000
0000
0100
0000
0000
0000
0002
0000
0000
0000
0000
0003
0010
0000
,
0200
0000
0000
0000
0000
0300
1000
0010
1000
0000
0000
0000
0001
0000
0000
0000
,
0100
0000
0000
0000
0010
0000
0000
0000
1000
0000
0000
1001
0000
0000
0100
0000
,
0101
0000
0000
1000
0000
0000
0001
0000
1001
0000
0000
0000
0000
0000
0001
0000
,
2000
0000
0000
3000
0010
0000
0000
0000
0200
0000
0000
0000
0000
0300
0001
0000
,
2000
0000
0000
0000
3000
0000
0100
0010
0001
0000
0000
0000
0010
0000
0000
0000
,
0001
0000
0000
0000
1000
0000
0000
0000
0020
0000
0000
0000
0000
0030
0100
0000
,
0001
0002
0000
0000
2003
0000
3001
0000
,
0020
0000
0000
0000
0130
0000
0000
0000
2000
0000
0000
0000
3000
0000
0001
1000
,
0002
0000
0000
0000
0000
0003
1000
0010
2000
0000
0000
0000
3020
0000
0000
0030
,
0200
0000
0000
0300
0001
0000
0000
0000
0020
0000
0000
0000
0000
0000
0000
0030
,
0200
0000
0000
0000
1300
0000
0000
0000
0002
0000
0000
0000
0000
0003
0100
0000
,
0002
0000
0000
0000
1003
0000
0000
0000
0020
0000
0000
0000
0000
0030
0100
0001
,
0200
0000
0000
0000
0000
0300
0010
1000
0010
0000
0000
0000
1000
0000
0000
0000
,
0100
0010
0001
0001
,
1000
0000
0000
0000
0010
0000
0000
0000
0200
0000
0000
0000
0300
0000
0001
1000
,
0002
0000
0000
0000
1003
0000
0000
0000
0020
0000
0000
0000
0000
0030
0100
0001
,
0200
0000
0000
0000
0300
0000
0010
1000
0020
0000
0000
0030
1000
0000
0000
0000
,
0100
0010
0002
0000
,
2003
0000
0000
0000
3010
0000
0000
0000
0200
0000
0000
0000
0000
0300
0001
1000
,
0002
0000
0000
0000
0013
0000
0000
0000
0002
0000
0000
0000
0000
0000
1003
0001
,
2000
0000
0000
0000
0000
3000
0010
0100
0010
0000
0000
0000
1000
0000
0000
0000
,
0001
0000
0010
0000
0100
1000
0001
0100
,
1000
0100
0010
1000
0010
0001
0010
1000
,
0200
0000
0000
0000
0000
0000
0000
0300
0010
0000
0001
0000
0010
0000
1000
0000
,
0010
0001
0100
0010
1000
0100
0001
0100
,
0020
0000
0000
0000
0000
0000
0000
0030
0001
0000
1000
0000
0010
0000
0001
0000
,
0010
1000
0100
0010
0001
1000
0010
0100
,
2000
0000
0000
0000
0000
3000
0000
0000
0100
0000
0010
0000
1000
0000
0100
0000
,
0001
0100
0010
1000
0010
0001
1000
0010
,
0100
0000
0001
1000
0001
1000
0010
1000
0010
1000
0010
1000
0010
1000
0010
0100
,
0010
0100
0010
0100
0010
0100
0010
1000
0020
0000
0000
0000
0000
0000
0000
0000
,
0000
0000
0000
0000
,
0000
0000
0000
0000
,
0000
0000
0000
0000
,
0000
0000
0000
0000
,
0000
0000
0000
0000
,
0000
0000
0000
0000
,
0030
0000
0000
0000
;

//---------------dance-single - KASU----------------
#NOTES:
     dance-single:
     KASU:
     Easy:
     7:
     0.585,0.686,0.100,0.729,0.071,914.000,28.000,204.000,0.000,0.000:



0000
0000
0000
0000
,
0000
0000
0000
0000
,
0000
0000
0000
0000
,
0000
0000
0000
0000
,
0000
0000
1000
0100
0010
0100
0001
0100
,
0010
0001
1000
0010
0100
1000
0100
0010
,
1000
0100
0010
0001
0010
0100
1000
0010
,
0100
0001
0010
0100
1000
0001
1000
0010
,
0100
0010
1000
0100
1000
0100
0010
0001
,
0010
0100
1000
0010
0100
0010
2000
0000
,
0000
3000
0001
0010
0100
0010
0100
1000
,
0100
1000
0010
0100
0001
1000
0020
0000
,
0000
0030
0100
0001
0100
0001
1000
0010
,
1000
0100
0010
0001
0010
0100
2000
0000
,
0000
3000
0001
0100
0010
1000
0010
1000
,
0100
0010
0001
0010
0100
1000
0002
0000
,
0000
0000
0003
0000
0010
0000
0100
0000
0010
0000
0001
0000
1000
0000
0000
0010
,
0000
0000
0010
0000
1000
0000
0100
0000
0010
0000
0001
0000
0010
0000
0000
0100
,
0000
0000
1000
0000
0010
0000
0100
0000
0001
0000
1000
0000
0010
0000
0000
0100
,
0000
0000
0001
0000
0010
0000
0000
0100
0000
0000
1000
0000
0002
0000
0000
0000
,
0000
0000
0003
0000
0100
0000
0010
0000
1000
0000
0100
0000
0010
0000
0000
0001
,
0000
0000
0100
0000
0010
0000
1000
0000
0010
0000
0100
0000
1000
0000
0000
0100
,
0000
0000
0010
0000
1000
0000
0100
0000
0010
0000
0100
0000
0001
0000
0000
0100
,
0000
0000
0010
0000
0001
0000
0000
1000
0000
0000
0010
0000
0200
0000
0000
0000
,
0000
0000
0300
0000
0002
0000
0000
0000
2003
0000
0000
0000
3200
0000
0000
0300
,
0010
0000
0001
0010
0100
1000
0002
0000
,
0000
0003
0000
0000
1001
0000
0000
0000
0110
0000
0000
0000
0011
0000
0000
0000
,
0110
0000
1000
0001
0100
0010
2000
0000
,
0000
0000
3000
0000
0002
0000
0000
0003
0020
0000
0000
0030
0200
0000
0000
0300
,
2000
0000
0000
3000
0010
0000
0100
0000
0001
0000
0010
0000
0200
0000
0000
0000
,
0000
0300
0000
0000
1001
0000
0000
0000
0110
0000
0000
0000
0011
0000
0000
0000
,
1100
0000
0000
0000
1010
0000
0000
0100
0000
0000
0001
0000
2000
0000
0000
0000
,
0000
0000
0000
3000
0100
0000
0010
0000
0001
0000
0010
0000
0100
0000
0000
0000
,
1000
0000
0000
0000
0010
0000
0000
0100
0000
0000
0001
0000
0010
0000
0000
0100
,
0000
1000
0001
0000
0010
0000
0100
0000
,
1000
0020
0130
1000
,
0100
0000
0020
0000
0030
1000
0100
0000
,
0010
0000
0000
0000
0001
0000
0000
0010
0000
0000
0100
0000
1000
0000
0000
0010
,
0000
0100
0002
0000
0013
0000
0001
0000
,
2000
0000
0000
3000
0002
0000
0000
0003
0200
0000
0000
0300
0020
0000
0000
0030
,
1000
0100
0011
0010
,
0100
0000
0000
0000
1000
0000
0000
0001
0000
0000
0100
0000
0010
0000
0000
1000
,
0000
0100
0020
0000
0031
0000
0010
0000
,
0100
0000
0000
0000
1000
0000
0000
0001
0000
0000
0100
0000
0010
0000
0000
1000
,
0000
0000
0100
0000
0020
0000
0000
0000
0000
0030
0001
0000
1000
0000
0000
0000
,
0010
0000
0000
0000
0200
0000
0000
0000
0000
0300
0001
0000
0020
0000
0000
0000
,
0000
0030
0100
0000
2000
0000
0000
3000
0001
0000
0000
0000
1000
0000
0000
0000
,
0010
0000
0000
0000
0200
0000
0000
0000
0000
0300
0001
0000
0010
0000
0020
0000
,
0000
0030
0100
1000
0010
0100
0001
0000
,
0010
0000
0001
1000
0010
0100
1000
0100
,
0010
1000
0100
0001
0100
0010
0002
0000
,
0000
0003
0000
0000
0010
0000
1000
0000
0010
0000
0001
0000
0100
0000
0010
0000
,
0100
1000
0100
0010
1000
0100
0020
0000
,
0000
0030
0001
0010
1000
0010
0001
0100
,
0010
0100
1000
0100
0010
0010
0100
0000
,
0000
0000
1000
0001
0010
0100
0001
0100
,
0010
0001
1000
0010
0100
1000
0200
0000
,
0000
0000
0000
0300
0010
0000
1000
0000
0100
0000
0010
0000
0001
0000
0000
0010
,
0000
0000
0100
0000
1000
0000
0010
0000
0100
0000
0001
0000
1000
0000
0000
0010
,
0000
0000
0100
0000
0001
0000
1000
0000
0100
0000
0010
0000
0001
0000
0000
0010
,
0000
0000
0100
0000
1000
0000
0000
0010
0000
0000
0100
0000
2000
0000
0000
0000
,
0000
0000
3000
0000
0100
0000
0010
0000
1000
0000
0100
0000
0001
0000
0000
0100
,
0000
0000
0010
0000
1000
0000
0010
0000
0001
0000
0100
0000
0010
0000
0000
1000
,
0000
0000
0100
0000
0010
0000
0001
0000
0010
0000
1000
0000
0010
0000
0000
0001
,
0000
0000
0100
0000
0010
0000
0000
0100
0000
0000
1000
0000
0200
0000
0000
0000
,
0000
0300
0020
0000
2030
0000
3100
0000
,
0010
0000
0001
0010
0100
1000
0020
0000
,
0030
0011
0110
1100
,
1010
0000
0011
0010
0100
1000
0002
0000
,
0000
0003
0000
0000
0100
0000
0000
0000
0020
0000
0000
0030
2000
0000
0000
3000
,
0100
0000
0010
0001
1000
0100
2000
0000
,
3000
1001
0110
1001
,
1100
0000
0000
0000
0010
0000
0000
0001
0000
0000
1000
0000
0200
0000
0000
0000
,
0000
0000
0000
0300
0010
0000
0001
0000
1000
0000
0010
0000
0200
0000
0000
0300
,
0001
0000
2000
0000
0000
3100
0020
0000
,
0000
0030
0001
0000
1000
0000
0000
0000
0020
0000
0000
0030
0200
0000
0000
0300
,
0002
0000
0000
0003
0020
0000
0000
0000
0230
0000
0000
0000
1300
0000
0000
0000
,
0010
0000
0000
0000
0200
0000
0000
0000
0000
0300
0001
0000
0010
0000
0000
0000
,
0001
0000
0200
0000
0000
0310
2000
0000
,
3000
0100
0001
0000
0100
0000
0010
0000
,
1000
0000
0000
0000
0010
0000
0000
0000
0001
0000
0000
0000
0200
0000
0000
0300
,
1000
0000
0200
0000
0300
0010
1000
0000
,
0100
0000
0000
0000
0020
0000
0000
0000
0000
0030
0001
0000
2000
0000
0000
0000
,
0000
3010
0200
0000
0301
0000
2000
0000
,
3010
0000
0000
0000
0100
0000
0000
0001
0000
0000
1000
0000
0100
0000
0000
0010
,
0000
0000
0001
0000
0020
0000
0000
0000
0030
0000
0100
0000
2000
0000
0000
3000
,
0001
0000
0000
0000
0200
0000
0000
0000
0000
0300
0010
0000
2000
0000
0000
0000
,
0000
3000
0010
0000
0200
0000
0000
0000
0301
0000
0000
0000
0010
0000
0000
0000
,
0100
0000
0000
0000
2000
0000
0000
0000
0000
3000
0001
0000
0010
0000
0020
0000
,
0000
0000
0000
0030
0100
0000
1000
0000
0001
0000
0100
0000
0020
0000
0000
0030
,
2000
3100
0010
0001
,
0010
0000
0200
0000
1300
0000
0001
0100
,
0010
2000
3100
0020
,
0031
0010
0200
2300
,
3001
0000
0100
1000
0100
0010
1000
0100
,
0001
0100
0010
1000
0010
0001
0100
0010
,
1000
0100
0020
0000
0031
0000
0200
0000
,
0320
0000
0000
0030
2000
0000
0000
3000
0200
0000
0000
0300
0020
0000
0000
0030
,
0001
0000
1000
0001
0000
0100
0020
0000
,
2030
3100
0020
0031
,
1000
0010
0200
0000
0000
0000
0302
0000
,
0000
0000
0013
0000
0100
1000
0010
0000
,
0200
0000
0302
0000
0000
1003
0010
0000
,
0100
0002
0013
0100
,
0010
0000
0000
0000
0002
0000
0000
0000
0000
0003
1000
0000
0020
0000
0000
0000
,
0000
0000
0130
0000
0001
0010
0100
0000
,
1000
0000
0000
0000
0020
0000
0000
0000
0000
0030
0200
0000
0000
0000
0000
0300
,
0002
0000
0000
0000
2003
0000
0000
0000
0000
3000
0100
0000
0010
0000
0000
0000
,
0001
0000
0000
0000
0200
0000
0000
0000
0000
0300
0020
0000
0000
0000
0000
0000
,
2030
0000
0000
0000
3200
0000
0000
0000
0000
0300
0010
0000
0001
0000
0000
0000
,
0100
0000
0000
0000
0020
0000
0000
0000
0000
0000
0000
0030
2000
0000
0000
0000
,
0000
3200
0000
0320
,
0000
0000
0000
0030
0002
0000
0000
0000
0000
0000
0203
0000
0000
0000
0000
0300
,
0010
0000
1000
0000
0200
0000
0000
0000
0000
0000
0000
0300
0020
0000
0000
0030
,
0002
0000
0000
0000
2000
0000
0003
0000
0000
3000
0001
0000
0200
0000
0000
0000
,
0000
0000
0000
0300
0020
0000
0000
0000
0030
0000
1000
0000
0001
0000
0000
0000
,
0000
0000
0000
0000
0002
0000
0000
0003
1000
0000
0000
0000
0010
0000
0000
0000
,
0200
0000
0000
0300
0001
0000
0000
0000
0010
0000
0000
0000
0200
0000
0000
0300
,
1000
0001
2000
0000
3020
0000
0130
0000
,
0002
0013
0100
1000
,
0001
0000
0100
0000
0010
0000
0000
0000
2000
0000
0000
3000
0100
0000
0000
0000
,
0010
0000
0001
1000
0001
0100
0010
1000
,
0200
0000
0310
0001
1000
0010
0100
1000
,
0100
0010
1000
0001
0010
0100
0020
0000
,
0000
0030
0001
1000
0010
0100
0001
1000
,
0100
0010
0001
0100
1000
0100
0020
0000
,
0000
0030
1000
0010
0001
0010
1000
0100
,
0010
0100
0001
0100
0010
1000
0020
0000
,
0000
0000
0000
0030
0001
0000
0100
0000
0010
0000
1000
0000
0100
0000
0010
0000
,
0001
1000
0001
0100
0010
1000
0200
0000
,
0000
0000
0000
0000
0000
0000
0000
0000
0000
0000
0000
0000
0000
0000
0000
0000
0000
0000
0000
0000
0000
0000
0000
0000
0320
0030
0000
0000
0000
0000
0000
0000
0000
0000
0000
0000
0000
0000
0000
0000
0000
0000
0000
0000
0000
0000
0000
0000
0000
0000
0000
0000
0000
0000
0000
0000
0000
0000
0000
0000
0000
0000
0000
0000
0000
0000
0000
0000
0000
0000
0000
0000
0000
0000
0000
0000
0000
0000
0000
0000
0000
0000
0000
0000
0000
0000
0000
0000
0000
0000
0000
0000
0000
0000
0000
0000
0002
0000
0000
0000
0000
0000
0000
0000
0000
0000
0000
0000
0000
0000
0000
0000
0000
0000
0000
0000
0000
0000
0000
0000
0000
0000
0000
0000
0000
0000
0000
0000
0000
0000
0000
0000
0000
0000
0000
0000
0000
0000
0000
0000
0000
0000
0000
0000
0000
0000
0000
0000
0000
0000
0000
0000
0000
0000
0000
0000
0000
0000
0000
0000
0000
0000
0000
0000
0000
0000
0000
0000
1003
0000
0000
0000
0000
0000
0000
0000
0000
0000
0000
0000
0000
0000
0000
0000
0000
0000
0000
0000
0000
0000
0000
0000
,
0020
0000
0000
0000
0000
0030
0100
0000
0002
0000
0000
0000
1003
0000
0000
0000
,
0200
0320
0032
0203
,
0320
0000
1030
0000
0020
0000
0000
0130
,
0002
0000
0000
0000
0013
0000
0000
0000
0200
0000
0000
0000
0000
0300
1000
0000
,
0002
0000
0003
0100
0002
0000
1003
0000
,
0020
0000
0000
0030
0100
0000
0000
0000
0001
0000
1000
0000
0010
0000
0100
0000
,
0001
1000
0100
0010
0002
0000
0003
0100
,
0002
0000
1003
0000
0020
0000
0000
0130
,
0002
0000
0000
0000
0000
0003
1000
0000
0200
0000
0000
0000
0310
0000
0000
0000
,
0002
0000
0000
0000
0103
0000
0000
0000
0010
0000
0000
1000
0000
0000
0100
0000
,
0010
0000
0000
0001
0000
0000
1000
0000
0020
0000
0000
0000
0000
0030
0100
0000
,
0002
0000
0013
0000
0200
0000
0000
1300
,
0002
0000
0000
0000
0000
0003
0100
0000
0020
0000
0000
0000
2030
0000
0000
3000
,
0020
0000
0000
0000
0130
0000
0000
0000
0002
0000
0000
0000
0000
0003
0010
0000
,
0010
0000
0000
0000
0001
0100
0010
1000
,
0100
0000
0010
0000
0001
1000
0000
0010
,
0200
0000
0000
0000
0000
0300
0001
0000
0020
0000
0000
0000
0130
0000
0000
0000
,
0010
0000
0000
0000
0001
0000
0000
0000
0200
0000
0000
0300
0020
0000
0000
0000
,
2030
0000
0000
3000
0100
0000
0000
0000
0020
0000
0000
0000
0000
0030
0100
0000
,
1000
0000
0000
0000
0010
0000
0000
0000
0200
0000
0000
0000
0000
0300
0001
0000
,
2000
0000
0000
3100
0020
0000
0031
0000
,
1000
0000
0010
0000
0100
0001
1000
0100
,
0010
0000
0001
0000
0100
0000
0010
0000
2000
0000
0000
0000
0000
3000
0010
0000
,
0200
0000
0000
0300
1000
0000
0000
0000
0200
0000
0000
0000
0000
0000
0310
0000
,
2000
0000
0000
0000
0000
3000
0100
0000
0001
0000
0000
0000
0100
0000
0000
0000
,
0010
0000
0000
0000
0100
0000
0000
0000
1000
0000
0000
0001
0000
0000
0100
0000
,
0001
0000
0000
1000
0000
0000
0100
0000
0020
0000
0000
0000
0000
0030
0001
0000
,
2000
0000
0000
0000
3010
0000
0000
0000
0200
0000
0000
0000
0000
0300
0001
0000
,
2000
0000
3000
0100
0020
0000
0031
0000
,
2000
0000
0000
0000
3010
0000
0000
0000
0200
0000
0000
0000
0000
0300
0001
0000
,
1000
0000
2000
0000
0000
0000
0000
3000
0010
0000
0100
0000
0001
0000
1000
0000
,
0200
0000
0000
0300
0010
0000
0000
0000
0002
0000
0000
0000
0000
0003
0100
0000
,
0020
0000
0000
0000
0000
0030
1000
0000
0200
0000
0000
0000
0310
0000
0000
0000
,
0002
0000
0000
0000
1003
0000
0000
0000
0020
0000
0000
0000
0000
0000
0000
0030
,
0200
0000
0000
0000
0302
0000
0000
0003
2000
0000
0000
0000
0000
3000
0100
0000
,
0020
0000
0000
0000
0031
0000
0000
0000
2000
0000
0000
0000
0000
3000
0010
0000
,
0200
0000
0000
0000
0000
0300
0001
0000
2000
0000
0000
0000
3100
0000
0000
0000
,
0020
0031
1000
0010
,
0200
0000
0000
0000
0301
0000
0000
0000
0012
0000
0000
0000
0000
0003
1000
0000
,
0200
0000
0000
0300
0010
0000
0000
0000
0002
0000
0000
0000
0003
0000
0100
0000
,
0020
0000
0030
1000
0020
0000
0130
0000
,
0002
1003
1100
0000
,
0011
0000
1100
0000
0110
0000
0000
1000
,
0002
0000
0000
0003
0010
0000
0000
0000
0200
0000
0000
0000
0000
0300
1000
0000
,
0002
0000
0000
0000
0000
0003
0100
0000
0002
0000
0000
0000
0013
0000
0000
0000
,
0200
0000
1300
0000
0001
0010
0100
1000
,
0010
0100
1000
0100
0010
1000
0100
0001
,
0201
0000
0000
0300
0010
0100
1000
0010
,
0100
1000
0100
0010
1000
0100
0010
0001
,
0012
0000
0000
0000
0103
0001
0010
0100
,
1000
0010
0100
1000
0100
0010
1000
0001
,
0012
0000
0000
0000
1003
0100
0010
0001
,
1000
0010
0100
0001
0010
0100
1000
0001
,
0102
0000
0000
0003
0000
0000
0000
0000
1000
0001
1000
0001
1000
0001
1000
0001
,
0010
0001
0010
0001
0010
0001
0010
0001
0020
0000
0000
0000
0000
0000
0000
0000
,
0000
0000
0000
0000
,
0000
0000
0000
0000
,
0000
0000
0000
0000
,
0000
0000
0000
0000
,
0000
0000
0000
0000
,
0000
0000
0000
0000
,
0030
0000
0000
0000
;
