#TITLE:Buzz Steps Get Rave;
#SUBTITLE:;
#ARTIST:DJ Sharpnel;
#TITLETRANSLIT:;
#SUBTITLETRANSLIT:;
#ARTISTTRANSLIT:;
#CREDIT:;
#BANNER:buzz steps get rave bn.png;
#BACKGROUND:buzz steps get rave bg.png;
#LYRICSPATH:;
#CDTITLE:;
#MUSIC:Buzz Steps Get Rave.ogg;
#OFFSET:-0.059;
#SAMPLESTART:123.448;
#SAMPLELENGTH:13.520;
#SELECTABLE:YES;
#BPMS:0.000=142.000;
#STOPS:;
#BGCHANGES:;
// cache tags:
#FIRSTBEAT:32.000;
#LASTBEAT:620.000;
#SONGFILENAME:Songs/SHARPNELSTREAMZ v2/Buzz Steps Get Rave/Buzz Steps Get Rave.sm;
#HASMUSIC:1;
#HASBANNER:1;
#MUSICLENGTH:268.068;
// end cache tags

//---------------dance-single - 13+ (CTalon)----------------
#NOTES:
     dance-single:
     13+ (CTalon):
     Challenge:
     13:
     1.000,0.983,0.090,0.104,1.000,1993.000,24.000,28.000,0.000,0.000:
0000
0000
0000
0000
,
0000
0000
0000
0000
,
0000
0000
0000
0000
,
0000
0000
0000
0000
,
0000
0000
0000
0000
,
0000
0000
0000
0000
,
0000
0000
0000
0000
,
0000
0000
0000
0000
,
0001
1000
0000
0010
0100
0000
0001
1000
0000
0010
1000
0000
0100
0010
0001
0000
,
1000
0010
0000
1000
0001
0000
0010
0100
0000
0010
0001
0000
1000
0001
0100
0000
,
0010
1000
0000
0100
0010
0000
0100
1000
0000
0001
0100
0000
0010
0100
0001
0000
,
1000
0100
0000
1000
0001
0000
0100
0001
0000
0010
0001
0000
0010
0100
1000
0000
,
0001
0100
0000
0010
1000
0000
0100
0010
0000
0100
1000
0000
0001
0100
0010
0000
,
1000
0100
0000
0010
0001
0000
1000
0010
0000
1000
0001
0000
0010
0100
1000
0000
,
0001
0100
0000
0010
0100
0000
0001
1000
0000
0100
0010
0000
0001
0100
0001
0000
,
1000
0001
0000
0100
0001
0000
1000
0100
0000
0010
0200
2300
3002
0000
0000
0000
,
1003
0100
1000
0001
0100
0010
1000
0100
0010
0001
0010
0100
0010
0001
0100
0010
,
1000
0010
0100
0010
1000
0100
0010
0001
0100
0010
0100
0001
0010
0001
1000
0010
,
0100
0001
1000
0100
1000
0001
0010
0100
0010
0001
0100
0010
0100
0001
0010
0100
,
1000
0001
0100
0001
1000
0001
0010
0100
1000
0100
1000
0010
0100
0010
1000
0100
,
1000
0010
1000
0001
0010
0100
1000
0010
0100
0001
0100
0010
0100
0001
0010
0100
,
1000
0100
0010
0100
1000
0010
0100
0001
0010
0100
0010
0001
0100
0001
1000
0100
,
0010
0001
0100
0010
0100
0001
0010
0100
1000
0010
0100
0010
1000
0100
1000
0010
,
1000
0000
0001
0000
1000
0000
0001
0000
0100
0000
0010
0000
1000
0000
0001
0000
0010
0000
0100
0000
1000
0000
0100
0000
4000
0000
0000
0000
0000
0000
0000
0000
0000
0000
0000
0000
3001
0000
0000
0100
0000
0000
0010
0000
0000
0100
0000
0000
,
0001
0010
0001
1000
0010
0100
0001
0010
0100
1000
0100
0010
0100
1000
0010
0100
,
0001
0100
0010
0100
0001
0010
0100
1000
0010
0100
0010
1000
0100
1000
0001
0100
,
0010
1000
0001
0010
0001
1000
0100
0010
0100
1000
0010
0100
0010
1000
0100
0010
,
0001
1000
0010
1000
0001
1000
0100
0010
0001
0010
0001
0100
0010
0100
0001
0010
,
0001
0100
0001
1000
0100
0010
0001
0100
0010
1000
0010
0100
0010
1000
0100
0010
,
0001
0010
0100
0010
0001
0100
0010
1000
0100
0010
0100
1000
0010
1000
0001
0010
,
0100
1000
0010
0100
0010
1000
0100
0010
0001
0100
0010
0100
0001
0010
0001
0100
,
0001
1000
0100
0010
0001
0100
0010
1000
0001
0100
0010
0100
0001
0010
0100
0010
,
0001
0100
0001
1000
0100
0010
0001
0100
0010
1000
0010
0100
0010
1000
0100
0010
,
0001
0010
0100
0010
0001
0100
0010
1000
0100
0010
0100
1000
0010
1000
0001
0010
,
0100
1000
0001
0100
0001
1000
0010
0100
0010
1000
0100
0010
0100
1000
0010
0100
,
0001
1000
0100
1000
0001
1000
0010
0100
0001
0100
0001
0010
0100
0010
0001
0100
,
0001
0010
0001
1000
0010
0100
0001
0010
0100
1000
0100
0010
0100
1000
0010
0100
,
0001
0100
0010
0100
0001
0010
0100
1000
0010
0100
0010
1000
0100
1000
0001
0100
,
0010
1000
0100
0010
0100
1000
0010
0100
0001
0010
0100
0010
0001
0100
0001
0010
,
0001
1000
0010
0100
0001
0010
0100
1000
0001
0010
0100
0010
0001
0100
0010
0100
,
0001
0000
0000
0000
0001
0000
0000
0000
1000
0000
0000
1000
0000
0000
0100
0000
,
0010
0000
0000
0000
0010
0000
0000
0000
0001
0000
0000
0001
0000
0000
0100
0000
,
0010
0000
0000
0000
0010
0000
0000
0000
1000
0000
0000
1000
0000
0000
0001
0000
,
1000
0000
0100
1000
0000
0100
1000
0000
0100
1000
0100
0010
0000
0000
0010
0000
,
0001
0000
0000
0000
0001
0000
0000
0000
1000
0000
0000
1000
0000
0000
0010
0000
,
0100
0000
0000
0000
0100
0000
0000
0000
0010
0000
0000
0010
0000
0000
1000
0000
,
0001
0000
0000
0000
0001
0000
0000
0000
0010
0000
0000
0010
0000
0000
0100
0000
,
1000
0000
0001
1000
0000
0001
1000
0000
0001
1000
0010
0100
0000
0000
0100
0000
,
0001
0000
0000
0000
1001
0000
1000
0000
0000
0000
0020
0230
0302
0000
0000
0000
,
1003
0100
0010
0100
1000
0001
0100
0001
1000
0010
0100
0001
0010
0100
1000
0001
,
1000
0010
0100
0001
1000
0001
0010
0100
0010
0001
1000
0010
1000
0010
1000
0001
,
0010
0001
1000
0010
0100
0001
0010
0100
1000
0001
1000
0001
0100
0010
1000
0010
,
0100
0001
1000
0100
1000
0010
0100
0001
0010
0001
0010
0100
1000
0001
0100
0001
,
1000
0010
0100
0001
0010
0001
0100
0010
1000
0010
0100
0010
1000
0001
0010
0001
,
1000
0010
0100
0001
1000
0100
1000
0100
0010
0001
0010
0001
1000
0010
0100
0010
,
1000
0001
1000
0001
0100
0010
0100
0001
1000
0100
0010
0001
0100
0010
1000
0100
,
0010
0001
0010
0001
1000
0010
0100
0010
1000
0001
1000
0100
0010
0001
0010
0100
,
1000
0010
0100
0001
0100
0001
1000
0001
0010
0001
0100
0010
0100
0001
0010
0100
,
1000
0001
1000
0001
0010
0100
1000
0010
0100
0001
1000
0001
0100
0001
1000
0100
,
1000
0001
0100
0010
0100
0001
0010
0100
1000
0100
0010
0001
1000
0001
1000
0010
,
0100
0001
0010
0100
1000
0010
0100
0010
1000
0100
0010
0001
0100
0010
1000
0001
,
1000
0001
0100
0010
1000
0001
1000
0100
0010
0100
1000
0001
0100
0010
1000
0001
,
0010
0001
0100
0001
1000
0100
0010
0100
1000
0100
0010
0001
0100
0010
1000
0001
,
1000
0100
1000
0001
0100
0001
1000
0100
1000
0100
0010
0001
0010
0100
1000
0001
,
0100
0010
1000
0001
0100
0001
1000
0100
0010
0100
1000
0010
0100
0001
1000
0001
,
1000
0100
0010
0100
1000
0001
0100
0001
1000
0010
0100
0001
0010
0100
1000
0001
,
1000
0010
0100
0001
1000
0001
0010
0100
0010
0001
1000
0010
1000
0010
1000
0001
,
0010
0001
1000
0010
0100
0001
0010
0100
1000
0001
1000
0001
0100
0010
1000
0010
,
0100
0001
1000
0100
1000
0010
0100
0001
0010
0001
0010
0100
1000
0001
0100
0001
,
1000
0010
0100
0001
0010
0001
0100
0010
1000
0010
0100
0010
1000
0001
0010
0001
,
1000
0010
0100
0001
1000
0100
1000
0100
0010
0001
0010
0001
1000
0010
0100
0010
,
1000
0001
1000
0001
0100
0010
0100
0001
1000
0100
0010
0001
0100
0010
1000
0100
,
0010
0001
0010
0001
1000
0010
0100
0010
1000
0001
1000
0100
0010
0001
0010
0100
,
1000
0010
0100
0001
0100
0001
1000
0001
0010
0001
0100
0010
0100
0001
0010
0100
,
1000
0001
1000
0001
0010
0100
1000
0010
0100
0001
1000
0001
0100
0001
1000
0100
,
1000
0001
0100
0010
0100
0001
0010
0100
1000
0100
0010
0001
1000
0001
1000
0010
,
0100
0001
0010
0100
1000
0010
0100
0010
1000
0100
0010
0001
0100
0010
1000
0001
,
1000
0001
0100
0010
1000
0001
1000
0100
0010
0100
1000
0001
0100
0010
1000
0001
,
0010
0001
0100
0001
1000
0100
0010
0100
1000
0100
0010
0001
0100
0010
1000
0001
,
1000
0100
1000
0001
0100
0001
1000
0100
1000
0100
0010
0001
0010
0100
1000
0001
,
0100
0010
1000
0001
0100
0001
1000
0100
0010
0100
1000
0010
0100
0001
1000
0001
,
1000
0100
0010
0100
1000
0001
0100
0001
1000
0010
0100
0001
0010
0100
1000
0001
,
1000
0010
0100
0001
1000
0001
0010
0100
0010
0001
1000
0010
1000
0010
1000
0001
,
0010
0001
1000
0010
0100
0001
0010
0100
1000
0001
1000
0001
0100
0010
1000
0010
,
0100
0001
1000
0100
1000
0010
0100
0001
0010
0001
0010
0100
1000
0001
0100
0001
,
1000
0010
0100
0001
0010
0001
0100
0010
1000
0010
0100
0010
1000
0001
0010
0001
,
1000
0010
0100
0001
1000
0100
1000
0100
0010
0001
0010
0001
1000
0010
0100
0010
,
1000
0001
1000
0001
0100
0010
0100
0001
1000
0100
0010
0001
0100
0010
1000
0100
,
0010
0000
0001
0000
1000
0000
0010
0000
1000
0000
0001
0000
0100
0000
0010
0000
0100
0000
0001
0000
1000
0000
0100
0000
0040
0000
0000
0000
0000
0000
0000
0000
0000
0000
0000
0000
0031
0000
0000
1000
0000
0000
0100
0000
0000
0010
0000
0000
,
0001
0000
0000
0000
,
0000
0000
0000
0000
,
1000
0000
1010
0010
0100
0000
0101
0001
,
1000
0000
1100
0100
0010
0000
0011
0001
,
1000
0000
1001
0001
0100
0000
0110
0010
,
1000
0000
1100
0100
0010
0000
0011
0001
,
1000
0000
1001
0001
0100
0000
0101
0001
,
1000
0000
0000
0000
1100
0000
0100
0000
4000
0000
0000
0000
3001
0100
0010
1000
,
0200
0000
0000
2300
0000
0000
3002
0000
,
0203
0000
0000
0302
0000
0000
0000
0000
,
2003
3020
2030
3020
0000
0000
2030
0000
,
3200
0000
0000
0000
0000
0000
0000
0000
0000
0320
0000
0000
0000
0000
0000
0031
0000
1000
0001
0000
1000
0010
0000
0100
,
0002
0000
0000
2003
0000
0000
3020
0000
,
0230
0000
0000
0320
0000
0000
0000
0000
,
2030
3200
2300
3200
0000
0000
0320
0000
,
0034
0000
0000
0000
0013
0100
1000
0010
0100
0001
0100
0001
0010
0100
0010
0100
,
1000
0001
1000
0001
0100
0010
1000
0100
0010
0001
1000
0000
0001
0000
0100
0000
,
0001
0000
1000
0100
0010
0000
0001
1000
0001
0100
0010
1000
0001
0000
0040
0000
,
0130
1000
0100
0010
0100
1000
0001
0100
0010
0100
0010
1000
0100
0000
0010
0000
,
0001
1000
0001
0100
0010
1000
0100
0010
0001
1000
0001
0100
0001
0000
0040
0000
,
0130
1000
0100
0000
1000
0001
0100
0001
0100
0010
1000
0100
0010
0000
0001
1000
,
0010
0000
0100
0001
1000
0100
0010
0001
0000
1000
0010
0100
0040
0000
4030
0000
,
3001
0010
0100
0010
0001
1000
0010
0100
0001
0000
1000
0100
0010
0000
0001
0000
,
1000
0000
0000
0000
0000
0000
0100
0000
0000
0010
0000
0000
0001
0000
0000
1000
0000
0000
0001
0000
0000
0100
0000
0000
0010
0000
1000
0000
0010
0000
1000
0000
0001
0000
1000
0000
0001
0000
0000
0010
0000
0000
0100
0000
0000
1000
0000
0000
,
0001
1000
0001
1000
0010
0100
0001
0010
0100
1000
0001
0000
1000
0000
0010
0000
,
1000
0000
0001
0010
0100
0000
1000
0001
1000
0010
0100
0001
1000
0000
0400
0000
,
0310
0001
0010
0100
0010
0001
1000
0010
0100
0010
0100
0001
0010
0000
0100
0000
,
1000
0001
1000
0010
0100
0001
0010
0100
1000
0001
1000
0010
1000
0000
0400
0000
,
0310
0001
0010
0000
0001
1000
0010
1000
0010
0100
0001
0010
0100
0000
1000
0001
,
0100
0000
0010
1000
0001
0010
0100
1000
0000
0001
0100
0010
0400
0000
0304
0000
,
1003
0100
0010
0100
1000
0001
0100
0010
1000
0000
0001
0010
0100
0000
1000
0000
,
0001
0000
0000
0000
0000
0000
0010
0000
0000
0100
0000
0000
1000
0000
0000
0001
0000
0000
1000
0000
0000
0010
0000
0000
0100
0000
0001
0000
0100
0000
0001
0000
1000
0000
0001
0000
1000
0000
0100
0000
0010
0000
0001
0000
1000
0000
0001
0000
,
1000
0000
0100
0000
0010
0000
0001
0000
1000
0000
0000
0100
0000
0000
0010
0000
,
0001
0000
0000
0000
0000
0000
1001
0000
0000
1000
0000
0010
0100
0000
0000
0010
0000
0000
0110
0000
0000
0100
0000
0000
,
0001
0010
0100
0010
0001
1000
0010
1000
0001
0100
0010
1000
0100
0010
0001
1000
,
0001
0100
0010
1000
0001
1000
0100
0010
0100
1000
0001
0100
0001
0100
0001
1000
,
0100
1000
0001
0100
0010
1000
0100
0010
0001
1000
0001
1000
0010
0100
0001
0100
,
0010
1000
0001
0010
0001
0100
0010
1000
0100
1000
0100
0010
0001
1000
0010
1000
,
0001
0100
0010
1000
0100
1000
0010
0100
0001
0100
0010
0100
0001
1000
0100
1000
,
0001
0100
0010
1000
0001
0010
0001
0010
0100
1000
0100
1000
0001
0100
0010
0100
,
0001
1000
0001
1000
0010
0100
0010
1000
0001
0010
0100
1000
0010
0100
0001
0010
,
0100
1000
0100
1000
0001
0100
0010
0100
0001
1000
0001
0010
0100
1000
0100
0010
,
0001
0100
0010
1000
0010
1000
0001
1000
0100
1000
0010
0100
0010
1000
0100
0010
,
0001
1000
0001
1000
0100
0010
0001
0100
0010
1000
0001
1000
0010
1000
0001
0010
,
0001
1000
0010
0100
0010
1000
0100
0010
0001
0010
0100
1000
0001
1000
0001
0100
,
0010
1000
0100
0010
0001
0100
0010
0100
0001
0010
0100
1000
0010
0100
0001
1000
,
0001
1000
0010
0100
0001
1000
0001
0010
0100
0010
0001
1000
0010
0100
0001
1000
,
0100
1000
0010
1000
0001
0010
0100
0010
0001
0010
0100
1000
0010
0100
0001
1000
,
0001
0010
0001
1000
0010
1000
0001
0010
0001
0010
0100
1000
0100
0010
0001
1000
,
0010
0100
0001
1000
0010
1000
0001
0010
0100
0010
0001
0100
0010
1000
0001
1000
,
0001
0010
0001
1000
0010
0100
0001
0010
0100
1000
0100
0010
0100
1000
0010
0100
,
0001
0100
0010
0100
0001
0010
0100
1000
0010
0100
0010
1000
0100
1000
0001
0100
,
0010
1000
0001
0010
0001
1000
0100
0010
0100
1000
0010
0100
0010
1000
0100
0010
,
0001
1000
0010
1000
0001
1000
0100
0010
0001
0010
0001
0100
0010
0100
0001
0010
,
0001
0100
0001
1000
0100
0010
0001
0100
0010
1000
0010
0100
0010
1000
0100
0010
,
0001
0010
0100
0010
0001
0100
0010
1000
0100
0010
0100
1000
0010
1000
0001
0010
,
0100
1000
0010
0100
0010
1000
0100
0010
0001
0100
0010
0100
0001
0010
0001
0100
,
0001
1000
0100
0010
0001
0100
0010
1000
0001
0100
0010
0100
0001
0010
0100
0010
,
0001
0100
0001
1000
0100
0010
0001
0100
0010
1000
0010
0100
0010
1000
0100
0010
,
0001
0010
0100
0010
0001
0100
0010
1000
0100
0010
0100
1000
0010
1000
0001
0010
,
0100
1000
0001
0100
0001
1000
0010
0100
0010
1000
0100
0010
0100
1000
0010
0100
,
0001
1000
0100
1000
0001
1000
0010
0100
0001
0100
0001
0010
0100
0010
0001
0100
,
0001
0010
0001
1000
0010
0100
0001
0010
0100
1000
0100
0010
0100
1000
0010
0100
,
0001
0100
0010
0100
0001
0010
0100
1000
0010
0100
0010
1000
0100
1000
0001
0100
,
0010
1000
0100
0010
0100
1000
0010
0100
0001
0010
0100
0010
0001
0100
0001
0010
,
0001
1000
0001
1000
0100
0010
0001
1000
0001
0100
0010
1000
0001
1000
0010
0100
0001
1000
0100
0010
0100
1000
0001
1000
,
0001
0000
0000
0000
;
