#TITLE:DiSCONNECTED HaZaRD;
#SUBTITLE:;
#ARTIST:DM Ashura feat. Inspector K;
#TITLETRANSLIT:;
#SUBTITLETRANSLIT:;
#ARTISTTRANSLIT:;
#CREDIT:;
#BANNER:dis_haz-banner.png;
#BACKGROUND:dis_haz-bg.png;
#LYRICSPATH:;
#CDTITLE:cynic.png;
#MUSIC:Disconnected HaZaRD.mp3;
#OFFSET:-0.055;
#SAMPLESTART:34.326;
#SAMPLELENGTH:12.560;
#SELECTABLE:YES;
#BPMS:0.000=210.000,128.000=105.000,144.000=210.000,304.000=420.000,308.000=210.000;
#STOPS:304.000=0.545
;
#BGCHANGES:;
// cache tags:
#FIRSTBEAT:16.000;
#LASTBEAT:416.000;
#SONGFILENAME:Songs/Keyboard Collaboration II/Cynic - DiSCONNECTED HaZaRD/dis_haz.sm;
#HASMUSIC:1;
#HASBANNER:1;
#MUSICLENGTH:128.527;
// end cache tags

//---------------dance-single - ----------------
#NOTES:
     dance-single:
     :
     Hard:
     12:
     1.000,1.000,1.000,0.047,0.864,923.000,200.000,6.000,0.000,0.000:  // measure 1
0000
0000
0000
0000
,  // measure 2
0000
0000
0000
0000
,  // measure 3
0000
0000
0000
0000
,  // measure 4
0000
0000
0000
0000
,  // measure 5
0101
0000
0000
1010
0000
0000
1001
0000
,  // measure 6
0100
0000
0010
0000
0100
0000
0000
0000
0001
0000
1000
0000
0001
0000
0100
0001
,  // measure 7
1010
0000
1000
0101
0000
0100
1001
0001
,  // measure 8
1000
0100
1000
0100
0010
0000
0001
0000
0100
0010
1000
0001
0100
0001
1000
0000
,  // measure 9
0110
0001
1000
0100
0011
0000
0001
0100
,  // measure 10
1010
0000
0001
0000
0101
0000
0000
0000
0101
0000
1000
0000
0100
0000
1000
0100
,  // measure 11
0011
0000
0001
1100
0000
0100
1001
0000
,  // measure 12
0110
0000
0001
0000
1000
0000
0100
0000
1000
0010
1000
0000
0010
0000
0100
0000
,  // measure 13
0110
0000
0010
0100
0001
1000
0100
0000
0011
0000
0001
0000
1100
0000
0000
0000
,  // measure 14
1010
0000
0010
0000
0101
0000
0000
0000
1100
0000
1000
0000
0001
0000
1000
0100
,  // measure 15
0011
0100
1010
0000
0010
1001
0101
0100
,  // measure 16
0010
1000
0010
1000
0001
0100
0001
0100
0010
0000
1010
0000
2002
0000
0000
3003
,  // measure 17
0110
0000
0100
0000
0101
0000
0001
1000
0100
0000
1000
0100
0010
0000
0001
0000
,  // measure 18
0101
0000
0100
0000
0010
0000
1001
0000
0110
0000
0010
0100
0001
0000
1000
0000
,  // measure 19
1100
0000
0100
0010
0001
0000
0010
0001
0100
0000
0001
0000
0101
0000
0100
0000
,  // measure 20
0010
1000
0001
0000
0010
0001
1000
0100
0010
0000
0100
0000
1001
0000
0001
0000
,  // measure 21
0110
0000
0010
0000
1010
0000
1000
0001
0010
0000
0001
0010
0100
0000
1000
0000
,  // measure 22
1010
0000
0010
0000
0100
0000
1001
0000
0110
0000
0100
0010
1000
0000
0001
0000
,  // measure 23
0011
0000
0010
0100
1000
0000
0100
1000
0010
0000
1000
0000
1010
0000
0010
0000
,  // measure 24
0100
0001
1000
0000
0100
1000
0001
0010
0100
0000
0010
0000
1001
0000
0001
0000
,  // measure 25
1010
0000
1000
0010
0100
0001
1000
0100
0010
0000
0001
0000
0101
0000
0100
0000
,  // measure 26
0010
1000
0010
0000
0100
0001
1000
0100
0010
0000
0011
0000
1100
0000
0001
0000
,  // measure 27
0101
0000
0001
0100
0010
1000
0001
0010
0100
0000
1000
0000
1010
0000
0010
0000
,  // measure 28
0100
0001
0100
0000
0010
1000
0001
0010
0100
0000
1100
0000
0011
0000
0010
0000
,  // measure 29
0101
0000
0001
0100
0010
1000
0001
0010
0100
0000
1000
0000
1010
0000
0010
0000
,  // measure 30
0100
0001
0100
0000
0010
1000
0001
0010
0100
0000
1100
0000
0011
0000
1000
0000
,  // measure 31
1010
0000
1000
0010
0100
0001
1000
0100
0010
0000
0001
0000
0101
0000
0100
0000
,  // measure 32
0010
1000
0010
0000
0100
0001
1000
0100
0010
0000
0011
0000
1100
0000
0100
0000
,  // measure 33
1001
0000
0000
0000
0001
0000
0100
0000
1010
0000
0000
0000
0010
0000
0100
0000
0101
0000
0000
0000
0101
0000
0000
0000
0011
0000
0000
0000
0010
0000
0001
0100
,  // measure 34
1010
0000
0100
0000
0001
0000
1010
0000
1000
0000
0100
0000
0010
0000
0001
0000
1100
0000
0000
0000
1100
0000
0100
0000
0010
0000
0001
0000
0100
0000
0010
0100
,  // measure 35
1001
0000
0000
0000
1000
0000
0010
0000
0101
0000
0000
0000
0100
0000
0010
0000
1010
0000
0000
0000
1010
0000
0000
0000
1100
0000
0000
0000
0100
0000
1000
0010
,  // measure 36
0101
0000
0010
0000
1000
0000
0101
0000
0001
0000
0010
0000
0100
0000
1000
0000
0011
0000
0000
0000
0011
0000
0010
0000
0100
0000
1000
0000
0010
0000
0100
0001
,  // measure 37
1010
1000
0100
0010
0011
0000
0001
0100
,  // measure 38
0101
0000
0001
0000
0101
0000
0000
0000
1010
0000
0000
0000
1000
0000
0010
0100
,  // measure 39
1001
0000
0000
0000
1000
0000
0010
0000
0100
0001
0100
0000
0001
0000
1000
0000
,  // measure 40
1100
0000
0100
0000
0010
0000
0000
0000
0011
0000
0000
0000
0010
0000
0001
0100
,  // measure 41
1010
0000
1000
0010
0110
0100
0001
1000
,  // measure 42
1100
0000
0000
0000
1100
0000
1000
0000
0011
0000
0000
0000
0001
0000
1000
0010
,  // measure 43
0101
0000
0001
0100
0001
0000
0001
1000
0001
0000
0001
0010
0001
0000
0010
0000
,  // measure 44
1100
0000
0100
1000
0001
1000
0010
0100
,  // measure 45
1000
0100
1000
0000
0001
0010
0001
0000
0100
0010
0100
0000
0001
1000
0001
0000
,  // measure 46
1000
0100
0010
0000
0001
0100
0010
0000
0100
0001
1000
0000
0100
0010
0001
0000
,  // measure 47
1000
0100
1000
0100
0010
0001
0100
0000
0001
0100
0001
0100
0010
1000
0100
0000
,  // measure 48
0010
0001
0100
1000
0100
0001
0010
0000
0100
1000
0010
0001
0010
1000
0100
0000
,  // measure 49
0010
0001
0010
0100
0010
0001
0010
0100
1000
0010
1000
0100
1000
0010
0100
0000
,  // measure 50
0010
1000
0010
0100
0010
1000
0010
0100
0001
0010
0001
0100
0001
0010
0100
0000
,  // measure 51
1000
0010
1000
0010
0100
0001
0100
0001
0010
0001
0010
0001
1000
0100
1000
0100
,  // measure 52
0010
0001
0100
1000
0001
0010
1000
0100
0001
1000
0010
0001
0100
0010
0100
0000
,  // measure 53
0001
0100
0010
0100
0001
1000
0100
0000
0010
0001
1000
0100
1000
0010
0100
0000
,  // measure 54
0010
1000
0010
0100
0001
1000
0100
0000
0010
0001
1000
0001
0100
0010
1000
0000
,  // measure 55
0100
0010
0001
0010
0100
1000
0100
0010
0001
0010
0100
1000
0010
0100
0001
0000
,  // measure 56
1000
0100
1000
0010
0100
0001
1000
0100
0010
0100
1000
0010
0100
0001
1000
0000
,  // measure 57
0010
1000
0010
1000
0001
0100
0001
1000
0100
0010
0001
0100
0001
1000
0100
0000
,  // measure 58
0010
0001
0010
0001
1000
0100
1000
0001
0100
0010
1000
0100
1000
0001
0100
0000
,  // measure 59
0010
1000
0010
0000
0100
0000
0001
0000
0010
0001
0010
0000
0100
0000
1000
0000
,  // measure 60
0010
0100
0010
0000
0001
1000
0001
0000
0010
0100
1000
0000
0010
0100
0001
0000
,  // measure 61
0101
0000
0100
0000
0010
0000
1010
0000
0000
0000
1000
0000
0010
0000
0100
0001
,  // measure 62
1010
1000
0110
0000
1001
0100
1001
0010
,  // measure 63
0101
0000
0000
0000
1010
0000
0010
0000
0110
0000
0101
0000
1000
0000
0001
0010
,  // measure 64
1100
1000
1100
0000
0011
0010
0100
0000
,  // measure 65
1100
0100
1100
1010
0000
0101
0100
0110
,  // measure 66
0000
1010
1000
0100
0110
0000
1001
0000
,  // measure 67
0100
0000
1010
0000
1000
0000
0100
0010
1001
0000
0000
0000
1010
0000
0010
0000
,  // measure 68
1000
0010
0100
0001
1000
0000
0100
0010
0001
0010
0001
0100
0010
0000
0100
0000
,  // measure 69
1010
0000
0010
0000
0100
0000
0101
0000
0000
0000
0001
0000
0100
0000
0010
1000
,  // measure 70
0101
0001
0110
0000
1001
0010
1001
0100
,  // measure 71
1010
0000
0000
0000
0101
0000
0100
0000
0110
0000
1010
0000
0001
0000
1000
0100
,  // measure 72
0011
0001
0011
0000
1100
0100
0010
0000
,  // measure 73
0011
0010
0011
0101
0000
1010
0010
0110
,  // measure 74
0000
0101
0001
0010
0110
0000
1001
0000
,  // measure 75
0010
0000
0101
0000
0001
0000
0010
0100
1001
0000
0000
0000
0101
0000
0100
0000
,  // measure 76
0001
0100
0010
1000
0001
0000
0010
0100
1000
0100
1000
0010
0100
0000
0010
0000
,  // measure 77
2002
0000
3003
0000
,  // measure 78
0001
0000
1000
0000
0001
0000
1000
0000
0010
0100
0010
0100
0001
1000
0001
1000
,  // measure 79
0100
0000
0010
0000
0001
0000
0011
0000
0000
0000
0101
0000
0100
0000
0001
0010
,  // measure 80
1100
0000
1000
0100
0110
0011
1000
0000
,  // measure 81
1001
0000
0101
0100
0010
1100
1100
1000
,  // measure 82
1010
0000
0010
0000
0100
0000
0001
0000
1000
0100
0010
0000
0011
0000
0000
0000
,  // measure 83
0010
0000
0100
0000
1000
0000
1100
0000
0000
0000
1010
0000
0010
0000
1000
0100
,  // measure 84
0011
0000
0001
0010
0110
1100
0001
0000
,  // measure 85
1001
0000
0000
0000
1000
0000
0010
0100
1001
0000
0010
0000
0100
0000
0001
0010
,  // measure 86
0100
0000
1000
0000
0001
0000
1000
0010
0101
0000
0001
0000
1010
0000
0000
0000
,  // measure 87
0010
0000
0100
0000
1000
0000
1100
0000
0000
0000
1010
0000
0010
0000
1000
0100
,  // measure 88
0011
0000
0001
0010
0110
1100
0001
0000
,  // measure 89
1001
0000
1010
0010
0100
0011
0011
0001
,  // measure 90
0101
0000
0100
0000
0010
0000
1000
0000
0001
0010
0100
0000
1100
0000
0000
0000
,  // measure 91
0100
0000
0010
0000
0001
0000
0011
0000
0000
0000
0101
0000
0100
0000
0001
0010
,  // measure 92
1100
0000
1000
0100
0110
0011
1000
0000
,  // measure 93
1001
0000
0000
0000
0001
0000
0100
0010
1001
0000
0100
0000
0010
0000
1000
0100
,  // measure 94
0010
0000
0001
0000
1000
0000
0001
0100
1010
0000
1000
0000
0101
0000
0000
0000
,  // measure 95
1001
0000
0001
0100
1010
0000
0010
0100
,  // measure 96
0101
0000
0000
0000
0101
0000
0000
0000
0011
0000
0000
0000
0010
0000
0001
0100
,  // measure 97
1010
0100
0001
1010
1000
0100
0010
0001
,  // measure 98
1100
0000
0000
0000
1100
0000
0100
0000
0010
0000
0001
0000
0100
0000
0010
0100
,  // measure 99
1001
0000
1000
0010
0101
0000
0100
0010
,  // measure 100
1010
0000
1000
0000
0101
0000
0000
0000
0011
0000
0000
0000
0010
0000
0001
0100
,  // measure 101
1010
0000
1000
0100
1000
0000
1000
0001
1000
0000
1000
0010
1000
0000
1000
0010
,  // measure 102
0100
0000
0001
0000
0011
0000
0010
0000
1100
0000
0101
0000
0010
0100
0010
0100
,  // measure 103
2002
0000
0000
0000
,  // measure 104
0000
0000
0000
0000
,  // measure 105
3003
0000
0000
0000
;
