#TITLE:SpaceGorilla's OP;
#SUBTITLE:The BOSS Song of owenviau1, science, & SpaceGorilla;
#ARTIST:MrWeebl;
#TITLETRANSLIT:;
#SUBTITLETRANSLIT:;
#ARTISTTRANSLIT:;
#CREDIT:owenviau1;
#BANNER:../owenviau1 Simfiles 6 (Science X Owen).png;
#BACKGROUND:BG.PNG;
#LYRICSPATH:;
#CDTITLE:;
#MUSIC:SpaceGorilla's OP.mp3;
#OFFSET:-0.539;
#SAMPLESTART:36.942;
#SAMPLELENGTH:29.999;
#SELECTABLE:YES;
#BPMS:0.000=160.000;
#STOPS:;
#BGCHANGES:;
// cache tags:
#FIRSTBEAT:0.000;
#LASTBEAT:193.000;
#SONGFILENAME:Songs/owenviau1 Simfiles 6/SpaceGorilla's OP - [owenviau1] v1.0.7/SpaceGorilla's OP.sm;
#HASMUSIC:1;
#HASBANNER:1;
#MUSICLENGTH:73.661;
// end cache tags

//---------------dance-single - 4+ (owenviau1)----------------
#NOTES:
     dance-single:
     4+ (owenviau1):
     Beginner:
     4:
     0.475,0.491,0.000,0.652,0.000,197.000,0.000,48.000,0.000,0.000:

1000
0010
0100
0001
,
1000
0001
0100
0010
,
1000
0100
0010
0001
,
2000
3020
0230
0302
,
0203
0300
1000
0000
0010
0000
0100
0000
,
0001
1000
0001
0100
,
0010
1000
0100
0010
,
0002
0023
0230
2300
,
3002
0003
1000
0000
0010
0000
0100
0000
,
0001
1000
0001
0100
,
0010
1000
0100
0010
,
2000
3000
0020
2030
3200
0000
0320
0000
,
0032
0003
1000
0000
0010
0000
0100
0000
,
0001
1000
0001
0100
,
0010
1000
0100
0010
,
2000
3020
0230
0302
,
1003
0010
0100
0001
,
1000
0001
0100
0010
,
1000
0010
0100
0001
,
1000
0001
0100
0010
,
1000
0010
0100
0001
,
1000
0001
0100
0010
,
1000
0100
0010
0001
,
2000
3020
0230
0302
,
1003
0010
0100
0001
,
1000
0001
0100
0010
,
1000
0100
0010
0001
,
2000
3020
0230
0302
,
0203
0300
1000
0000
0010
0000
0100
0000
,
0001
1000
0001
0100
,
0010
1000
0100
0010
,
0002
0023
0230
2300
,
3002
0003
1000
0000
0010
0000
0100
0000
,
0001
1000
0001
0100
,
0010
1000
0100
0010
,
2000
3000
0020
2030
3200
0000
0320
0000
,
0032
0003
1000
0000
0010
0000
0100
0000
,
0001
1000
0001
0100
,
0010
1000
0100
0010
,
2000
3020
0230
0302
,
1003
0010
0100
0001
,
1000
0001
0100
0010
,
1000
0010
0100
0001
,
1000
0001
0100
0010
,
1000
0010
0100
0001
,
1000
0001
0100
0010
,
1000
0100
0010
0001
,
2000
3020
0230
0302
,
1003
0001
1000
0000
0000
0000
0000
0000
;

//---------------dance-single - 12- (owenviau1)----------------
#NOTES:
     dance-single:
     12- (owenviau1):
     Easy:
     12:
     1.000,1.000,0.272,0.502,1.000,703.000,20.000,37.000,0.000,14.000:

1000
0100
0010
0001
1000
0001
0100
0010
1000
0100
1000
0001
0100
0010
1000
0100
,
0010
0001
1000
0001
0100
0010
1000
0100
0010
0001
1000
0010
1000
0001
0100
0001
,
1000
0010
0100
0001
1000
0100
1000
0010
0100
0001
0010
0001
1000
0001
0100
0010
,
2000
0001
3120
1000
0231
0010
1302
0100
,
2003
0000
3010
0000
1000
0100
0010
0001
1000
0001
0100
0010
1000
0100
1000
0001
,
0100
0010
1000
0100
0010
0001
1000
0001
0100
0010
1000
0100
0010
0001
1000
0010
,
1000
0001
0100
0001
1000
0010
0100
0001
1000
0100
1000
0010
0100
0001
0010
0100
,
2000
0000
0001
0000
3120
0000
1000
0000
0031
1000
0010
0100
0001
1000
0100
0010
,
0002
0000
0103
0000
1000
0100
0010
0001
1000
0001
0100
0010
1000
0100
1000
0001
,
0100
0010
1000
0100
0010
0001
1000
0001
0100
0010
1000
0100
0010
0001
1000
0010
,
1000
0001
0100
0001
1000
0010
0100
0001
1000
0100
1000
0010
0100
0001
0010
0100
,
2000
3001
0120
2130
3201
0010
1302
0100
,
2003
0000
3010
0000
1000
0100
0010
0001
1000
0001
0100
0010
1000
0100
1000
0001
,
0100
0010
1000
0100
0010
0001
1000
0001
0100
0010
1000
0100
0010
0001
1000
0010
,
1000
0001
0100
0001
1000
0010
0100
0001
1000
0100
1000
0010
0100
0001
0010
0100
,
2000
0000
3001
0000
0120
0000
1000
0000
0031
1000
0010
0100
0001
1000
0010
0100
,
1000
0100
0010
0001
1000
0001
0100
0010
1000
0100
1000
0001
0100
0010
1000
0100
,
0010
0001
1000
0001
0100
0010
1000
0100
0010
0001
1000
0010
1000
0001
0100
0001
,
1000
0010
0100
0001
1000
0100
1000
0010
0100
0001
0010
0100
1000
0100
0010
0001
,
1000
0001
0100
0010
1000
0100
1000
0001
0100
0010
1000
0100
0010
0001
1000
0010
,
1000
0100
0010
0001
1000
0001
0100
0010
1000
0100
1000
0001
0100
0010
1000
0100
,
0010
0001
1000
0001
0100
0010
1000
0100
0010
0001
1000
0010
1000
0001
0100
0001
,
1000
0010
0100
0001
1000
0100
1000
0010
0100
0001
0010
0100
1000
0001
0100
0010
,
2000
0000
3010
0000
0102
0000
0010
0000
0103
0010
1000
0001
0100
0001
1000
0010
,
1000
0100
0010
0001
1000
0001
0100
0010
1000
0100
1000
0001
0100
0010
1000
0100
,
0010
0001
1000
0001
0100
0010
1000
0100
0010
0001
1000
0010
1000
0001
0100
0001
,
1000
0010
0100
0001
1000
0100
1000
0010
0100
0001
0010
0100
1000
0010
0100
0001
,
2000
0001
3120
1000
0231
0010
1302
0100
,
2003
0000
3010
0000
1000
0100
0010
0001
1000
0001
0100
0010
1000
0100
1000
0001
,
0100
0010
1000
0100
0010
0001
1000
0001
0100
0010
1000
0100
0010
0001
1000
0010
,
1000
0001
0100
0001
1000
0010
0100
0001
1000
0100
1000
0010
0100
0001
0010
0100
,
2000
0000
0001
0000
3120
0000
1000
0000
0031
1000
0010
0100
0001
1000
0100
0010
,
0002
0000
0103
0000
1000
0100
0010
0001
1000
0001
0100
0010
1000
0100
1000
0001
,
0100
0010
1000
0100
0010
0001
1000
0001
0100
0010
1000
0100
0010
0001
1000
0010
,
1000
0001
0100
0001
1000
0010
0100
0001
1000
0100
1000
0010
0100
0001
0010
0100
,
2000
3001
0120
2130
3201
0010
1302
0100
,
2003
0000
3010
0000
1000
0100
0010
0001
1000
0001
0100
0010
1000
0100
1000
0001
,
0100
0010
1000
0100
0010
0001
1000
0001
0100
0010
1000
0100
0010
0001
1000
0010
,
1000
0001
0100
0001
1000
0010
0100
0001
1000
0100
1000
0010
0100
0001
0010
0100
,
2000
0000
3001
0000
0120
0000
1000
0000
0031
1000
0010
0100
0001
1000
0010
0100
,
1000
0100
0010
0001
1000
0001
0100
0010
1000
0100
1000
0001
0100
0010
1000
0100
,
0010
0001
1000
0001
0100
0010
1000
0100
0010
0001
1000
0010
1000
0001
0100
0001
,
1000
0010
0100
0001
1000
0100
1000
0010
0100
0001
0010
0100
1000
0100
0010
0001
,
1000
0001
0100
0010
1000
0100
1000
0001
0100
0010
1000
0100
0010
0001
1000
0010
,
1000
0100
0010
0001
1000
0001
0100
0010
1000
0100
1000
0001
0100
0010
1000
0100
,
0010
0001
1000
0001
0100
0010
1000
0100
0010
0001
1000
0010
1000
0001
0100
0001
,
1000
0010
0100
0001
1000
0100
1000
0010
0100
0001
0010
0100
1000
0001
0100
0010
,
2000
0000
3010
0000
0102
0000
0010
0000
0103
0010
1000
0001
0100
0001
1000
0010
,
0100
0002
0003
0000
1000
0000
0000
0000
0000
0000
0000
0000
0000
0000
0000
0000
;

//---------------dance-single - 18- (owenviau1)----------------
#NOTES:
     dance-single:
     18- (owenviau1):
     Medium:
     18:
     1.000,1.000,0.272,0.502,1.000,995.000,20.000,37.000,0.000,14.000:

1000
0010
0100
0001
1000
0100
1000
0010
0100
0001
1000
0100
0010
0001
0010
0100
1000
0010
0100
0001
1000
0100
1000
0010
,
0100
0001
1000
0100
0010
0001
1000
0010
0100
0001
0010
0001
1000
0100
1000
0001
0100
0001
1000
0010
0100
0001
1000
0100
,
0010
0001
1000
0001
0100
0010
1000
0100
1000
0001
0100
0010
0100
0001
1000
0001
0100
0010
1000
0100
1000
0001
0100
0010
,
2000
0001
3120
1000
0231
0010
1302
0100
,
2003
0000
0000
3010
0000
0000
1000
0010
0100
0001
1000
0100
1000
0010
0100
0001
1000
0100
0010
0001
0010
0100
1000
0010
,
0100
0001
1000
0100
1000
0010
0100
0001
1000
0100
0010
0001
1000
0010
0100
0001
0010
0001
1000
0010
1000
0001
0100
0001
,
1000
0010
0100
0001
1000
0100
0010
0001
1000
0001
0100
0010
1000
0100
1000
0001
0100
0010
0100
0001
1000
0001
0100
0010
,
2000
0000
0001
0000
3120
0000
1000
0000
0031
1000
0010
0100
0001
1000
0100
0010
,
0002
0000
0000
0103
0000
0000
1000
0010
0100
0001
1000
0100
1000
0010
0100
0001
1000
0100
0010
0001
0010
0100
1000
0010
,
0100
0001
1000
0100
1000
0010
0100
0001
1000
0100
0010
0001
1000
0010
0100
0001
0010
0001
1000
0010
1000
0001
0100
0001
,
1000
0010
0100
0001
1000
0100
0010
0001
1000
0001
0100
0010
1000
0100
1000
0001
0100
0010
0100
0001
1000
0001
0100
0010
,
2000
3001
0120
2130
3201
0010
1302
0100
,
2003
0000
0000
3010
0000
0000
1000
0010
0100
0001
1000
0100
1000
0010
0100
0001
1000
0100
0010
0001
0010
0100
1000
0010
,
0100
0001
1000
0100
1000
0010
0100
0001
1000
0100
0010
0001
1000
0010
0100
0001
0010
0001
1000
0010
1000
0001
0100
0001
,
1000
0010
0100
0001
1000
0100
0010
0001
1000
0001
0100
0010
1000
0100
1000
0001
0100
0010
0100
0001
1000
0001
0100
0010
,
2000
0000
3001
0000
0120
0000
1000
0000
0031
1000
0010
0100
0001
1000
0010
0100
,
1000
0010
0100
0001
1000
0100
1000
0010
0100
0001
1000
0100
0010
0001
0010
0100
1000
0010
0100
0001
1000
0100
1000
0010
,
0100
0001
1000
0100
0010
0001
1000
0010
0100
0001
0010
0001
0100
0010
1000
0001
0100
0001
1000
0010
0100
0001
1000
0100
,
0010
0001
1000
0001
0100
0010
1000
0100
1000
0001
0100
0010
0100
0001
1000
0001
0100
0010
1000
0010
0100
0001
1000
0100
,
1000
0010
0100
0001
1000
0100
0010
0001
0010
0100
1000
0010
0100
0001
1000
0100
1000
0010
0100
0001
1000
0100
0010
0001
,
1000
0010
0100
0001
1000
0100
1000
0010
0100
0001
1000
0100
1000
0010
0100
0001
1000
0100
0010
0001
0010
0100
1000
0010
,
0100
0001
1000
0100
1000
0010
0100
0001
1000
0100
0010
0001
1000
0010
0100
0001
0010
0001
1000
0010
1000
0001
0100
0001
,
1000
0010
0100
0001
1000
0100
0010
0001
1000
0001
0100
0010
1000
0100
1000
0001
0100
0010
0100
0001
1000
0001
0100
0010
,
2000
0000
3010
0000
0102
0000
0010
0000
0103
0010
1000
0001
0100
0001
1000
0010
,
1000
0010
0100
0001
1000
0100
1000
0010
0100
0001
1000
0100
1000
0010
0100
0001
1000
0100
0010
0001
0010
0100
1000
0010
,
0100
0001
1000
0100
1000
0010
0100
0001
1000
0100
0010
0001
1000
0010
0100
0001
0010
0001
1000
0010
1000
0001
0100
0001
,
1000
0010
0100
0001
1000
0100
0010
0001
1000
0001
0100
0010
1000
0100
1000
0001
0100
0010
0100
0001
1000
0001
0100
0010
,
2000
0001
3120
1000
0231
0010
1302
0100
,
2003
0000
0000
3010
0000
0000
1000
0010
0100
0001
1000
0100
1000
0010
0100
0001
1000
0100
0010
0001
0010
0100
1000
0010
,
0100
0001
1000
0100
1000
0010
0100
0001
1000
0100
0010
0001
1000
0010
0100
0001
0010
0001
1000
0010
1000
0001
0100
0001
,
1000
0010
0100
0001
1000
0100
0010
0001
1000
0001
0100
0010
1000
0100
1000
0001
0100
0010
0100
0001
1000
0001
0100
0010
,
2000
0000
0001
0000
3120
0000
1000
0000
0031
1000
0010
0100
0001
1000
0100
0010
,
0002
0000
0000
0103
0000
0000
1000
0010
0100
0001
1000
0100
1000
0010
0100
0001
1000
0100
0010
0001
0010
0100
1000
0010
,
0100
0001
1000
0100
1000
0010
0100
0001
1000
0100
0010
0001
1000
0010
0100
0001
0010
0001
1000
0010
1000
0001
0100
0001
,
1000
0010
0100
0001
1000
0100
0010
0001
1000
0001
0100
0010
1000
0100
1000
0001
0100
0010
0100
0001
1000
0001
0100
0010
,
2000
3001
0120
2130
3201
0010
1302
0100
,
2003
0000
0000
3010
0000
0000
1000
0010
0100
0001
1000
0100
1000
0010
0100
0001
1000
0100
0010
0001
0010
0100
1000
0010
,
0100
0001
1000
0100
1000
0010
0100
0001
1000
0100
0010
0001
1000
0010
0100
0001
0010
0001
1000
0010
1000
0001
0100
0001
,
1000
0010
0100
0001
1000
0100
0010
0001
1000
0001
0100
0010
1000
0100
1000
0001
0100
0010
0100
0001
1000
0001
0100
0010
,
2000
0000
3001
0000
0120
0000
1000
0000
0031
1000
0010
0100
0001
1000
0010
0100
,
1000
0010
0100
0001
1000
0100
1000
0010
0100
0001
1000
0100
0010
0001
0010
0100
1000
0010
0100
0001
1000
0100
1000
0010
,
0100
0001
1000
0100
0010
0001
1000
0010
0100
0001
0010
0001
0100
0010
1000
0001
0100
0001
1000
0010
0100
0001
1000
0100
,
0010
0001
1000
0001
0100
0010
1000
0100
1000
0001
0100
0010
0100
0001
1000
0001
0100
0010
1000
0010
0100
0001
1000
0100
,
1000
0010
0100
0001
1000
0100
0010
0001
0010
0100
1000
0010
0100
0001
1000
0100
1000
0010
0100
0001
1000
0100
0010
0001
,
1000
0010
0100
0001
1000
0100
1000
0010
0100
0001
1000
0100
1000
0010
0100
0001
1000
0100
0010
0001
0010
0100
1000
0010
,
0100
0001
1000
0100
1000
0010
0100
0001
1000
0100
0010
0001
1000
0010
0100
0001
0010
0001
1000
0010
1000
0001
0100
0001
,
1000
0010
0100
0001
1000
0100
0010
0001
1000
0001
0100
0010
1000
0100
1000
0001
0100
0010
0100
0001
1000
0001
0100
0010
,
2000
0000
3010
0000
0102
0000
0010
0000
0103
0010
1000
0001
0100
0001
1000
0010
,
0100
0002
0003
0000
1000
0000
0000
0000
0000
0000
0000
0000
0000
0000
0000
0000
;

//---------------dance-single - 29 (owenviau1)----------------
#NOTES:
     dance-single:
     29 (owenviau1):
     Hard:
     29:
     1.000,1.000,0.272,0.502,1.000,1287.000,20.000,37.000,0.000,14.000:

1000
0100
0010
0001
0100
0010
1000
0001
0100
0001
1000
0010
0100
0001
1000
0100
0010
0001
1000
0010
0100
0001
1000
0100
1000
0010
0100
0001
1000
0100
0010
0001
,
0100
0010
1000
0001
0100
0001
1000
0010
0100
0001
1000
0100
0010
0001
0100
0010
1000
0001
0010
0100
1000
0100
0010
0001
1000
0010
0100
0001
1000
0100
1000
0010
,
0100
0001
1000
0100
0010
0001
1000
0010
0100
0001
1000
0100
1000
0010
0100
0001
1000
0100
0010
0001
1000
0001
0100
0010
1000
0001
0100
0001
1000
0010
0100
0001
,
2000
0001
3120
1000
0231
0010
1302
0100
,
2003
0000
0000
0000
3010
0000
0000
0000
1000
0100
0010
0001
0100
0010
1000
0001
0100
0001
1000
0010
0100
0001
1000
0100
0010
0001
1000
0010
0100
0001
1000
0100
,
1000
0010
0100
0001
1000
0100
0010
0001
0100
0010
1000
0001
0100
0001
1000
0010
0100
0001
1000
0100
0010
0001
0100
0010
1000
0001
0010
0100
1000
0100
0010
0001
,
1000
0010
0100
0001
1000
0100
1000
0010
0100
0001
1000
0100
0010
0001
1000
0010
0100
0001
1000
0100
1000
0010
0100
0001
1000
0100
0010
0001
1000
0001
0100
0010
,
2000
0000
0001
0000
3120
0000
1000
0000
0031
1000
0010
0100
0001
1000
0100
0010
,
0002
0000
0000
0000
0103
0000
0000
0000
1000
0100
0010
0001
0100
0010
1000
0001
0100
0001
1000
0010
0100
0001
1000
0100
0010
0001
1000
0010
0100
0001
1000
0100
,
1000
0010
0100
0001
1000
0100
0010
0001
0100
0010
1000
0001
0100
0001
1000
0010
0100
0001
1000
0100
0010
0001
0100
0010
1000
0001
0010
0100
1000
0100
0010
0001
,
1000
0010
0100
0001
1000
0100
1000
0010
0100
0001
1000
0100
0010
0001
1000
0010
0100
0001
1000
0100
1000
0010
0100
0001
1000
0100
0010
0001
1000
0001
0100
0010
,
2000
3001
0120
2130
3201
0010
1302
0100
,
2003
0000
0000
0000
3010
0000
0000
0000
1000
0100
0010
0001
0100
0010
1000
0001
0100
0001
1000
0010
0100
0001
1000
0100
0010
0001
1000
0010
0100
0001
1000
0100
,
1000
0010
0100
0001
1000
0100
0010
0001
0100
0010
1000
0001
0100
0001
1000
0010
0100
0001
1000
0100
0010
0001
0100
0010
1000
0001
0010
0100
1000
0100
0010
0001
,
1000
0010
0100
0001
1000
0100
1000
0010
0100
0001
1000
0100
0010
0001
1000
0010
0100
0001
1000
0100
1000
0010
0100
0001
1000
0100
0010
0001
1000
0001
0100
0010
,
2000
0000
3001
0000
0120
0000
1000
0000
0031
1000
0010
0100
0001
1000
0010
0100
,
1000
0100
0010
0001
0100
0010
1000
0001
0100
0001
1000
0010
0100
0001
1000
0100
0010
0001
1000
0010
0100
0001
1000
0100
1000
0010
0100
0001
1000
0100
0010
0001
,
0100
0010
1000
0001
0100
0001
1000
0010
0100
0001
1000
0100
0010
0001
0100
0010
1000
0001
0010
0100
1000
0100
0010
0001
1000
0010
0100
0001
1000
0100
1000
0010
,
0100
0001
1000
0100
0010
0001
1000
0010
0100
0001
1000
0100
1000
0010
0100
0001
1000
0100
0010
0001
1000
0001
0100
0010
1000
0100
0010
0001
0100
0010
1000
0001
,
0100
0001
1000
0010
0100
0001
1000
0100
0010
0001
1000
0010
0100
0001
1000
0100
1000
0010
0100
0001
1000
0100
0010
0001
0100
0010
1000
0001
0100
0001
1000
0010
,
0100
0001
1000
0100
0010
0001
0100
0010
1000
0100
0010
0001
0100
0010
1000
0001
0100
0001
1000
0010
0100
0001
1000
0100
0010
0001
1000
0010
0100
0001
1000
0100
,
1000
0010
0100
0001
1000
0100
0010
0001
0100
0010
1000
0001
0100
0001
1000
0010
0100
0001
1000
0100
0010
0001
0100
0010
1000
0001
0010
0100
1000
0100
0010
0001
,
1000
0010
0100
0001
1000
0100
1000
0010
0100
0001
1000
0100
0010
0001
1000
0010
0100
0001
1000
0100
1000
0010
0100
0001
1000
0100
0010
0001
1000
0001
0100
0010
,
2000
0000
3010
0000
0102
0000
0010
0000
0103
0010
1000
0001
0100
0001
1000
0010
,
1000
0100
0010
0001
0100
0010
1000
0001
0100
0001
1000
0010
0100
0001
1000
0100
0010
0001
1000
0010
0100
0001
1000
0100
1000
0010
0100
0001
1000
0100
0010
0001
,
0100
0010
1000
0001
0100
0001
1000
0010
0100
0001
1000
0100
0010
0001
0100
0010
1000
0001
0010
0100
1000
0100
0010
0001
1000
0010
0100
0001
1000
0100
1000
0010
,
0100
0001
1000
0100
0010
0001
1000
0010
0100
0001
1000
0100
1000
0010
0100
0001
1000
0100
0010
0001
1000
0001
0100
0010
1000
0001
0100
0001
1000
0010
0100
0001
,
2000
0001
3120
1000
0231
0010
1302
0100
,
2003
0000
0000
0000
3010
0000
0000
0000
1000
0100
0010
0001
0100
0010
1000
0001
0100
0001
1000
0010
0100
0001
1000
0100
0010
0001
1000
0010
0100
0001
1000
0100
,
1000
0010
0100
0001
1000
0100
0010
0001
0100
0010
1000
0001
0100
0001
1000
0010
0100
0001
1000
0100
0010
0001
0100
0010
1000
0001
0010
0100
1000
0100
0010
0001
,
1000
0010
0100
0001
1000
0100
1000
0010
0100
0001
1000
0100
0010
0001
1000
0010
0100
0001
1000
0100
1000
0010
0100
0001
1000
0100
0010
0001
1000
0001
0100
0010
,
2000
0000
0001
0000
3120
0000
1000
0000
0031
1000
0010
0100
0001
1000
0100
0010
,
0002
0000
0000
0000
0103
0000
0000
0000
1000
0100
0010
0001
0100
0010
1000
0001
0100
0001
1000
0010
0100
0001
1000
0100
0010
0001
1000
0010
0100
0001
1000
0100
,
1000
0010
0100
0001
1000
0100
0010
0001
0100
0010
1000
0001
0100
0001
1000
0010
0100
0001
1000
0100
0010
0001
0100
0010
1000
0001
0010
0100
1000
0100
0010
0001
,
1000
0010
0100
0001
1000
0100
1000
0010
0100
0001
1000
0100
0010
0001
1000
0010
0100
0001
1000
0100
1000
0010
0100
0001
1000
0100
0010
0001
1000
0001
0100
0010
,
2000
3001
0120
2130
3201
0010
1302
0100
,
2003
0000
0000
0000
3010
0000
0000
0000
1000
0100
0010
0001
0100
0010
1000
0001
0100
0001
1000
0010
0100
0001
1000
0100
0010
0001
1000
0010
0100
0001
1000
0100
,
1000
0010
0100
0001
1000
0100
0010
0001
0100
0010
1000
0001
0100
0001
1000
0010
0100
0001
1000
0100
0010
0001
0100
0010
1000
0001
0010
0100
1000
0100
0010
0001
,
1000
0010
0100
0001
1000
0100
1000
0010
0100
0001
1000
0100
0010
0001
1000
0010
0100
0001
1000
0100
1000
0010
0100
0001
1000
0100
0010
0001
1000
0001
0100
0010
,
2000
0000
3001
0000
0120
0000
1000
0000
0031
1000
0010
0100
0001
1000
0010
0100
,
1000
0100
0010
0001
0100
0010
1000
0001
0100
0001
1000
0010
0100
0001
1000
0100
0010
0001
1000
0010
0100
0001
1000
0100
1000
0010
0100
0001
1000
0100
0010
0001
,
0100
0010
1000
0001
0100
0001
1000
0010
0100
0001
1000
0100
0010
0001
0100
0010
1000
0001
0010
0100
1000
0100
0010
0001
1000
0010
0100
0001
1000
0100
1000
0010
,
0100
0001
1000
0100
0010
0001
1000
0010
0100
0001
1000
0100
1000
0010
0100
0001
1000
0100
0010
0001
1000
0001
0100
0010
1000
0100
0010
0001
0100
0010
1000
0001
,
0100
0001
1000
0010
0100
0001
1000
0100
0010
0001
1000
0010
0100
0001
1000
0100
1000
0010
0100
0001
1000
0100
0010
0001
0100
0010
1000
0001
0100
0001
1000
0010
,
0100
0001
1000
0100
0010
0001
0100
0010
1000
0100
0010
0001
0100
0010
1000
0001
0100
0001
1000
0010
0100
0001
1000
0100
0010
0001
1000
0010
0100
0001
1000
0100
,
1000
0010
0100
0001
1000
0100
0010
0001
0100
0010
1000
0001
0100
0001
1000
0010
0100
0001
1000
0100
0010
0001
0100
0010
1000
0001
0010
0100
1000
0100
0010
0001
,
1000
0010
0100
0001
1000
0100
1000
0010
0100
0001
1000
0100
0010
0001
1000
0010
0100
0001
1000
0100
1000
0010
0100
0001
1000
0100
0010
0001
1000
0001
0100
0010
,
2000
0000
3010
0000
0102
0000
0010
0000
0103
0010
1000
0001
0100
0001
1000
0010
,
0100
0002
0003
0000
1000
0000
0000
0000
0000
0000
0000
0000
0000
0000
0000
0000
;

//---------------dance-single - 36+ (owenviau1)----------------
#NOTES:
     dance-single:
     36+ (owenviau1):
     Challenge:
     36:
     1.000,1.000,0.380,0.502,1.000,1579.000,28.000,37.000,0.000,18.000:

1000
0100
0010
0001
0100
0000
0000
0000
1000
0010
0100
0001
0010
0000
0000
0000
1000
0010
1000
0001
0100
0000
0000
0000
0100
0010
1000
0001
1000
0000
0000
0000
0010
0100
1000
0001
0100
0000
0000
0000
0010
1000
0001
0100
0010
0000
0000
0000
1000
0100
0010
0001
1000
0000
0000
0000
0001
0010
0100
1000
0001
0000
0000
0000
,
1000
0010
0100
0001
1000
0000
0000
0000
0001
0100
0010
1000
0001
0000
0000
0000
0100
0010
1000
0001
0100
0000
0000
0000
0010
1000
0100
1000
0001
0000
0000
0000
0100
0010
1000
0001
0010
0000
0000
0000
0100
1000
0001
0100
0010
0000
0000
0000
1000
0001
0100
0010
1000
0000
0000
0000
0001
0100
0001
1000
0010
0000
0000
0000
,
0100
0001
0010
0100
1000
0000
0000
0000
0001
0100
0001
1000
0010
0000
0000
0000
0100
0001
1000
0100
0010
0000
0000
0000
0001
1000
0010
0100
0001
0000
0000
0000
1000
0100
1000
0010
0100
0000
0000
0000
0001
0010
0001
0100
0010
0000
0000
0000
1000
0100
0010
0001
1000
0000
0000
0000
0010
0100
0001
0010
0001
0000
0000
0000
,
2010
0001
3120
1000
0231
0010
1302
0100
,
2003
0000
0000
0000
0000
0000
0000
0000
3010
0000
0000
0000
0000
0000
0000
0000
1000
0010
1000
0001
0100
0000
0000
0000
0100
0010
1000
0001
1000
0000
0000
0000
0010
0100
1000
0001
0100
0000
0000
0000
0010
1000
0001
0100
0010
0000
0000
0000
1000
0100
0010
0001
1000
0000
0000
0000
0001
0010
0100
1000
0001
0000
0000
0000
,
1000
0010
0100
0001
1000
0000
0000
0000
0001
0100
0010
1000
0001
0000
0000
0000
0100
0010
1000
0001
0100
0000
0000
0000
0010
1000
0100
1000
0001
0000
0000
0000
0100
0010
1000
0001
0010
0000
0000
0000
0100
1000
0001
0100
0010
0000
0000
0000
1000
0001
0100
0010
1000
0000
0000
0000
0001
0100
0001
1000
0010
0000
0000
0000
,
0100
0001
0010
0100
1000
0000
0000
0000
0001
0100
0001
1000
0010
0000
0000
0000
0100
0001
1000
0100
0010
0000
0000
0000
0001
1000
0010
0100
0001
0000
0000
0000
1000
0100
1000
0010
0100
0000
0000
0000
0001
0010
0001
0100
0010
0000
0000
0000
1000
0100
0010
0001
1000
0000
0000
0000
0010
0100
0001
0010
0001
0000
0000
0000
,
2010
0000
0001
0000
3120
0000
1000
0000
0031
1000
0010
0100
0001
1000
0100
0010
,
0002
0000
0000
0000
0000
0000
0000
0000
1003
0000
0000
0000
0000
0000
0000
0000
0100
0010
1000
0001
0100
0000
0000
0000
0100
0010
1000
0001
1000
0000
0000
0000
0010
0100
1000
0001
0100
0000
0000
0000
0010
1000
0001
0100
0010
0000
0000
0000
1000
0100
0010
0001
1000
0000
0000
0000
0001
0010
0100
1000
0001
0000
0000
0000
,
1000
0010
0100
0001
1000
0000
0000
0000
0001
0100
0010
1000
0001
0000
0000
0000
0100
0010
1000
0001
0100
0000
0000
0000
0010
1000
0100
1000
0001
0000
0000
0000
0100
0010
1000
0001
0010
0000
0000
0000
0100
1000
0001
0100
0010
0000
0000
0000
1000
0001
0100
0010
1000
0000
0000
0000
0001
0100
0001
1000
0010
0000
0000
0000
,
0100
0001
0010
0100
1000
0000
0000
0000
0001
0100
0001
1000
0010
0000
0000
0000
0100
0001
1000
0100
0010
0000
0000
0000
0001
1000
0010
0100
0001
0000
0000
0000
1000
0100
1000
0010
0100
0000
0000
0000
0001
0010
0001
0100
0010
0000
0000
0000
1000
0100
0010
0001
1000
0000
0000
0000
0010
0100
0001
0010
0001
0000
0000
0000
,
2000
3001
0120
2130
3201
0010
1302
0100
,
2003
0000
0000
0000
0000
0000
0000
0000
3010
0000
0000
0000
0000
0000
0000
0000
1000
0010
1000
0001
0100
0000
0000
0000
0100
0010
1000
0001
1000
0000
0000
0000
0010
0100
1000
0001
0100
0000
0000
0000
0010
1000
0001
0100
0010
0000
0000
0000
1000
0100
0010
0001
1000
0000
0000
0000
0001
0010
0100
1000
0001
0000
0000
0000
,
1000
0010
0100
0001
1000
0000
0000
0000
0001
0100
0010
1000
0001
0000
0000
0000
0100
0010
1000
0001
0100
0000
0000
0000
0010
1000
0100
1000
0001
0000
0000
0000
0100
0010
1000
0001
0010
0000
0000
0000
0100
1000
0001
0100
0010
0000
0000
0000
1000
0001
0100
0010
1000
0000
0000
0000
0001
0100
0001
1000
0010
0000
0000
0000
,
0100
0001
0010
0100
1000
0000
0000
0000
0001
0100
0001
1000
0010
0000
0000
0000
0100
0001
1000
0100
0010
0000
0000
0000
0001
1000
0010
0100
0001
0000
0000
0000
1000
0100
1000
0010
0100
0000
0000
0000
0001
0010
0001
0100
0010
0000
0000
0000
1000
0100
0010
0001
1000
0000
0000
0000
0010
0100
0001
0010
0001
0000
0000
0000
,
2010
0000
0001
0000
3120
0000
1000
0000
0031
1000
0010
0100
0001
1000
0010
0100
,
1000
0010
1000
0001
0100
0000
0000
0000
0100
0010
1000
0001
1000
0000
0000
0000
0010
0100
1000
0001
0100
0000
0000
0000
0010
1000
0001
0100
0010
0000
0000
0000
1000
0100
0010
0001
1000
0000
0000
0000
0001
0010
0100
1000
0001
0000
0000
0000
1000
0010
0100
0001
1000
0000
0000
0000
0001
0100
0010
1000
0001
0000
0000
0000
,
0100
0010
1000
0001
0100
0000
0000
0000
0010
1000
0100
1000
0001
0000
0000
0000
0100
0010
1000
0001
0010
0000
0000
0000
0100
1000
0001
0100
0010
0000
0000
0000
1000
0001
0100
0010
1000
0000
0000
0000
0001
0100
0001
1000
0010
0000
0000
0000
0100
0001
0010
0100
1000
0000
0000
0000
0001
0100
0001
1000
0010
0000
0000
0000
,
0100
0001
1000
0100
0010
0000
0000
0000
0001
1000
0010
0100
0001
0000
0000
0000
1000
0100
1000
0010
0100
0000
0000
0000
0001
0010
0001
0100
0010
0000
0000
0000
1000
0100
0010
0001
1000
0000
0000
0000
0010
0100
0001
0010
0100
0000
0000
0000
1000
0010
1000
0001
0100
0000
0000
0000
0100
0010
1000
0001
1000
0000
0000
0000
,
0010
0100
1000
0001
0100
0000
0000
0000
0010
1000
0001
0100
0010
0000
0000
0000
1000
0100
0010
0001
1000
0000
0000
0000
0001
0010
0100
1000
0001
0000
0000
0000
1000
0010
0100
0001
1000
0000
0000
0000
0001
0100
0010
1000
0001
0000
0000
0000
0100
0010
1000
0001
0100
0000
0000
0000
0010
1000
0100
1000
0001
0000
0000
0000
,
0100
0010
1000
0001
0100
0000
0000
0000
0100
0010
1000
0001
1000
0000
0000
0000
1000
0100
0010
0001
0100
0000
0000
0000
1000
0010
0100
0001
0010
0000
0000
0000
1000
0010
1000
0001
0100
0000
0000
0000
0100
0010
1000
0001
1000
0000
0000
0000
0010
0100
1000
0001
0100
0000
0000
0000
0010
1000
0001
0100
0010
0000
0000
0000
,
1000
0100
0010
0001
1000
0000
0000
0000
0001
0010
0100
1000
0001
0000
0000
0000
1000
0010
0100
0001
1000
0000
0000
0000
0001
0100
0010
1000
0001
0000
0000
0000
0100
0010
1000
0001
0100
0000
0000
0000
0010
1000
0100
1000
0001
0000
0000
0000
0100
0010
1000
0001
0010
0000
0000
0000
0100
1000
0001
0100
0010
0000
0000
0000
,
1000
0001
0100
0010
1000
0000
0000
0000
0001
0100
0001
1000
0010
0000
0000
0000
0100
0001
0010
0100
1000
0000
0000
0000
0001
0100
0001
1000
0010
0000
0000
0000
0100
0001
1000
0100
0010
0000
0000
0000
0001
1000
0010
0100
0001
0000
0000
0000
1000
0100
1000
0010
0100
0000
0000
0000
0001
0010
0001
0100
0010
0000
0000
0000
,
2001
0000
0010
0000
3102
0000
0010
0000
0103
0010
1000
0001
0100
0001
1000
0010
,
1000
0100
0010
0001
0100
0000
0000
0000
1000
0010
0100
0001
0010
0000
0000
0000
1000
0010
1000
0001
0100
0000
0000
0000
0100
0010
1000
0001
1000
0000
0000
0000
0010
0100
1000
0001
0100
0000
0000
0000
0010
1000
0001
0100
0010
0000
0000
0000
1000
0100
0010
0001
1000
0000
0000
0000
0001
0010
0100
1000
0001
0000
0000
0000
,
1000
0010
0100
0001
1000
0000
0000
0000
0001
0100
0010
1000
0001
0000
0000
0000
0100
0010
1000
0001
0100
0000
0000
0000
0010
1000
0100
1000
0001
0000
0000
0000
0100
0010
1000
0001
0010
0000
0000
0000
0100
1000
0001
0100
0010
0000
0000
0000
1000
0001
0100
0010
1000
0000
0000
0000
0001
0100
0001
1000
0010
0000
0000
0000
,
0100
0001
0010
0100
1000
0000
0000
0000
0001
0100
0001
1000
0010
0000
0000
0000
0100
0001
1000
0100
0010
0000
0000
0000
0001
1000
0010
0100
0001
0000
0000
0000
1000
0100
1000
0010
0100
0000
0000
0000
0001
0010
0001
0100
0010
0000
0000
0000
1000
0100
0010
0001
1000
0000
0000
0000
0010
0100
0001
0010
0001
0000
0000
0000
,
2100
0001
3120
1000
0231
0010
1302
0100
,
2003
0000
0000
0000
0000
0000
0000
0000
3010
0000
0000
0000
0000
0000
0000
0000
1000
0010
1000
0001
0100
0000
0000
0000
0100
0010
1000
0001
1000
0000
0000
0000
0010
0100
1000
0001
0100
0000
0000
0000
0010
1000
0001
0100
0010
0000
0000
0000
1000
0100
0010
0001
1000
0000
0000
0000
0001
0010
0100
1000
0001
0000
0000
0000
,
1000
0010
0100
0001
1000
0000
0000
0000
0001
0100
0010
1000
0001
0000
0000
0000
0100
0010
1000
0001
0100
0000
0000
0000
0010
1000
0100
1000
0001
0000
0000
0000
0100
0010
1000
0001
0010
0000
0000
0000
0100
1000
0001
0100
0010
0000
0000
0000
1000
0001
0100
0010
1000
0000
0000
0000
0001
0100
0001
1000
0010
0000
0000
0000
,
0100
0001
0010
0100
1000
0000
0000
0000
0001
0100
0001
1000
0010
0000
0000
0000
0100
0001
1000
0100
0010
0000
0000
0000
0001
1000
0010
0100
0001
0000
0000
0000
1000
0100
1000
0010
0100
0000
0000
0000
0001
0010
0001
0100
0010
0000
0000
0000
1000
0100
0010
0001
1000
0000
0000
0000
0010
0100
0001
0010
0001
0000
0000
0000
,
2010
0000
0001
0000
3120
0000
1000
0000
0031
1000
0010
0100
0001
1000
0100
0010
,
0002
0000
0000
0000
0000
0000
0000
0000
1003
0000
0000
0000
0000
0000
0000
0000
0100
0010
1000
0001
0100
0000
0000
0000
0100
0010
1000
0001
1000
0000
0000
0000
0010
0100
1000
0001
0100
0000
0000
0000
0010
1000
0001
0100
0010
0000
0000
0000
1000
0100
0010
0001
1000
0000
0000
0000
0001
0010
0100
1000
0001
0000
0000
0000
,
1000
0010
0100
0001
1000
0000
0000
0000
0001
0100
0010
1000
0001
0000
0000
0000
0100
0010
1000
0001
0100
0000
0000
0000
0010
1000
0100
1000
0001
0000
0000
0000
0100
0010
1000
0001
0010
0000
0000
0000
0100
1000
0001
0100
0010
0000
0000
0000
1000
0001
0100
0010
1000
0000
0000
0000
0001
0100
0001
1000
0010
0000
0000
0000
,
0100
0001
0010
0100
1000
0000
0000
0000
0001
0100
0001
1000
0010
0000
0000
0000
0100
0001
1000
0100
0010
0000
0000
0000
0001
1000
0010
0100
0001
0000
0000
0000
1000
0100
1000
0010
0100
0000
0000
0000
0001
0010
0001
0100
0010
0000
0000
0000
1000
0100
0010
0001
1000
0000
0000
0000
0010
0100
0001
0010
0001
0000
0000
0000
,
2000
3001
0120
2130
3201
0010
1302
0100
,
2003
0000
0000
0000
0000
0000
0000
0000
3010
0000
0000
0000
0000
0000
0000
0000
1000
0010
1000
0001
0100
0000
0000
0000
0100
0010
1000
0001
1000
0000
0000
0000
0010
0100
1000
0001
0100
0000
0000
0000
0010
1000
0001
0100
0010
0000
0000
0000
1000
0100
0010
0001
1000
0000
0000
0000
0001
0010
0100
1000
0001
0000
0000
0000
,
1000
0010
0100
0001
1000
0000
0000
0000
0001
0100
0010
1000
0001
0000
0000
0000
0100
0010
1000
0001
0100
0000
0000
0000
0010
1000
0100
1000
0001
0000
0000
0000
0100
0010
1000
0001
0010
0000
0000
0000
0100
1000
0001
0100
0010
0000
0000
0000
1000
0001
0100
0010
1000
0000
0000
0000
0001
0100
0001
1000
0010
0000
0000
0000
,
0100
0001
0010
0100
1000
0000
0000
0000
0001
0100
0001
1000
0010
0000
0000
0000
0100
0001
1000
0100
0010
0000
0000
0000
0001
1000
0010
0100
0001
0000
0000
0000
1000
0100
1000
0010
0100
0000
0000
0000
0001
0010
0001
0100
0010
0000
0000
0000
1000
0100
0010
0001
1000
0000
0000
0000
0010
0100
0001
0010
0001
0000
0000
0000
,
2010
0000
0001
0000
3120
0000
1000
0000
0031
1000
0010
0100
0001
1000
0010
0100
,
1000
0010
1000
0001
0100
0000
0000
0000
0100
0010
1000
0001
1000
0000
0000
0000
0010
0100
1000
0001
0100
0000
0000
0000
0010
1000
0001
0100
0010
0000
0000
0000
1000
0100
0010
0001
1000
0000
0000
0000
0001
0010
0100
1000
0001
0000
0000
0000
1000
0010
0100
0001
1000
0000
0000
0000
0001
0100
0010
1000
0001
0000
0000
0000
,
0100
0010
1000
0001
0100
0000
0000
0000
0010
1000
0100
1000
0001
0000
0000
0000
0100
0010
1000
0001
0010
0000
0000
0000
0100
1000
0001
0100
0010
0000
0000
0000
1000
0001
0100
0010
1000
0000
0000
0000
0001
0100
0001
1000
0010
0000
0000
0000
0100
0001
0010
0100
1000
0000
0000
0000
0001
0100
0001
1000
0010
0000
0000
0000
,
0100
0001
1000
0100
0010
0000
0000
0000
0001
1000
0010
0100
0001
0000
0000
0000
1000
0100
1000
0010
0100
0000
0000
0000
0001
0010
0001
0100
0010
0000
0000
0000
1000
0100
0010
0001
1000
0000
0000
0000
0010
0100
0001
0010
0100
0000
0000
0000
1000
0010
1000
0001
0100
0000
0000
0000
0100
0010
1000
0001
1000
0000
0000
0000
,
0010
0100
1000
0001
0100
0000
0000
0000
0010
1000
0001
0100
0010
0000
0000
0000
1000
0100
0010
0001
1000
0000
0000
0000
0001
0010
0100
1000
0001
0000
0000
0000
1000
0010
0100
0001
1000
0000
0000
0000
0001
0100
0010
1000
0001
0000
0000
0000
0100
0010
1000
0001
0100
0000
0000
0000
0010
1000
0100
1000
0001
0000
0000
0000
,
0100
0010
1000
0001
0100
0000
0000
0000
0100
0010
1000
0001
1000
0000
0000
0000
1000
0100
0010
0001
0100
0000
0000
0000
1000
0010
0100
0001
0010
0000
0000
0000
1000
0010
1000
0001
0100
0000
0000
0000
0100
0010
1000
0001
1000
0000
0000
0000
0010
0100
1000
0001
0100
0000
0000
0000
0010
1000
0001
0100
0010
0000
0000
0000
,
1000
0100
0010
0001
1000
0000
0000
0000
0001
0010
0100
1000
0001
0000
0000
0000
1000
0010
0100
0001
1000
0000
0000
0000
0001
0100
0010
1000
0001
0000
0000
0000
0100
0010
1000
0001
0100
0000
0000
0000
0010
1000
0100
1000
0001
0000
0000
0000
0100
0010
1000
0001
0010
0000
0000
0000
0100
1000
0001
0100
0010
0000
0000
0000
,
1000
0001
0100
0010
1000
0000
0000
0000
0001
0100
0001
1000
0010
0000
0000
0000
0100
0001
0010
0100
1000
0000
0000
0000
0001
0100
0001
1000
0010
0000
0000
0000
0100
0001
1000
0100
0010
0000
0000
0000
0001
1000
0010
0100
0001
0000
0000
0000
1000
0100
1000
0010
0100
0000
0000
0000
0001
0010
0001
0100
0010
0000
0000
0000
,
2001
0000
0010
0000
3102
0000
0010
0000
0103
0010
1000
0001
0100
0001
1000
0010
,
1000
0000
0200
0000
0000
0300
0000
0000
0010
0000
0000
0000
0000
0000
0000
0000
0000
0000
0000
0000
0000
0000
0000
0000
0000
0000
0000
0000
0000
0000
0000
0000
;
