#TITLE:Frictional Nevada;
#SUBTITLE:;
#ARTIST:Venetian Snares;
#TITLETRANSLIT:;
#SUBTITLETRANSLIT:;
#ARTISTTRANSLIT:;
#CREDIT:;
#BANNER:bn.png;
#BACKGROUND:bg.png;
#LYRICSPATH:;
#CDTITLE:;
#MUSIC:Frictional Nevada.ogg;
#OFFSET:-0.294;
#SAMPLESTART:29.651;
#SAMPLELENGTH:11.980;
#SELECTABLE:YES;
#BPMS:0.000=224.900;
#STOPS:;
#BGCHANGES:;
// cache tags:
#FIRSTBEAT:10.000;
#LASTBEAT:396.000;
#SONGFILENAME:Songs/SSSC PACK/[debit13] - Frictional Nevada/friction.sm;
#HASMUSIC:1;
#HASBANNER:1;
#MUSICLENGTH:108.094;
// end cache tags

//---------------dance-single - debit13----------------
#NOTES:
     dance-single:
     debit13:
     Challenge:
     15:
     1.000,1.000,0.472,0.352,1.000,846.000,51.000,38.000,32.000,0.000:



0000
0000
0000
0000
,
0000
0000
0000
0000
,
0000
0000
0000
0000
0001
0010
0100
1000
,
1001
0000
1000
0100
0010
0100
1000
0100
0010
0100
1000
0100
0010
0100
1000
0100
,
0010
0000
0001
1000
0001
0000
1000
0010
0100
0001
1000
0000
1100
0000
0000
0000
,
0011
0000
1000
0001
1000
1000
2000
0000
,
3200
0000
0000
0000
0302
0000
0000
0000
0103
0000
0010
0001
0010
0001
1000
0000
,
0010
1000
0010
1000
0001
0000
0000
0000
1000
0100
0010
0001
1000
0000
0040
0000
,
0130
0000
0000
0000
0000
0000
0000
0004
0000
0000
0000
0000
0000
0000
0000
0003
1000
0000
0000
0000
0000
0000
0000
0000
0100
0000
0000
0000
1000
0000
0000
0000
0100
0000
0000
0000
1000
0000
0000
0000
0010
0000
0000
0000
0000
0000
0000
0000
0100
0000
0000
0000
0001
0000
0000
0000
0100
0000
0000
0000
0001
0000
0000
0000
,
0010
0000
0000
0000
0010
0001
0010
0001
1000
0001
1000
0001
0100
0000
01M0
0000
,
1001
0M01
2000
3020
0032
0023
0230
0301
,
2000
0000
3200
0000
0302
0000
0203
0000
0310
0001
0010
0000
0011
0000
0000
0000
,
1000
0001
0100
0100
1000
0000
0200
0000
,
0320
0000
0000
0000
2030
0000
0000
0000
3001
0000
0000
1000
0000
0000
0001
1000
,
0001
0010
0001
1000
0010
0000
0000
0000
1000
0100
0010
0001
1000
0000
0004
0000
,
1003
0000
0000
0000
0000
0000
0000
0040
0000
0000
0000
0000
0000
0000
0000
0030
0100
0000
0000
0000
0000
0000
0000
0000
0000
0000
0000
0000
0100
0000
0000
0000
0001
0000
0000
0000
1000
0000
0000
0000
0001
0000
0000
0000
0000
0000
0000
0000
1000
0000
0000
0000
0010
0000
0000
0000
1000
0000
0000
0000
0001
0000
0000
0000
,
0010
0000
0000
0000
0110
0000
0000
01M0
0000
0000
0M10
0000
0000
0000
0001
1000
,
0010
01M0
0001
0010
0100
0000
1000
0001
,
010M
0010
1000
0001
0010
0001
0011
0000
,
0001
1000
0100
0010
0001
0000
1000
0000
,
1000
1000
0010
0100
0101
0000
0001
1000
,
0100
0000
1000
0100
1000
0000
0010
0000
0100
0000
0000
0000
0001
0000
0100
0000
,
0010
1000
1M00
0000
00M1
0000
10M1
0000
,
1M01
0000
0000
0000
1000
0010
0100
0010
1000
0010
0100
0010
0100
0000
0001
0000
,
0011
0000
1000
0010
0100
0001
0001
0000
,
1000
0000
1000
0000
1000
0000
0100
0000
0010
0000
0001
1000
0010
0000
0000
0000
,
0100
0000
0001
0000
1000
0010
1000
0010
1000
0000
0001
0000
0100
0010
0100
0001
,
0100
0000
0001
0010
0100
1000
0001
0000
1001
0000
0000
0000
1000
0000
0010
0100
,
0010
0100
0010
0000
0100
0000
0000
0000
0001
0010
0001
0000
1000
0000
0100
1000
,
0100
1000
0100
0000
1010
0000
0101
0000
100M
0000
0010
0100
0010
0100
0010
0000
,
1000
0000
0004
0010
0103
1000
0001
0000
1000
0100
0010
0001
1000
0000
0010
0000
,
0100
0000
0101
1000
0000
1010
0001
0000
,
1001
0000
0000
0000
1000
0100
0010
0001
1000
0010
1000
0010
1000
0000
0000
0000
,
0001
0010
0001
0000
0000
1000
0000
0000
0010
0000
0000
0100
0001
0000
1000
0000
,
0010
0100
0010
0100
0010
0100
0010
0000
1010
0000
1000
0000
0001
0000
0101
0000
,
0100
0000
0010
0000
1004
0000
0000
0003
1000
0100
0010
0001
1000
0000
0000
0000
,
1010
0000
0010
0100
0001
0000
0010
0000
0100
0000
1000
0000
0001
0010
0001
0010
,
0001
0010
0001
0000
1000
0010
0100
0010
1000
0001
1000
0001
0400
0340
4030
3400
,
0340
0030
0010
0000
0010
0000
0001
0000
1000
0000
0100
1000
0100
0000
1000
0000
,
0001
0000
0100
0001
0100
0000
0001
0000
1000
0000
0100
0010
0001
0000
MM00
0000
,
0001
0010
0100
1000
0001
0010
0001
0010
0001
0010
0100
1000
0001
1000
0100
0010
,
0001
0000
0000
0000
1000
0000
0010
0100
0001
0000
0100
0010
0100
0010
1000
0000
,
1000
0000
0100
0010
0001
1000
0001
0010
0100
0000
1000
0010
0100
0000
0001
1000
,
0001
0000
0010
0000
0100
0000
1000
0000
0010
0000
0010
0000
0000
0100
0010
0100
,
0010
M000
M000
M000
,
0101
0000
0101
0000
0001
0000
1000
0100
0010
0001
0010
0100
1000
0001
0100
0000
,
0101
0000
0001
0000
1000
0010
1000
0010
1000
0000
0000
0000
1001
0000
1001
0000
,
1000
0000
0001
1000
0010
0100
0010
1000
0001
0010
0001
0010
0001
0010
0001
0000
,
1000
0010
0100
0001
1000
0001
0100
0001
1000
0100
1000
0100
1000
0000
0001
0100
,
0010
1000
0010
1000
0010
1000
0001
0010
0100
0000
1000
0010
0000
1000
0010
1000
,
0001
1000
0100
0000
0011
0000
0011
0000
0001
0000
1000
0010
0100
0010
1000
0001
,
0010
0000
0000
0000
0011
0000
0000
1100
0000
0000
1010
0000
0000
0101
0000
0000
,
0002
2003
3200
0302
,
2003
0000
3020
0000
0031
1000
0010
0100
,
0001
0010
1000
0010
0001
0001
0001
0001
,
1000
1000
1000
1000
1020
0000
0032
0000
,
2003
3200
0302
0023
,
0130
0000
1000
0000
1010
0000
1010
0000
0010
0000
1000
0001
1000
0000
0010
0000
,
0100
0000
0001
0000
0101
0000
1000
0010
0000
0000
1100
0000
0010
0001
0000
0000
,
1010
0100
0101
0001
0010
0100
1000
0010
,
0100
0001
0100
0001
10M0
0000
0000
0M0M
1000
0000
0MMM
0000
1000
0M0M
0000
0000
,
0010
0000
0100
0000
0001
0000
0010
0000
0200
0000
0000
0000
1300
0000
0000
MM01
,
0000
0000
01MM
0000
0000
0M1M
0000
0000
10MM
0000
0100
0000
0010
0000
0001
1000
,
0001
0010
0100
0000
1000
0000
0000
1000
0100
0000
0000
0010
0001
1000
0000
0010
,
1000
0010
0100
0001
0100
0000
0100
0000
0010
1000
0010
1000
0001
0000
0100
0000
,
0001
0000
0010
0000
0001
1000
0010
1000
0010
1000
0001
1000
0040
4030
3040
4030
,
3400
0300
0010
0001
0010
0000
0001
1000
0001
0010
0001
1000
0001
0000
0010
0001
,
0010
0000
0100
0010
0100
0000
1000
0100
0010
0000
0001
0000
0100
0000
0100
0000
,
0010
0000
1000
0010
1000
0000
0010
0100
0010
0100
0001
0100
0010
0000
1000
0010
,
1000
0000
0010
0100
0010
0000
1000
0100
0010
0000
0001
0010
0001
0000
1000
0001
,
1000
0001
1000
0001
0010
0000
0010
0001
0010
0001
0010
0100
0010
0100
1000
0100
,
1000
0000
0000
0000
0010
0000
0010
0000
0100
0000
0001
0100
0001
0100
0010
0100
,
0001
0000
0100
0010
0100
0000
0010
0000
1000
0000
0010
0000
0100
0000
0001
0000
,
2000
3200
0302
2003
,
3020
0000
0032
0000
1003
0010
2010
0001
,
0001
0100
3000
1000
0100
0010
0001
1000
,
0010
0000
0000
0000
0100
0000
0001
0000
0010
0000
0010
0000
0001
0000
1000
0001
,
1000
0001
1000
0000
0010
0000
0010
0000
0010
0000
0010
0000
0010
0000
1000
0001
,
1000
0001
0100
0000
0010
0000
0010
0000
0100
0001
0100
0000
0010
0100
0010
1000
,
0010
0000
1000
0001
1000
0000
0100
0000
0040
0031
4000
3040
0430
0304
0043
0430
,
4300
3001
1000
0000
0001
0000
1000
0001
1000
0000
0001
0000
1000
0000
0010
0000
,
0100
0001
1000
0000
0100
0010
0001
0000
,
0001
0000
0000
0000
0000
0000
0000
0000
0000
0000
0000
0000
0000
0000
0000
0000
0000
0000
0000
0000
0000
0000
0000
0000
0000
0000
0000
0000
0000
0000
0000
0000
0000
0000
0000
0000
0000
0000
0000
0000
0000
0000
0000
0000
0000
0000
0000
0000
0000
0000
0000
1000
0000
0000
0000
0000
0000
0000
0000
0000
0000
0000
0000
0000
0000
0000
0000
0000
0000
0000
0000
0000
0000
0000
0000
0000
0000
0000
0000
0000
0000
0000
0000
0000
0000
0000
0000
0000
0000
0000
0000
0000
0000
0000
0000
0000
0001
0000
0000
0000
0000
0000
0000
0000
0000
0000
0000
0000
0000
0000
0000
0000
0000
0000
0000
0000
0000
0000
0000
0000
0000
0000
0000
0000
0000
0000
0000
0000
0000
0000
0000
0000
0000
0000
0000
0000
0000
0000
0000
0000
0000
0000
0000
0000
1000
0000
0000
0000
0000
0000
0000
0000
0000
0000
0000
0000
0000
0000
0000
0000
0010
0000
0000
0000
0000
0000
0000
0000
0000
0000
0000
0000
0000
0000
0000
0000
1000
0000
0000
0000
0000
0000
0000
0000
0000
0000
0000
0000
0000
0000
0000
0000
,
0100
0000
0100
0010
0001
0000
0001
0000
,
1000
0001
1000
0001
,
1000
0001
0001
1000
,
0001
1000
1000
1000
,
0010
1000
0100
0000
0010
0000
0001
0000
4000
3040
0430
0304
0013
0001
0100
0010
,
1000
0000
0000
0000
1001
0000
0001
0010
0100
1000
0001
0000
1000
0010
1000
0010
,
0100
0000
0010
0000
0100
0001
0100
0001
0010
0100
0010
0100
1000
0000
0001
0000
,
0000
0000
0000
0000
1000
0100
1000
0001
1000
0000
0010
0100
0000
0001
1000
0000
,
0400
0000
0000
0340
0000
0000
0031
0100
0001
0010
0100
1000
0000
0000
0040
0000
,
0000
0000
0430
0000
0000
0000
0000
0000
0304
0000
0000
0000
0000
0003
1100
0000
0000
0000
1100
0000
0000
0000
1000
0000
0000
0000
0001
0010
0100
0000
0000
0000
,
1000
0000
0000
0010
0000
0000
0400
0000
0004
0000
0000
0000
0000
0000
0000
0300
0000
0000
0003
0000
0000
1000
0000
0000
0010
0000
0000
1000
0000
0000
0000
0000
0000
0001
0000
0000
1000
0000
0000
0001
0000
0000
0000
0000
0000
0000
0000
0000
,
0101
0000
0000
0000
0000
0000
0400
0000
0000
0000
0000
0300
1010
0000
0000
0000
0000
0000
1000
0000
0001
0000
1000
0000
0002
0000
0000
0000
0000
0000
0000
0000
,
0023
0000
0230
0000
1300
1000
1000
1000
,
0001
0000
0000
0000
0000
0000
1000
0000
0000
0000
0000
0000
0001
0000
0000
0100
0000
0000
0001
0000
0000
0100
0000
0000
0001
0000
0000
0000
0010
0000
0000
0000
0001
0000
0000
0000
1000
0000
0000
0000
0001
0000
0000
0000
0100
0000
0000
0000
,
0001
1000
0001
1000
0001
1000
0001
1000
0001
0010
0100
0000
0000
0000
0000
0000
,
0001
0100
0010
0000
0010
0000
0000
0000
0001
0100
0010
1000
0100
0010
0100
1000
,
0001
0000
0000
0000
;
