#TITLE:Diving;
#SUBTITLE:;
#ARTIST:4 Strings;
#TITLETRANSLIT:;
#SUBTITLETRANSLIT:;
#ARTISTTRANSLIT:;
#CREDIT:;
#BANNER:../BN.png;
#BACKGROUND:../BG.png;
#LYRICSPATH:;
#CDTITLE:../CDTitleBRAEDEN.png;
#MUSIC:Diving.ogg;
#OFFSET:-0.366;
#SAMPLESTART:41.396;
#SAMPLELENGTH:27.000;
#SELECTABLE:YES;
#BPMS:0.000=140.000,81.000=70.000,119.000=140.000,251.000=70.000,297.000=140.000;
#STOPS:;
#BGCHANGES:;
// cache tags:
#FIRSTBEAT:1.000;
#LASTBEAT:397.000;
#SONGFILENAME:Songs/Index Gradation/Diving - [Braeden]/Diving.sm;
#HASMUSIC:1;
#HASBANNER:1;
#MUSICLENGTH:220.194;
// end cache tags

//---------------dance-single - ----------------
#NOTES:
     dance-single:
     :
     Challenge:
     12:
     0.683,0.789,0.100,0.309,0.940,956.000,22.000,68.000,0.000,63.000:

0000
0000
0000
0000
0001
0010
0100
1000
0001
0100
0010
0100
0001
0010
0001
1000
,
0100
0010
0100
1000
0001
0100
0010
0100
0001
0010
0001
1000
0100
0010
0100
1000
,
0001
0100
0010
0100
0001
0010
0001
1000
0100
0010
0100
1000
0001
0100
0010
0100
,
0001
0010
0001
1000
0100
0010
0100
1000
0001
0100
0010
0100
0001
0100
0010
1000
,
0001
0000
0010
0000
0100
0000
1000
0000
0100
0000
0010
0000
0001
0000
0000
0100
0000
0000
0010
0000
0000
1000
0000
0000
0001
0000
0000
0100
0000
0000
0010
0000
0000
1000
0000
0000
0001
0000
0000
0010
0000
0000
0001
0000
0000
0100
0000
0000
,
0001
1000
0010
0100
0001
0010
0100
1000
0100
0010
0001
0100
0010
1000
0001
0010
,
0100
1000
0001
0010
0200
1300
0001
0100
0010
1000
0100
0010
0001
1000
0010
0100
,
0001
0100
0010
1000
0100
0010
0001
0010
0100
1000
0001
0010
0100
1000
0001
0100
,
0010
0100
0001
1000
0010
0100
0001
0010
0100
1000
0100
1000
0001
0010
0100
1000
,
0001
0010
0100
0010
0001
0100
0010
1000
0100
0010
0001
0100
0010
1000
0001
0010
,
0100
1000
0001
0100
0010
1000
0100
0010
0001
0010
0001
0100
0010
1000
0100
0010
,
0001
0010
0100
1000
0001
0100
0010
1000
0100
0010
0100
1000
0001
0010
0100
1000
,
0001
0100
0010
1000
1001
0000
0001
1000
0001
0000
1000
0100
2000
0000
3200
0000
,
0000
0320
0000
0032
0000
0023
0000
0130
,
1000
0001
0100
0010
1000
0100
0010
0100
1000
0001
0100
0010
1000
0000
1000
0000
,
0000
0000
1000
0000
0010
0100
0001
0100
0010
1000
0100
0010
0001
0010
0100
1000
,
0001
0100
0010
1000
0010
0100
0001
1000
0100
0010
0001
1000
0001
0010
0001
1000
,
0010
0100
0001
0010
0100
1000
0001
0100
0010
1000
0001
0010
0100
1000
0001
0100
,
0010
1000
0100
0010
0100
1000
0001
0100
0010
1000
0100
0010
0001
0010
0100
1000
,
0001
0100
0010
0100
0001
0010
0001
1000
0100
0010
0100
1000
0001
0100
0010
1000
,
0001
0100
0010
1000
0010
0100
0020
0000
0000
0000
0000
0000
0000
0000
0000
0000
0000
0000
2030
0000
0000
0000
0000
0000
,
0000
0020
0000
0000
,
3030
0000
0000
0000
2002
0000
0000
0010
0000
0000
0000
0000
3003
0000
0000
0000
,
0000
0001
0100
0001
0100
0001
0000
1000
0000
0010
0000
0100
0000
0001
0000
0010
,
0000
0100
0000
0000
2200
0000
0000
0001
0000
0000
0000
0000
0001
0000
0000
0000
,
0000
0000
3300
0000
0001
0000
0010
0100
0000
1000
0000
0002
0000
0000
0000
0000
,
0000
0000
0003
0000
1101
0000
0000
0010
0000
0000
0000
0000
1000
0100
0000
0010
,
0000
0001
0100
0010
1000
0010
0000
0010
0000
0100
0000
0001
0000
0010
0000
0100
,
0000
1000
0000
0000
0002
0000
0000
0200
0000
0000
0000
0000
0010
0000
1000
0000
,
0010
0000
1000
0000
0313
0000
0000
0000
0000
0000
0000
0000
1000
0100
0010
0001
,
0010
0000
0000
0100
0000
0000
1000
0000
0000
0001
0000
0000
0100
0000
0000
0010
0000
0000
1000
0000
0000
0100
0000
0000
0010
0000
0001
0000
0010
0000
0100
0000
1000
0000
0001
0000
0100
0000
0000
0010
0000
0000
1000
0000
0000
0001
0000
0000
,
0010
0100
1000
0001
0100
0010
0100
0001
0010
0001
1000
0100
0010
0100
1000
0001
,
0010
0100
1000
0001
0100
0010
1000
0100
0010
0100
1000
0001
0010
0100
1000
0001
,
0100
0010
1000
0100
0010
0001
0010
0100
1000
0000
0000
0000
2200
0000
0000
0000
,
0010
0001
0000
0010
0000
0002
0000
0000
,
0000
0000
0000
3303
,
0001
0010
0100
1000
0001
0100
0010
0100
0001
0010
0001
1000
0100
0010
0001
0010
,
0100
1000
0001
0100
0010
0100
0001
1000
0100
0010
0001
0010
0100
1000
0001
0100
,
0010
1000
0100
0010
0001
0010
0100
1000
0001
0100
0010
0100
0002
0000
0200
0000
,
0000
0010
0000
1000
0000
0010
0000
1000
,
0000
0010
0000
1000
0010
1303
0000
2000
,
0000
0200
0000
0010
0000
0001
0000
0010
,
0000
0010
0000
0001
0001
3310
0000
0020
,
0000
0200
0000
0001
0001
0331
0000
0002
,
0000
2000
0000
0010
0010
3013
0000
1100
,
0000
0000
0101
0000
0000
0000
0110
0000
0000
0000
0010
0000
0100
0010
0100
0001
,
0010
0000
0000
0100
0000
0000
1000
0000
0000
0001
0000
0000
0100
0000
0000
0010
0000
0000
1000
0000
0000
0100
0000
0000
0010
0000
0001
0000
0010
0000
0100
0000
0010
0000
0001
0000
0100
0000
0000
0010
0000
0000
1000
0000
0000
0001
0000
0000
,
0010
0100
1000
0001
0100
0010
0100
0001
0010
0001
1000
0100
0010
0001
0010
0100
,
1000
0001
0100
0010
0100
0001
0010
0001
1000
0100
0010
0001
0010
0100
1000
0001
,
0100
0010
0100
0001
0010
0001
1000
0000
0010
0100
1000
0001
0010
0100
1000
0001
,
0100
0010
1000
0100
0010
0100
1000
0001
0010
0100
1000
0001
0100
0010
0100
0001
,
1000
0100
0010
0100
1000
0001
0010
0100
1000
0001
0100
0010
0100
0001
0010
0001
,
1000
0100
0010
0001
0010
0100
1000
0001
0100
0010
0100
0001
0010
0001
1000
0001
,
0100
0010
0100
0001
0100
0010
1000
0001
0010
0100
1000
0001
0100
0010
1000
0100
,
1000
0100
0010
0001
0100
0000
0100
0000
0010
1000
0010
1000
0001
0010
0100
1000
,
0001
0000
1000
0100
0010
0001
0010
0100
1000
0000
0001
0100
0010
0100
0001
0100
,
0010
0000
1000
0100
1000
0010
1000
0001
0100
0000
0010
1000
0001
0010
0100
1000
,
0001
0000
0100
0010
0100
0001
0100
0010
1000
0000
0100
0010
0100
1000
0001
0100
,
0010
0000
1000
0100
1000
0000
0001
0100
0001
0000
0100
0010
0100
0000
0010
1000
,
0010
0000
1000
0100
0010
0001
0010
0100
1000
0001
0100
0010
0100
0001
0010
0001
,
1000
0100
0010
0100
1000
0001
0010
0100
1000
0001
0100
0010
0100
0001
0100
0010
,
1000
0001
0010
0100
1000
0001
0100
0010
0100
0001
0010
0001
1000
0100
0010
0100
,
1000
0001
0010
0100
1000
0001
0100
0010
0100
0001
1000
0001
2002
0000
0000
0000
,
0000
0000
0000
0000
,
3003
0000
0000
0000
0000
0000
0000
0000
0000
0000
0000
0000
0001
0100
0000
0100
,
0000
0010
1000
0010
0000
0000
0000
0000
0000
0000
0000
0000
4000
0000
0000
0000
,
0000
0000
0000
0000
0000
0000
0000
0000
3000
0000
0000
0000
1011
0000
0000
0100
,
0000
1000
0100
1000
0000
0001
0000
0010
0000
0100
1000
0100
0010
0002
0000
2000
,
0000
0010
0000
0010
0000
0010
0000
0010
0000
0010
3003
0000
2200
0000
0000
0001
,
0000
0010
0001
0010
0000
0001
0000
0001
3300
0000
0000
0000
0001
0000
0100
0010
,
0000
1000
0000
0200
0000
0000
0000
0000
0300
0000
0000
0000
1101
0000
0000
0010
,
0000
1000
0100
0010
0000
0001
0000
0100
0000
0010
1000
0010
0100
0002
0000
0200
,
0000
0010
0000
1000
0000
0010
0000
1000
0000
0010
0000
0000
0313
0000
0000
0000
,
1000
0000
0001
0000
0100
0000
0001
0000
0010
0000
0100
0000
2000
0000
0000
0200
,
3000
0000
0320
0000
0130
1000
0001
0100
0010
1000
0100
0010
0100
1000
0001
0100
,
0010
1000
0100
0010
0100
1000
0001
0000
0000
0200
0000
0000
0000
0000
0000
0320
0000
0000
0000
0000
0000
2030
0000
0000
,
0000
3020
0000
0230
0000
0302
0000
1003
,
0100
0200
0000
0320
0000
0032
0003
0201
,
0000
0320
0000
2030
0000
3020
0000
0100
,
0100
0230
0000
0320
0000
0032
0000
0100
,
0100
0203
0000
0320
0000
2030
0000
0100
,
0100
3100
0000
0010
0000
0001
0000
0100
,
0000
0000
0010
0000
0100
0001
0100
0010
0100
0001
0100
0010
0100
0001
0100
0010
,
0100
0001
0100
0010
0100
0001
0100
0000
0000
0000
0000
0000
0000
0000
0000
1010
0000
0000
0000
0000
0000
1000
0000
0000
,
0000
0100
0000
0010
0000
0001
0000
0100
,
0001
0100
0002
0200
0000
0010
0000
0010
,
0000
1000
0000
1000
0000
0010
0000
0313
,
0000
0000
1001
0000
0000
0101
0000
0010
,
1000
0100
0000
0010
0000
0010
0000
0001
,
0100
0010
1000
0000
0100
0020
0000
0001
,
0000
0400
0000
0000
0000
0000
0000
0000
,
0000
0330
1001
0000
0000
0101
0000
1000
,
0100
0020
0000
0032
0000
0203
0000
0310
,
1000
0100
0040
0030
0000
0002
0000
0203
,
0000
0310
4000
3000
0000
0100
0000
0010
,
0000
0000
0002
0000
0000
0200
0000
0010
,
0010
0010
0000
4000
0000
3313
0000
0100
,
0001
0100
0101
0000
0000
1001
0000
0000
,
0001
0000
0010
0100
0010
0100
1000
0100
,
0010
0001
1001
0000
0000
0000
0000
0000
;
