#TITLE:1st Samurai;
#SUBTITLE:;
#ARTIST:sampling masters MEGA;
#TITLETRANSLIT:;
#SUBTITLETRANSLIT:;
#ARTISTTRANSLIT:;
#CREDIT:;
#BANNER:1stsamuraibn.png;
#BACKGROUND:1stsamuraibg.png;
#LYRICSPATH:;
#CDTITLE:bm_iidx.png;
#MUSIC:1stsamurai.ogg;
#OFFSET:-0.042;
#SAMPLESTART:54.874;
#SAMPLELENGTH:15.000;
#SELECTABLE:YES;
#BPMS:0.000=174.940,268.000=199.940;
#STOPS:;
#BGCHANGES:;
// cache tags:
#FIRSTBEAT:16.000;
#LASTBEAT:313.000;
#SONGFILENAME:Songs/mongol/1stsamurai/1stsamurai.sm;
#HASMUSIC:1;
#HASBANNER:1;
#MUSICLENGTH:111.761;
// end cache tags

//---------------dance-single - Hard----------------
#NOTES:
     dance-single:
     Hard:
     Hard:
     9:
     0.656,0.700,0.376,0.206,0.063,448.000,42.000,23.000,0.000,0.000:
0000
0000
0000
0000
,
0000
0000
0000
0000
,
0000
0000
0000
0000
,
0000
0000
0000
0000
,
1001
0000
0100
0000
0001
0010
0100
0000
,
1000
0010
0001
0000
0010
1000
0100
0000
,
1001
0000
0100
0000
0001
0010
0100
0000
,
1000
0100
0001
0000
0100
1000
0010
0000
,
0100
0001
0100
0000
0001
0100
0001
0000
,
0010
0001
0010
0000
0001
0010
1000
0000
,
0010
0001
0100
0000
0010
1000
0001
0000
,
0100
0001
1000
0000
0100
0010
0001
0000
,
1100
0000
0100
0000
0100
0000
1000
0001
,
0101
0000
0100
0000
0010
1000
0100
0000
,
0001
0000
0001
0000
0001
0000
0001
1000
,
1100
0000
0100
0000
0100
0100
0100
0100
,
0000
0000
1001
0000
0100
0000
0001
1000
,
1020
0100
0100
0100
0100
0100
0100
0130
,
0000
0000
0001
0000
0010
0000
0100
0001
,
1001
0100
0100
0010
0010
0010
1100
0000
,
1001
0001
0010
0100
1000
0010
0100
0001
,
0010
0001
0010
0100
1000
1000
0100
0010
,
0001
0100
0001
0001
0010
0100
1000
0010
,
0100
0001
0001
0010
0100
1000
0001
0100
,
0101
0000
0000
0000
1000
0000
0000
0000
0001
0000
1100
0000
0000
0101
0000
0000
,
0010
0000
1000
0000
0001
0000
0010
0000
0100
0000
1100
0000
0000
0101
0000
0000
,
0010
0001
0010
0000
0100
1000
0100
0000
,
0010
0000
0001
0000
0010
0000
0100
0000
1000
0000
0011
0000
0000
1010
0000
0000
,
0001
0000
0100
0000
0001
0000
0001
0000
0100
0000
0101
0000
0000
1100
0000
0000
,
1000
0000
0100
0000
1000
0000
1000
0000
0100
0000
1100
0000
0000
0101
0000
0000
,
1001
0100
0100
0000
1001
0100
0100
0000
,
1001
0010
0010
0000
1001
0010
0010
0000
,
0100
0001
0200
0000
0010
0000
0310
0000
,
0001
0020
0130
1000
,
0002
0103
0002
0103
,
0002
0203
0302
1003
,
0001
0000
1000
0000
0001
0000
0000
0000
0100
0001
0000
0100
0001
0000
0000
0000
,
0100
0000
1000
0000
0100
0000
0000
0000
0001
1000
0000
0001
1000
0000
0000
0000
,
0100
0000
0001
0000
0100
0000
0000
0000
0010
0100
0000
0010
0100
0000
0000
0000
,
0002
0203
0302
0103
,
0002
0100
1003
0000
2000
0100
3001
0000
,
0002
0010
1003
0000
2000
0010
3001
0000
,
0001
0010
0001
0010
1000
0010
1000
0010
,
0001
1000
0100
1000
0100
0010
0001
0010
,
2100
3100
0002
0103
,
2000
3010
0002
0013
,
1000
0100
0001
0000
1000
0100
0001
0000
,
2000
0010
0010
0010
0010
0010
0010
3010
,
1000
0100
0001
0000
0001
0100
1000
0000
,
1000
0100
0001
0000
0001
0100
1000
0000
,
1000
0010
0001
0000
0001
0010
1000
0000
,
0001
0100
0001
0100
0001
0010
0001
0010
,
0100
0100
1000
1000
0010
0010
0100
0100
,
0001
0001
1000
1000
0010
0010
0001
0001
,
0010
1000
0010
1000
0001
0100
0001
0100
,
0001
0010
0001
0010
0100
1000
0100
0010
,
0001
0001
1001
0000
1000
1000
1001
0000
,
0010
0010
0110
0000
0100
0100
0110
0000
,
0001
0010
1001
0000
1000
0010
1001
0000
,
0001
0100
1001
0000
1000
0100
1001
0000
,
0001
0100
0001
0100
0001
0010
0100
1000
,
0001
0010
0100
1000
0001
0010
0100
1000
,
0001
0001
0100
0100
0010
0010
1000
1000
,
0100
0100
1000
1000
0001
0001
0100
0200
,
0001
0001
0001
0001
0001
0001
0001
0001
,
0001
0001
0001
0001
0001
0001
0001
0001
,
0301
0000
0000
0000
,
0000
0000
0000
0000
,
1001
0001
0100
0000
0010
1000
0100
0000
,
0010
0001
0100
0000
0001
0010
0100
0000
,
1000
1000
0001
0001
0010
0010
0100
0100
,
1000
1000
0010
0010
0001
0001
0010
0010
,
2000
0100
0100
0100
0100
0100
0100
0100
,
0100
0100
0100
0100
0100
0100
0100
3100
,
1100
0000
0000
0000
,
1001
0000
0000
0000
0000
1001
0000
0000
0000
0000
0000
0000
0000
0000
0000
0000
0110
0000
0000
0000
0000
0000
0000
0000
0000
0000
0000
0000
0000
0000
1001
0000
,
0000
0000
1100
0000
,
1001
0000
0000
0000
0000
0000
0000
0200
0000
0000
0000
0000
0000
0000
0000
0000
,
0000
0300
0000
0000
;

//---------------dance-single - Medium----------------
#NOTES:
     dance-single:
     Medium:
     Medium:
     7:
     0.511,0.630,0.349,0.152,0.036,344.000,39.000,17.000,0.000,0.000:
0000
0000
0000
0000
,
0000
0000
0000
0000
,
0000
0000
0000
0000
,
0000
0000
0000
0000
,
1001
0100
0001
0100
,
0010
0010
1000
1000
,
0001
0100
0001
0010
,
0100
0100
0001
0001
,
0100
1000
0001
0010
,
0100
0100
1000
1000
,
0010
0001
0010
1000
,
0100
0100
0001
0001
,
0000
0100
0000
0100
,
0000
0010
0100
0010
,
0000
0100
0000
0100
,
0000
0001
0010
0100
,
1000
0001
1000
0001
,
0100
0100
0001
0001
,
1000
0100
1000
0100
,
0010
0010
1000
1000
,
0010
0001
0010
0000
0100
1000
0100
0000
,
0010
0001
0010
0000
0100
1000
0100
0000
,
0001
0001
1000
1000
,
0001
1000
0010
0100
,
0010
0000
0000
0000
0010
0000
0000
0000
0000
0000
1100
0000
0000
0101
0000
0000
,
0010
0000
0000
0000
0010
0000
0000
0000
0000
0000
0101
0000
0000
1100
0000
0000
,
0010
0010
0100
0100
,
0010
0000
0000
0000
0010
0000
0000
0000
0000
0000
0101
0000
0000
1100
0000
0000
,
0010
0000
0000
0000
0010
0000
0000
0000
1000
0000
1100
0000
0000
0101
0000
0000
,
0010
0000
0000
0000
0010
0000
0000
0000
0001
0000
0101
0000
0000
1100
0000
0000
,
0011
0100
1010
0100
,
0001
0100
0001
0100
0001
0000
0000
0000
,
0100
0020
0100
0130
,
0000
2002
0000
3003
,
0020
0030
0020
0030
,
0020
0230
0020
0330
,
0001
0100
1000
0100
,
0001
0100
1000
0100
,
0001
0010
1000
0010
,
0001
0010
1000
0010
,
0001
1000
0001
0000
1000
0001
1000
0000
,
0001
1000
0001
0000
1000
0001
1000
0000
,
1000
0100
1000
0100
1000
0100
1000
0100
,
0010
0001
0010
0001
0010
0001
0010
0001
,
1001
0100
0001
0100
,
1000
0010
0001
0010
,
1000
0100
1000
0100
,
0001
0100
0001
0100
0001
0100
0001
0000
,
1100
0001
0100
0001
,
0101
0010
0100
1000
,
1100
0010
0001
0100
,
1001
0000
0100
0100
,
0001
0010
0001
0010
0100
1000
0100
1000
,
0010
1000
0010
1000
0001
0100
0001
0100
,
0001
1000
0001
1000
0010
0100
0010
0100
,
0001
1000
0001
1000
0001
0100
0101
0000
,
1200
0310
0201
0310
,
1200
0310
0201
0310
,
1200
0310
0201
0310
,
1200
0310
0201
0310
,
0001
0100
0001
0100
0010
1000
0010
1000
,
0001
0010
0100
1000
0001
0010
0100
1000
,
0001
0100
0001
0100
0001
0100
0001
0100
,
0010
1000
0010
1000
0010
1000
0010
1000
,
0000
0001
0100
0001
0100
0001
0100
0001
,
0100
0001
0100
0001
0100
0001
0100
0001
,
0100
0000
0000
0000
,
0000
0000
0000
0000
,
1001
0100
1001
0100
,
1001
0100
1001
0100
,
1000
0100
0010
0001
1000
0100
0010
0001
,
1000
0010
0100
0001
1000
0010
0100
0001
,
1000
0100
1000
0100
1000
0100
1000
0100
,
0010
0001
0010
0001
0010
0001
0010
0001
,
1001
0000
0000
0000
,
1001
0000
0000
0000
0000
1001
0000
0000
0000
0000
0000
0000
0000
0000
0000
0000
0110
0000
0000
0000
0000
0000
0000
0000
0000
0000
0000
0000
0000
0000
1001
0000
,
0000
0000
1100
0000
,
1001
0000
0000
0000
0000
0000
0000
0200
0000
0000
0000
0000
0000
0000
0000
0000
,
0000
0300
0000
0000
;

//---------------dance-single - Easy----------------
#NOTES:
     dance-single:
     Easy:
     Easy:
     4:
     0.354,0.490,0.251,0.063,0.013,242.000,28.000,7.000,0.000,0.000:
0000
0000
0000
0000
,
0000
0000
0000
0000
,
0000
0000
0000
0000
,
0000
0000
0000
0000
,
1001
0100
0000
0100
,
0000
0010
0100
0010
,
0000
1000
0000
0001
,
0000
0100
0001
0100
,
0001
0001
1000
1000
,
0010
0100
0010
0100
,
0000
0010
0000
0010
,
1000
1000
0001
0001
,
0000
0100
0000
0100
,
0000
0010
0000
0010
,
0000
0100
0000
0100
,
0000
0010
0100
0010
,
0000
1000
0000
0001
,
0000
1000
0001
0100
,
0001
0001
0010
0010
,
0100
1000
1001
0000
,
1001
0100
0001
0100
,
0010
1000
0010
1000
,
0100
0010
0100
0010
,
0001
0010
0001
0010
,
0100
0100
0010
1001
,
0100
0100
0010
1001
,
0100
0010
0100
0010
,
0100
0100
0010
1001
,
0100
0100
0010
1001
,
0100
0100
0010
1001
,
0100
0000
0100
0000
,
0010
0100
0010
1001
,
0000
0100
0000
0100
,
0000
0020
0030
0100
,
0002
0003
0002
0003
,
0020
0230
2300
3000
,
0000
0001
0000
0100
,
0000
0001
0010
0100
,
0000
1000
0000
0010
,
0000
0001
0010
1000
,
0001
0100
0001
0100
,
1000
0100
1000
0100
,
0001
0010
1000
0010
,
0001
0010
1000
0010
,
0001
0001
1000
1000
,
0010
0010
0100
0100
,
0001
0100
0001
0100
,
0010
0010
0010
0010
,
1001
0100
1000
0001
,
0101
0010
1000
0001
,
1100
0001
1000
0010
,
1001
0000
0100
0100
,
0010
0011
0100
1100
,
0010
0011
0100
1100
,
1001
0100
0010
0100
,
0001
0010
0001
0010
,
0100
0100
0010
0010
,
0100
0100
0010
0010
,
0001
0001
1000
1000
,
0001
0001
1000
1000
,
0000
0100
0000
0100
,
0000
0010
0000
0010
,
0000
1000
0001
1000
,
0001
0100
0001
0010
,
0100
0100
0100
0100
,
0100
0100
0100
0100
,
0100
0000
0000
0000
,
0000
0000
0000
0000
,
1001
0100
0100
0100
,
1001
0010
0010
0010
,
1001
0100
0001
0100
,
0010
1000
0010
1000
,
0001
0001
0001
0001
,
0001
0001
0001
0001
,
1001
0000
0000
0000
,
1001
0000
0000
0000
0000
1001
0000
0000
0000
0000
0000
0000
0000
0000
0000
0000
0110
0000
0000
0000
0000
0000
0000
0000
0000
0000
0000
0000
0000
0000
1001
0000
,
0000
0000
1100
0000
,
1001
0000
0000
0000
0000
0000
0000
0200
0000
0000
0000
0000
0000
0000
0000
0000
,
0000
0300
0000
0000
;
