#TITLE:Heartbreak Armageddon;
#SUBTITLE:;
#ARTIST:Dragonforce;
#TITLETRANSLIT:;
#SUBTITLETRANSLIT:;
#ARTISTTRANSLIT:;
#CREDIT:B. Abear;
#BANNER:Bn-Heartbreak.png;
#BACKGROUND:Bg-Heartbreak.png;
#LYRICSPATH:;
#CDTITLE:;
#MUSIC:Heartbreak Armageddon.ogg;
#OFFSET:-0.090;
#SAMPLESTART:66.020;
#SAMPLELENGTH:19.400;
#SELECTABLE:YES;
#DISPLAYBPM:75.000:195.000;
#BPMS:0.000=195.000,4.000=97.500,6.000=195.000,742.000=97.500,754.000=75.000,850.000=195.250,864.000=195.000;
#STOPS:;
#BGCHANGES:;
// cache tags:
#FIRSTBEAT:4.000;
#LASTBEAT:1321.000;
#SONGFILENAME:Songs/Dragonforce/Heartbreak Armageddon/Heartbreak Armageddon.sm;
#HASMUSIC:1;
#HASBANNER:1;
#MUSICLENGTH:462.602;
// end cache tags

//---------------dance-single - B. Abear----------------
#NOTES:
     dance-single:
     B. Abear:
     Challenge:
     14:
     1.000,1.000,0.316,0.741,1.000,3338.000,146.000,343.000,142.000,0.000:

0000
0000
0000
0000
,
2MM2
0000
0000
0000
0000
0000
0000
0000
0000
3003
0000
0000
0100
1000
0000
0100
0000
0000
0010
0000
0000
0001
0000
0000
,
0011
0000
0000
0010
0000
0000
0001
0000
0000
0100
0000
0000
0010
1000
0000
0010
0000
0000
1000
0000
0000
0001
0000
0000
,
1001
0000
0000
1000
0000
0000
0100
0000
0000
0010
0000
0000
0001
1000
0000
0001
0000
0000
0010
0000
0000
0100
0000
0000
,
1100
0000
0000
1000
0000
0000
0001
0000
0000
0100
0000
0000
0010
0100
0000
0001
0000
0000
1000
0000
0000
0100
0000
0000
,
0110
0000
0000
0010
0000
0000
0001
0000
0000
1000
0000
0000
0001
0010
0000
0100
0000
0000
1000
0000
0000
0001
0000
0000
,
0101
0000
0000
0100
0000
0000
0010
0000
0000
0100
0000
0000
0001
0010
0000
0100
0000
0000
1000
0000
0000
0100
0000
0000
,
1100
0000
0000
1000
0000
0000
0001
0000
0000
0100
0000
0000
0010
1000
0000
0001
0000
0000
0010
0000
0000
0100
1000
0000
,
0001
0000
0000
0100
0000
0000
0010
0100
0000
0001
0000
0000
1000
0000
0000
0100
0010
0000
0001
0000
0000
1000
0000
0000
,
0001
0100
0000
0010
0000
0000
0100
0001
0000
1000
0000
0000
0100
0010
0000
0001
0000
0000
0010
0000
0000
0100
0000
0000
,
1100
0000
0000
1000
0000
0000
0001
0000
0000
0100
0000
0000
0010
0100
0000
0001
0000
0000
1000
0000
0000
0100
0000
0000
,
0110
0000
0000
0010
0000
0000
0001
0000
0000
1000
0000
0000
0001
0100
0000
0010
0000
0000
0100
0000
0000
0001
0000
0000
,
1001
0000
0000
1000
0000
0000
0100
0000
0000
1000
0000
0000
0001
0100
0000
0010
0000
0000
0100
0000
0000
0001
0000
0000
,
0011
0000
0000
0010
0000
0000
0100
0000
0000
1000
0000
0000
0100
1000
0000
0001
0000
0000
1000
0000
0000
0010
0000
0000
,
0110
0000
0000
0100
0000
0000
0001
0000
0000
1000
0000
0000
0001
0010
0000
0100
0000
0000
1000
0000
0000
0001
0000
0000
,
0101
0100
0010
0100
00M1
00M1
1000
0100
,
00MM
0010
0M01
0M01
10M0
10M0
010M
010M
,
0010
0000
0000
0001
0000
0000
1000
0000
0000
0001
0000
0000
1000
0100
0000
0010
0000
0000
0001
0000
0000
0001
0000
0000
,
1001
0000
0000
1000
0000
0000
1010
0000
0000
0010
0000
0000
0100
0001
0000
1000
0000
0000
0100
0000
0000
0100
0000
0000
,
0110
0010
0002
2003
3002
0203
2300
3200
,
0302
2003
3200
2300
3200
0302
0203
2300
,
3002
0203
0320
2030
3200
0000
0000
0000
,
M01M
0000
0000
0000
,
0000
0000
0000
0000
0000
0000
0000
0000
1300
0001
0100
0010
0100
0010
1000
0001
,
1000
0001
1000
0001
0010
0100
0010
0100
1000
0100
1000
0100
0010
0001
0010
0001
,
1000
0010
1000
0010
0100
0001
0100
0001
1000
0000
0100
0000
1000
0001
1000
0000
,
0001
0000
0100
0000
0010
1000
0010
0000
0100
0000
0001
0000
1000
0100
1000
0000
,
0001
0100
0001
0000
1000
0001
1000
0000
0100
0000
0010
0001
0010
0001
0010
0001
,
0010
0001
0010
0001
0010
0001
0010
0001
0020
0000
0230
0000
2300
0000
3200
0000
,
4300
0000
3020
0000
0230
0000
0302
0000
1003
0000
0100
0000
1000
0010
1000
0000
,
0001
0000
0100
0000
0010
0100
0010
0000
0100
0000
0001
0000
1000
0100
1000
0000
,
0001
0100
0001
0000
0100
0010
0100
0000
0010
0000
1000
0001
1000
0001
1000
0001
,
1000
0001
1000
0001
1000
0001
1000
0000
1001
0000
0001
0100
0010
0000
0110
0000
,
0100
0001
1000
0000
1100
0000
0100
0000
0010
0001
1000
0001
0100
0010
0100
0001
,
1000
0100
1000
0001
0010
0001
1000
0010
0100
0001
1000
0010
0100
0001
1000
0100
,
1000
0001
0010
0100
1000
0001
1000
0100
0010
0001
0100
0001
0100
0010
1000
0001
,
1000
0001
0010
0100
1000
0100
0010
0001
2000
0000
3020
0000
0230
0000
0302
0000
,
4003
0000
0000
0000
0000
0000
3001
0100
0010
1000
0010
0100
,
0001
0100
0010
1000
0010
0100
0001
1000
0100
0010
0100
1000
,
0001
0100
0010
1000
0001
0000
1000
0000
0220
0000
0000
0000
0000
0000
0000
0000
,
0000
0330
1M0M
0220
0000
0000
0000
0000
,
0000
0330
M0M1
0220
0000
0000
0000
0300
,
0130
0001
1000
0100
1000
0000
MM00
0000
2200
0000
0000
0000
0000
0000
3300
0000
,
0220
0000
0000
0330
0021
0000
0031
0001
,
0100
0000
0100
0000
0010
0000
0010
0000
1000
0010
0100
0001
1000
0010
0100
0001
,
1000
0000
0000
0000
0000
0000
0000
0000
0000
0000
0000
0000
0010
0000
0000
0000
0000
0000
0000
0000
0000
0000
0000
0000
0100
0000
0000
0000
0000
0000
0000
0000
0000
0000
0000
0000
0001
0000
0000
0000
0000
0000
0000
0000
0000
0000
0000
0000
1000
0000
0000
0000
0000
0000
0000
0000
0000
0000
0000
0000
0010
0000
0000
0000
0000
0000
0000
0000
0000
0000
0000
0000
0100
0000
0000
0000
0000
0000
0000
0000
0000
0000
0000
0000
0000
0000
0000
0000
0000
0000
0000
0000
0000
0000
0000
0000
0101
0000
0000
0000
0000
0000
0000
0000
0000
0000
0000
0000
M000
0000
0000
0000
0000
0000
0000
0000
0000
0000
0000
0000
0000
0000
0000
0000
0000
0000
00M0
0000
0000
0000
0000
0000
0000
0000
0000
0000
0000
0000
0000
0000
0000
0000
0000
0000
000M
0000
0000
0000
0000
0000
0000
0000
0000
0000
0000
0000
0000
0000
0000
0000
0000
0000
0M00
0000
0000
0000
0000
0000
0000
0000
0000
0000
0000
0000
0000
0000
M000
0000
0000
0000
0000
0000
0000
0000
0000
0000
0000
0000
0000
0000
0000
0000
,
0000
00M0
0M00
0000
000M
0000
M000
0000
0M00
0000
00M0
M000
,
000M
0M00
0000
00M0
0M00
0000
1001
00M0
0000
000M
M000
0M0M
,
0000
0000
0000
0000
000M
0000
0000
0000
00M0
M000
0000
0000
0000
0000
0000
0000
0M00
0000
0000
0000
000M
0000
0000
0000
1000
0000
0000
0010
0000
0000
0100
0000
0000
0010
0000
0000
1000
0000
0000
0100
0000
0000
0010
0000
0000
0100
0000
0000
,
1000
0000
0000
0010
0000
0000
0100
0000
0000
0010
0000
0000
1000
0000
0000
0100
0000
0000
0010
0000
0000
0000
0000
0000
0110
0000
0000
0000
000M
0000
0000
0000
M000
0000
0000
0000
00M0
0000
0000
0000
0000
0000
0000
0000
0000
0000
0000
0000
,
M000
0M00
000M
0000
0000
00M0
0M00
0000
0000
M00M
0000
0M00
,
0000
0000
0000
0000
00M0
0000
0000
0000
0M00
M000
0000
0000
0000
0000
0000
0000
0000
0000
0000
0000
0000
0000
0000
0000
0011
0000
0000
0000
M000
0000
0000
0000
0000
0000
0000
0000
0000
0000
0000
0000
00M0
0000
0000
0000
000M
0000
0000
0000
,
0M00
0000
0000
0000
0000
0000
0000
0000
M000
0000
0000
0000
0000
0000
0000
0000
0M00
0000
0000
0000
00M0
0000
0000
0000
0001
0000
0000
0000
0000
0000
1000
0000
0000
0010
0000
0000
1000
0000
0000
0010
0000
0000
0100
0000
0000
0001
0000
0000
,
1000
0010
1000
0010
0100
0001
0100
0001
1000
0010
0100
0001
1000
0001
0010
0100
,
1000
0100
0010
0100
1000
0001
0100
0010
1000
0100
0020
0000
0030
0000
0002
0000
,
0203
0000
0300
0000
0002
0000
0203
0000
0310
1000
0001
1000
0100
0010
0001
1000
,
0001
0100
0010
1000
0001
1000
0100
1000
0001
0010
0200
0000
0300
0000
2000
0000
,
3002
0000
0203
0000
0340
0000
0000
0000
1030
0001
0100
0001
0100
0010
1000
0001
,
1000
0100
0010
0001
0010
0100
1000
0001
0100
0000
0002
0000
0003
0000
2000
0000
,
3002
0000
0003
0000
0200
0000
0320
0000
0130
0000
0001
0000
1000
0100
1000
0000
,
0001
0000
0010
0000
0100
1000
0100
0000
0010
0001
1000
0100
1000
0100
0010
0001
,
1000
0100
1000
0100
1000
0001
1000
0001
0100
0010
0100
0001
1000
0001
1000
0100
,
0010
0001
0010
0100
1000
0001
0100
0010
1000
0000
0001
0100
0001
0100
0001
0000
,
1000
0100
1000
0000
0010
0100
0010
0100
0001
1000
0100
1000
0001
0010
0100
1000
,
0001
0100
0010
1000
0010
0100
0001
1000
0200
0000
0310
0001
0010
0001
0010
0000
,
0100
1000
0100
0000
0010
0001
0010
0001
1000
0010
0100
0010
0100
0001
1000
0001
,
0010
0100
1000
0001
1000
0001
0100
0010
1000
0000
0000
0000
0001
0000
0100
0000
,
0010
1000
0010
1000
0010
1000
0010
1000
0001
0010
0001
0010
0100
1000
0001
0100
,
0010
1000
0010
1000
0001
0100
0001
0100
0010
0000
1010
0000
0000
0000
1000
0000
,
1100
0000
0110
0000
0011
0001
1001
1000
,
1010
0000
0010
0000
0110
0000
0100
0001
1000
0000
0100
0000
1100
0000
1000
0000
,
1001
0000
0000
0001
0000
0000
0101
0000
0000
0100
0001
0100
0001
0000
0000
1000
0000
0000
1100
0000
0000
0100
0000
0000
,
0110
0000
0010
0000
0011
0000
0001
1000
0010
0000
0100
0000
0101
0000
0001
0000
,
0011
0010
0110
0100
1100
1000
1001
0001
,
0101
0000
0100
0000
0010
1000
0100
1000
0001
0000
0100
0000
0101
0000
0001
0000
,
0011
0000
0010
0000
0110
0000
M00M
0000
0100
1000
0100
1000
0100
1000
0001
0100
,
0001
0100
0001
0100
0010
1000
0010
1000
0001
0100
0001
0100
0010
1000
0100
0010
,
0100
1000
0100
1000
0001
1000
0001
1000
0010
0000
0100
0000
0001
0100
0001
0000
,
1000
0000
0100
0000
0010
0001
0010
0000
0100
0000
1000
0000
0001
0100
0001
0000
,
1000
0000
0100
0000
1000
0010
1000
0000
0010
0000
0100
0000
0001
0100
0001
0000
,
1000
0000
0001
0000
0100
0010
0100
0000
0002
0000
0000
0000
2003
0000
0000
0000
,
3001
0000
0010
0000
0100
1000
0100
0000
1000
0000
0001
0000
0100
0001
0100
0000
,
0010
0000
0100
0000
0001
1000
0001
0000
1000
0000
0100
0000
0010
0100
0010
0000
,
0001
0000
0100
0000
0010
1000
0010
0000
0100
0000
0001
1000
0001
1000
0100
0010
,
0001
0000
1000
0010
1000
0010
0100
0001
1000
0000
0001
0100
0001
0000
1000
0100
,
1000
0000
0001
0100
0001
1000
0100
1000
0002
0000
0103
0000
0100
0000
0020
0000
,
0130
0100
0002
2003
3200
0310
0010
0002
,
0013
0010
0002
2003
3020
0130
0100
0002
,
0103
0100
0020
2030
3001
0001
0001
0001
,
0010
0000
0010
0000
0010
0000
0010
0100
2000
0000
3100
0000
2000
0000
3100
0000
,
2000
0000
3100
0000
2000
0000
3100
0010
0002
0000
0103
0000
0002
0000
0103
0000
,
0002
0000
0103
0000
0002
0000
1003
0100
1100
0000
00MM
0000
0110
0000
0010
0000
,
0011
0000
0001
0000
1001
0000
1000
0000
0001
1000
0100
1000
0100
1000
0100
0000
,
1000
0001
1000
0001
1000
0001
1000
0001
1000
0000
0010
0000
0100
0001
0100
0000
,
0001
0000
1000
0000
0100
1000
0100
0000
0010
0000
0001
0000
1000
0001
1000
0000
,
0001
0000
0100
0000
0010
0100
0010
0000
0100
0000
0001
0000
1000
0100
1000
0000
,
0001
0000
0010
0000
0100
1000
0100
0000
0020
0000
0000
0000
0000
0000
0000
0000
,
0032
0000
0000
0000
0000
0000
0003
0000
101M
0000
0010
0000
0100
0001
0100
0000
,
0001
0000
1000
0000
0001
1000
0001
0000
0101
0000
0100
0000
0010
1000
0010
0000
,
0100
0000
0001
0000
1000
0100
1000
0000
1100
0000
0100
0010
0001
0010
0001
0010
,
0100
1000
0100
1000
0100
1000
0100
1000
0001
0100
0001
0100
0001
0100
0010
1000
,
0010
1000
0010
1000
0001
0000
1000
0100
0010
0001
1000
0001
0100
0010
0100
0001
,
1000
0100
1000
0001
0010
0100
1000
0100
2000
0000
3001
0100
0010
1000
0001
0100
,
0002
0000
2003
0000
3100
0010
0001
1000
0002
0000
1003
0000
0020
0000
0130
0000
,
0002
0000
0203
0000
0320
0000
2030
3000
1001
0000
0001
0000
0200
0000
0302
0003
,
0011
0000
0010
0000
0100
1000
0100
1000
0001
0000
0100
0000
0010
1000
0010
0000
,
0100
0000
0001
0000
0100
0001
0100
0000
0001
0000
1000
0000
0001
1000
0001
0000
,
1000
0000
0100
0000
0010
0001
0010
0000
0100
1000
0001
0010
0001
0010
0100
1000
,
0001
0010
0001
0010
0001
1000
0001
1000
0010
0100
0001
1000
0010
0100
0001
1000
,
0010
0100
0001
1000
0010
0100
0001
1000
0200
0000
0310
0001
1000
0001
0200
0000
,
0310
1000
0001
0000
1000
0100
0010
0001
2000
0000
3010
0100
0001
0100
0002
0000
,
1003
0100
1000
0000
0010
1000
0010
0100
0004
0000
0000
0000
4003
0000
0000
0000
,
3002
2003
3200
0320
0430
0302
0403
2300
,
3040
0000
0000
0000
0000
0000
0000
0000
1030
0001
0100
0001
0100
0001
1000
0001
,
0100
0001
0100
0001
1000
0001
0100
0001
1000
0100
0010
0100
0010
0100
1000
0100
,
0010
0100
0010
0100
1000
0100
0010
0100
2000
0000
3020
0000
0230
0000
0302
0000
,
2003
3200
0320
0032
2003
3020
MM3M
0200
,
0304
0000
0000
0000
0000
0000
0000
0000
1003
0010
0100
0001
1000
0100
0010
0100
,
1000
0010
0100
0001
1000
0100
0010
0100
1000
0010
0100
0001
1000
0100
0010
0100
,
1000
0010
0100
0001
0040
0000
0000
0000
0230
0000
2300
0000
3002
0000
0203
0000
,
0320
0000
0000
0032
0000
0000
0023
0000
0000
2030
0000
0000
3020
0000
0000
0030
0200
0000
0000
0000
0302
0000
0000
0000
,
2003
0000
0000
0000
0000
0000
0000
0000
0000
0000
0000
0000
3004
0400
0000
0000
0000
0000
0000
0000
0000
0000
0000
0000
,
0000
0000
0040
0000
,
0000
0000
0000
0333
2000
0000
0000
3020
,
0230
0302
2003
0000
3100
0200
0000
0320
,
0031
0000
0002
0000
2003
0000
3000
0000
1000
0000
1000
0000
0000
0000
0100
0010
,
0001
0000
1000
0000
0000
0000
0010
0100
0001
0000
0001
0000
2000
0000
3001
0000
,
0200
0000
0301
0000
0020
0000
0130
0000
1000
0000
1000
0000
0000
0000
0001
0100
,
0010
0000
0100
0000
0000
0000
0001
1000
0100
0010
0100
0010
0001
1000
0001
1000
,
0010
0100
0010
0100
0001
1000
0001
1000
0100
0010
0001
1000
0001
0100
0010
1000
,
0010
1000
0001
0010
0001
1000
0100
1000
0001
0010
0200
0000
0300
0000
2000
0000
,
3020
0000
0030
0000
0200
0000
0302
0000
1003
0010
1000
0001
0010
0100
1000
0100
,
0010
0001
0100
0010
1000
0001
1000
0100
1000
0001
0200
0000
0300
0000
0020
0000
,
2030
0000
3200
0000
0340
0000
0000
0000
0031
1000
0001
1000
0010
0100
0010
1000
,
0001
0010
0100
1000
0010
1000
0010
0100
0001
0100
0020
0000
0030
0000
2000
0000
,
3200
0000
0300
0000
0020
0000
0032
0000
1003
0010
0100
0001
0100
0001
1000
0010
,
0100
0001
0100
0001
1000
0100
0010
0001
1000
0010
1000
0010
0100
0001
0100
0001
,
1000
0100
1000
0100
0010
0001
0010
0001
1000
0010
0100
0001
1000
0100
0010
0100
,
1000
0001
0100
0001
1000
0100
1000
0001
0010
0001
0100
0010
0100
0001
1000
0100
,
1000
0001
0010
0100
1000
0001
0100
0010
1000
0001
0010
0100
1000
0100
1000
0010
,
0100
0001
0100
0001
1000
0100
1000
0001
0010
0100
1000
0001
0100
0001
1000
0100
,
1000
0001
0010
0100
1000
0010
0100
0001
0100
0001
1000
0100
1000
0001
1000
0001
,
0100
0010
0100
0001
0010
0001
1000
0001
0100
0010
0100
0001
0010
0100
1000
0100
,
1000
0010
0100
0010
1000
0001
1000
0100
0010
0000
0001
1000
0001
1000
0001
1000
,
0010
0000
1000
0001
1000
0001
1000
0001
0100
0010
1000
0001
1000
0001
0100
0010
,
1000
0001
1000
0001
0100
0010
0100
0010
1000
0000
0001
0000
1000
0000
0001
0000
,
1000
0000
0001
0000
1000
0000
0001
0100
0010
0000
0100
0000
0010
0000
0100
0000
,
0010
0000
0100
0000
0010
0000
1000
0100
0010
0000
0001
0000
0010
0000
0001
0000
,
0010
0000
0001
0000
0010
0000
0001
1000
0100
0000
1000
0000
0100
0000
1000
0000
,
0100
0000
1000
0000
0100
0000
0010
0001
1000
0000
0001
0000
1000
0000
0001
0000
,
1000
0000
0001
0000
1000
0000
0001
1000
0001
0000
1000
0000
0001
0000
1000
0000
,
0001
0000
1000
0000
0001
0000
1000
0000
0001
0100
0001
0100
0001
0100
0010
1000
,
0010
1000
0010
1000
0001
1000
0001
1000
0100
0010
0100
0010
0001
0010
0001
0010
,
0001
1000
0001
1000
0010
1000
0010
1000
0001
0000
1000
0000
0010
1000
0010
0000
,
0100
0000
0001
0000
1000
0100
1000
0000
0001
0000
0010
0000
0100
0010
0100
0000
,
1000
0000
0001
0000
0100
0010
0100
0000
0010
0000
1000
0000
0001
0100
0001
0000
,
1000
0000
0100
0000
1000
0001
1000
0000
0002
0000
0000
0000
0000
0000
0000
0000
,
2003
0000
0000
0000
0000
0000
0000
0000
3001
0000
1000
0000
0010
0100
0010
0000
,
0100
0000
0001
0000
1000
0100
1000
0000
0001
0000
0010
0000
0100
1000
0100
0000
,
1000
0000
0010
0000
1000
0001
1000
0000
0001
0100
0010
1000
0010
1000
0001
0100
,
0010
1000
0010
1000
0001
1000
0001
1000
0001
0010
0100
1000
0001
0010
0001
0010
,
0100
1000
0100
1000
0001
0100
0001
0100
0020
0000
1030
0000
1000
0000
0002
0000
,
1003
1000
0200
0320
0032
0013
0010
0200
,
0310
0000
0010
0000
0002
0000
1003
0100
0020
0000
0031
0000
0001
0000
2000
0000
,
3001
0000
0001
0000
0200
0000
0310
1000
0002
0000
0000
0000
0000
0000
0000
0000
,
2003
0000
0000
3000
1001
1000
1100
0100
,
0110
0000
0010
0000
0011
0000
0001
1000
0001
0000
1000
0000
1010
0000
0010
0000
,
0110
0000
0100
0000
0101
0000
0001
0000
1000
0100
1000
0001
0100
0001
1000
0010
,
0100
0001
0100
0001
1000
0010
0100
0001
1000
0100
1000
0100
0010
0001
0010
0001
,
1000
0001
1000
0001
0100
0010
0100
0010
1000
0000
0001
0000
1000
0100
1000
0000
,
0001
0000
0010
0000
0100
1000
0100
0000
1000
0000
0010
0000
0100
0010
0100
0000
,
0001
0000
1000
0000
0001
1000
0001
0000
1000
0000
0100
0000
0010
0001
0010
0000
,
0100
0000
1000
0000
0001
0100
0001
0000
2000
0000
0000
0000
0000
0000
0000
0000
,
3002
0000
0000
0000
0000
0000
0003
0000
1001
0000
0001
0000
0100
0001
0100
0000
,
0010
0000
1000
0000
0001
1000
0001
0000
1100
0000
1000
0000
0100
0010
0100
0000
,
0010
0000
0001
0000
1000
0001
1000
0000
0001
0100
0001
0100
0001
0100
0010
0100
,
0010
0100
0010
0100
0010
1000
0010
1000
0100
1000
0100
1000
0100
1000
0001
1000
,
0001
1000
0001
1000
0010
0100
0010
0100
0001
0000
1000
0000
0100
1000
0100
0000
,
0010
0000
0001
0000
1000
0001
1000
0000
0010
0000
0100
0000
0001
0100
0001
0000
,
1000
0000
0100
0000
1000
0100
1000
0000
0001
0000
0001
0000
0200
0000
0310
0000
,
2000
0000
3200
0000
0320
0000
0032
0003
1001
0000
1000
0000
0200
0000
0320
0030
,
0011
0000
0001
0000
1000
0001
1000
0001
1000
0000
0010
0000
0100
0001
0100
0000
,
0001
0000
1000
0000
0001
1000
0001
0000
1000
0000
0100
0000
0010
0001
0010
0000
,
0100
0000
1000
0000
0001
0100
0001
0000
1000
0010
1000
0010
0100
0001
0100
0001
,
1000
0100
1000
0100
0010
0001
0010
0001
1000
0010
0100
0001
1000
0100
1000
0100
,
0010
0001
1000
0001
0100
0010
0100
0010
200M
0000
0000
0000
00M0
0000
0000
0000
,
00M0
0M00
00M0
000M
,
0M00
000M
00M0
0M00
,
0M00
00M0
3002
0000
,
0000
0000
0000
0000
0000
0000
1003
0100
0020
0000
0031
0200
0000
0000
0000
0000
,
0000
0000
0000
0000
0000
0000
0000
0000
0320
0000
0000
1030
0000
0000
0001
2000
,
0000
0000
0000
0000
0000
0000
3100
0010
0010
0001
0020
0000
0000
0000
0000
0000
,
0000
0000
0000
0000
0000
0000
0030
0000
02M0
0000
0000
1300
0000
0000
0020
0000
,
0000
0000
0000
0000
0000
0000
0000
0000
0000
0000
0000
0000
0130
0000
0001
0000
1000
0100
0010
0001
1000
0001
0100
0010
0100
0001
1000
0100
1000
0001
0010
0100
,
1000
0001
0100
0001
1000
0100
1000
0001
0010
0100
1000
0001
0100
0001
0100
0010
2000
0000
0000
0000
0000
0000
3100
0000
0000
0000
0000
0000
0010
0000
0002
0000
,
0000
0000
0000
0000
0000
0000
1003
0001
0100
0010
0200
0000
0000
0000
0000
0000
,
0000
0000
0000
0000
0000
0000
0300
0000
0101
0000
0001
2000
0000
3100
0010
0100
,
2000
0000
0000
0000
3000
0000
0010
0000
0100
0000
0010
0000
0100
0000
0001
0000
1000
0100
2000
0000
0000
0000
3000
0000
0000
0000
0100
0000
0000
0010
0000
0000
,
0002
0000
0000
0000
0003
0000
0000
0000
1000
0000
0000
0010
0000
0000
0100
0000
0001
0000
1000
0000
0001
0000
0020
0000
0000
0000
0030
0000
0000
0000
0000
0000
,
0100
0000
1000
0000
0100
0000
0200
0000
0000
0000
0310
0000
0000
0001
0000
0000
1000
0010
0200
0000
0000
0000
0000
0000
0300
0000
0001
1000
0100
1000
0001
0100
,
0010
0000
0000
0100
0000
0000
0001
0000
1000
0000
0000
0001
0000
0000
0010
0000
0002
0000
0000
0000
0000
0000
0000
0000
1003
0000
0010
0000
0100
0000
0010
0000
,
1000
0100
0000
2000
0000
0000
0000
3000
0MM0
1000
0010
1000
0010
0100
0010
0001
,
0010
0000
0100
0000
0010
0000
1000
0000
0010
0100
0002
0000
0000
0000
2003
0000
0000
0000
3100
0000
0010
0000
0001
0000
0002
0000
0000
0000
0000
0000
0000
0000
,
1003
0010
0000
0100
0000
0001
0000
1000
0100
0010
0001
0020
0000
0000
0000
0030
,
0100
0000
0000
1000
0001
0100
0001
0000
0000
1000
0000
0000
0100
0000
0000
0010
0000
0000
0001
0000
0000
0000
0000
0000
1001
0000
0000
1000
0000
0000
0010
0000
0000
0200
0000
0000
0000
0000
0000
0301
0000
0000
1000
0000
0000
0100
0000
0000
,
0020
0000
0000
0000
0031
1000
0002
0000
2000
0003
0000
0000
3000
0000
0001
0000
0200
0000
0000
0000
0000
0000
0000
0000
0310
1000
0001
0000
0010
0001
1000
0000
,
0010
0100
0001
0100
0002
0000
0000
0000
2003
0000
0000
0000
0000
0000
3000
0000
0000
0000
0100
0000
0010
0000
0100
0000
0100
0000
0010
0000
0100
0000
1000
0000
,
0001
0400
0000
0000
0000
0000
0310
1000
0002
0000
0000
0000
1000
0000
1003
0000
,
0001
0000
0000
0100
0000
0000
0100
0000
0000
0001
0000
0000
1000
0000
0000
1000
0000
0000
0100
0000
0000
0010
0000
0000
0012
0000
0000
0000
0000
0000
0000
0000
0000
0000
0000
0000
1003
0000
0010
0000
0100
0000
0001
0000
1000
0000
0100
0000
,
1000
0000
0000
0000
0000
0000
0000
0000
0010
0000
0000
0000
0000
0000
0000
0000
0100
0000
0000
0000
0000
0000
0000
0000
0001
0000
0000
0000
0000
0000
1000
0000
0000
0000
0000
0000
0001
0000
0000
0000
0000
0000
0100
0000
0000
0000
0000
0000
0001
0000
0000
0000
0000
0000
1000
0000
0000
0000
0000
0000
0001
0000
0000
0000
0000
0000
0100
0000
0000
0000
0000
0000
0001
0000
0000
0000
0000
0000
1000
0000
0000
0000
0000
0000
0100
0000
0000
0000
0000
0000
0010
0000
0000
0000
0000
0000
0002
0000
0000
0000
0000
0000
0000
0000
0000
0000
0000
0000
0000
0000
0000
0000
0000
0000
0000
0000
0000
0000
0000
0000
0000
0000
0000
0000
0000
0000
0000
0000
0000
0000
0000
0000
0000
0000
0000
0000
0000
0000
0000
0000
0000
0000
0000
0000
2003
0000
0000
0000
0000
0000
0000
0000
0000
0000
0000
0000
0000
0000
0000
0000
0000
0000
0000
0000
0000
0000
0000
0000
0000
0000
0000
0000
0000
0000
0000
0000
0000
0000
0000
0000
3100
0000
0000
0000
0000
0000
0010
0000
0000
0000
0000
0000
,
0001
0010
0001
0010
0200
0000
0000
0000
1300
0001
0001
0100
0001
0010
0020
0000
,
0130
1000
1000
0001
1000
0010
0010
0100
0001
0000
1001
0001
0101
0100
0110
0010
,
1010
1000
1100
0100
0110
0010
0011
0001
1000
0000
M001
0000
0000
0000
0000
0000
,
0000
0000
MMM2
0000
1M03
M100
0000
0000
,
0000
0000
MM2M
0000
0M31
010M
0000
0000
,
0000
0000
MM2M
0000
103M
M001
0000
0000
,
2002
0000
0000
0000
0000
0000
0003
0000
3001
0100
0010
1000
0001
1000
0100
1000
,
0001
0010
0100
1000
0001
1000
0010
0100
0001
1000
0010
0100
0010
0100
0001
0100
,
0001
1000
0100
1000
0002
0000
0000
0000
1003
0100
0010
0001
1000
0001
0010
0100
,
1000
0100
1000
0001
0010
0001
0100
0000
0220
0000
0330
0000
2020
0000
3030
0000
,
2002
0000
3003
0000
0022
0000
0003
0000
0031
1000
0100
1000
0001
0100
0010
1000
,
0001
0010
0001
0100
0010
1000
0001
1000
0100
0010
0100
1000
0100
0010
0001
1000
,
0001
0100
0010
1000
0001
1000
0100
0010
0001
0100
0010
1000
0010
1000
0001
0100
,
0010
1000
0010
1000
0001
0010
0001
0010
0400
0000
0000
0000
0000
0000
0000
0000
,
0000
0000
0000
0000
0000
0000
0000
0000
1300
0100
1000
0100
1000
0100
1000
0100
,
0010
0000
0000
0100
0000
0000
0010
0000
0000
0100
0000
0000
0010
0000
0000
0100
0000
0000
0010
0000
0000
0100
0000
0000
0040
0000
0000
0001
0000
0000
0000
0000
0000
0001
0000
0000
0000
0000
0000
0001
0000
0000
0000
0000
0030
0001
0000
0000
,
4000
0001
0000
0001
0000
0001
0000
3001
0100
0010
0100
0001
0100
0010
0100
0001
,
0100
0010
0100
0001
0100
0010
0100
0000
0202
0000
0303
0000
0220
0000
0330
0000
,
2020
0000
3030
0000
2200
0000
3000
0000
1300
0001
1000
0100
1000
0001
1000
0100
,
1000
0001
1000
0100
1000
0001
1000
0100
0040
0001
0000
0031
4000
0100
0000
3100
,
0040
0001
0000
0031
0400
0001
0000
0301
1000
0100
1000
0001
0100
0001
0100
0010
,
1000
0001
0010
0100
1000
0100
1000
0000
2200
0000
3300
0000
0220
0000
0330
0000
,
0022
0000
0033
0000
2002
0000
3003
0000
0001
0100
0010
1000
0001
0000
1000
0100
,
0010
0001
1000
0000
0001
0000
0100
0000
0010
0100
0010
0100
0001
0000
1000
0100
,
1000
0100
0010
0000
0001
0000
1000
0000
0001
0010
0100
1000
0001
0100
0010
0100
,
0001
0010
0100
1000
0100
1000
0010
0100
0001
0010
0100
1000
0001
0100
0001
1000
,
0100
1000
0001
0010
0100
1000
0010
0100
0002
0000
1003
0010
0100
0001
1000
0001
,
0010
0100
1000
0010
0100
0010
0100
0001
1000
0100
0010
0100
1000
0001
0100
0010
,
0100
0010
1000
0001
0010
0100
1000
0000
2020
0000
0000
0000
3030
0000
2002
0000
,
0000
0000
3003
0000
0022
0000
0033
0000
0001
0010
0100
1000
0001
0010
0100
1000
,
0001
0000
0000
0010
0000
0000
0100
0000
0000
1000
0000
0000
0001
0000
1000
0000
0000
0000
0MM0
0000
0000
0000
0000
0000
0002
0000
0000
0000
0000
0000
0000
0000
0000
0203
0000
0000
0000
0000
0000
0000
0000
0000
0320
0000
0000
0000
0000
0000
,
2030
0000
0000
3002
0000
0000
2003
0000
3200
0000
0000
0320
0000
0000
0032
0000
,
0203
0000
0000
0320
0000
0000
0230
0000
0301
1000
0001
0100
0010
0100
0010
1000
,
0001
0010
0001
1000
0100
1000
0001
0100
0020
0000
0230
0000
0320
0000
0230
0000
,
0302
0000
1003
0000
2000
0000
3200
0000
0310
0001
1000
0001
0100
0010
1000
0001
,
1000
0100
0010
0100
1000
0001
0100
0001
0100
0001
0100
0010
0100
0010
1000
0001
,
0010
0100
1000
0001
0010
0100
0010
0001
1000
0010
0100
0001
1000
0001
0010
0100
,
1000
0001
0100
0010
0100
0001
1000
0000
0001
0010
0100
0010
0001
1000
0001
0100
,
0010
0100
0001
1000
0001
0100
0010
0100
0002
0000
2003
0000
3200
0000
0320
0000
,
0000
0000
0000
0000
0031
1000
0200
0000
0320
0000
0032
0000
2003
0000
3020
0000
,
0230
0000
0000
0000
0301
0001
2000
3001
,
2000
3001
0020
0000
0000
0130
2000
3100
,
0020
0000
0130
0000
4000
0000
0000
0000
3001
0100
0010
1000
0001
1000
0100
1000
,
0001
0010
0001
1000
0010
0100
0001
1000
0100
1000
0001
0010
0001
1000
0100
0010
,
0001
0100
0001
1000
0002
0000
0000
0000
1003
0100
0010
0001
0010
0001
1000
0100
,
0010
0001
0010
0001
1000
0010
0100
0001
1000
0100
1000
0100
0010
0001
0010
0001
,
1000
0010
1000
0010
0100
0001
0100
0001
4000
0000
0000
0000
0000
0000
0000
0000
,
0000
0000
0000
0000
3002
0000
0000
0023
,
0000
0000
0230
2300
3002
0203
0302
0203
,
0302
0203
0320
0000
2030
0000
3200
0000
,
0302
0000
0000
0000
0203
0000
0000
0000
4300
0004
0000
0000
0000
0000
0000
0000
,
0000
0000
0000
0000
0000
0000
0000
3003
0040
0400
0000
0000
0000
0000
0000
0000
,
0000
0000
0000
0000
0000
0000
0000
0330
1000
0001
0100
0010
0100
0010
0100
0010
,
1000
0001
0100
0010
0100
0010
0100
0010
1000
0100
0010
0001
0010
0001
1000
0100
,
0010
0001
0010
0001
1000
0001
1000
0001
0100
0000
0010
0000
1000
0000
0001
0000
,
1000
0100
0010
0100
2000
0000
3002
0000
,
0203
0320
2030
0000
,
0000
0000
0000
0000
0000
0000
3001
0100
0000
0010
0000
0000
2000
0000
0000
3020
0000
0000
0130
0001
0000
1000
0000
0000
,
0200
0000
0000
0000
0000
0000
0320
0000
0000
0000
0000
0000
0031
0000
1000
0000
0000
0000
0100
0000
0000
0000
0000
0000
0010
0000
0000
0001
0000
0000
1000
0000
0000
0001
0000
0000
0100
0000
0000
0010
0000
0000
0100
0000
0000
0001
0000
0000
,
1000
0100
1000
0001
0010
0100
1000
0000
1100
0000
0100
0010
0001
1000
0001
0100
,
0010
0100
0001
1000
0001
0100
0001
0000
0100
0010
1000
0001
1000
0001
0100
0010
,
1000
0001
1000
0001
0010
0100
1000
0100
0010
0001
1000
0010
0100
0001
1000
0100
,
1000
0100
0010
0001
0010
0000
0100
0000
1000
0000
1000
0000
1000
0000
1000
0000
,
1000
0000
1000
0000
0001
0000
0001
0000
0100
0010
0100
0010
1000
0010
1000
0010
,
0100
0001
0100
0001
1000
0001
1000
0001
0020
0000
0100
0000
0100
0000
0130
0000
,
2000
0001
3001
0100
0020
1030
0002
0103
,
0020
0000
0130
0000
0004
0000
4003
0000
3100
0010
0100
0000
0010
0001
0010
0000
,
0001
1000
0001
0000
1000
0010
2000
0000
0000
0000
3002
0000
0203
0000
0302
0000
,
1003
0010
0100
0001
1000
0100
0040
0000
0031
0100
0001
0100
0001
0100
0001
1000
,
0001
1000
0001
1000
0100
1000
0100
1000
0001
0010
0100
1000
0001
0010
0100
1000
,
0001
0010
0100
1000
0001
0100
0001
0000
1100
0000
000M
0M00
M000
000M
0M00
00M0
,
0M00
000M
M000
0M00
00M0
000M
M000
000M
0M00
00M0
0M00
000M
M000
0M00
00M0
000M
,
00M0
M000
00M0
000M
0M00
M000
0M00
000M
4040
0000
0000
0000
0000
0000
0000
0000
,
0000
0000
0000
0000
,
0000
0000
0000
0000
3030
0000
0000
0000
1000
0000
0010
0000
0100
0001
0100
0000
,
0001
0000
1000
0000
0100
1000
0100
0000
0010
0000
0001
0000
1000
0001
1000
0000
,
0010
0000
0100
0000
0001
0100
0001
0000
1000
0000
0100
0000
0010
0001
0010
0000
,
0001
0000
1000
0000
0010
0100
0010
0000
0200
0000
0000
0000
0000
0000
0000
0000
,
0302
0000
0000
0000
0000
0000
0003
0000
1001
0000
1000
0000
0001
0100
0001
0000
,
1000
0000
0100
0000
0010
0001
0010
0000
0011
0000
0001
0000
1000
0001
1000
0000
,
0010
0000
0100
0000
0010
1000
0010
0000
0100
0001
0100
0001
0100
0001
0100
0001
,
1000
0100
1000
0100
1000
0100
1000
0100
0010
0001
0010
0001
1000
0001
1000
0001
,
0100
0010
0100
0010
0100
0001
0100
0001
1000
0000
0100
0000
1000
0001
1000
0000
,
0001
0000
0100
0000
0010
1000
0010
0000
0100
0000
0001
0000
1000
0100
1000
0000
,
0001
0000
0010
0000
0001
0010
0001
0000
1000
0000
1000
0000
0002
0000
0103
0000
,
0020
0130
0002
0103
0110
0100
0002
1003
,
1100
0000
0100
0000
0020
0000
0031
0000
1000
0000
0001
0000
0010
0001
0010
0000
,
0100
0000
1000
0000
0001
1000
0001
0000
0100
0000
0010
0000
1000
0010
1000
0000
,
0001
0000
0010
0000
0100
1000
0100
0000
1100
0000
1000
0001
1000
0000
1001
0000
,
0001
0100
0001
0000
1001
0000
1000
0000
0100
0010
0100
0010
0100
0010
0100
0010
,
0100
0010
0100
0010
0100
0010
0100
0010
0001
0000
1000
0000
0001
0100
0001
0000
,
1000
0000
0100
0000
0010
0001
0010
0000
0100
0000
1000
0000
0001
0100
0001
0000
,
0100
0000
0010
0000
1000
0010
1000
0000
0001
0000
1000
0000
0001
0010
0001
0000
,
1000
0000
0100
0000
0010
0001
0010
0000
0200
0000
0000
0000
0000
0000
0000
0000
,
2300
0000
0000
0000
0000
0000
3000
0000
1001
0000
0001
0000
0100
0010
0100
0000
,
0010
0000
1000
0000
0001
1000
0001
0000
1001
0000
1000
0000
0100
0010
0100
0000
,
0010
0000
0001
0000
1000
0010
1000
0000
0001
0010
0001
0010
0100
1000
0100
1000
,
0001
0100
0001
0100
0010
1000
0010
1000
0001
1000
0001
1000
0010
0100
0010
0100
,
0001
1000
0001
1000
0100
0010
0100
0010
0001
1000
0010
0100
0010
0100
0001
1000
,
0001
0010
0100
0010
0001
1000
0010
1000
0010
0100
0001
1000
0100
0010
0001
0010
,
0100
1000
0100
0010
0001
1000
0010
1000
0001
0010
0001
0100
0010
1000
0010
0100
,
0001
1000
0100
0010
0001
1000
0010
0100
0002
0000
0000
0000
0000
0000
0000
0000
,
2003
0000
0000
0000
3100
0010
0100
0010
0001
1000
0001
0000
1000
0010
1000
0000
,
0010
0100
0010
0000
0100
0001
0100
0000
0001
1000
0001
0000
1000
0100
1000
0000
,
0001
0010
0001
0000
1000
0001
1000
0000
0010
0100
0001
1000
0001
1000
0010
0100
,
0001
1000
0001
1000
0010
1000
0010
1000
0001
0010
0100
1000
0001
0010
0100
1000
,
0001
0010
0100
1000
0001
0010
0100
1000
0001
0100
0001
0000
1000
0010
1000
0000
,
0001
0010
0001
0000
1000
0100
1000
0000
0001
1000
0001
0000
1000
0100
1000
0000
,
0100
0010
0100
0000
0010
0001
0010
0000
0011
0000
0010
0000
0100
1000
0100
0000
,
1000
0001
1000
0000
0010
1000
0010
0000
1010
0000
1000
0000
0001
0100
0001
0000
,
1000
0010
1000
0010
0100
0001
0100
0001
1000
0000
1000
0000
0000
0000
0001
0010
,
0200
0000
0310
0000
0000
0000
0001
0100
0010
0000
0010
0000
2000
0000
3010
0000
,
0200
0000
0310
0000
0002
0000
0013
0000
0100
0000
0100
0000
0000
0000
0001
0010
,
0200
0000
0310
0000
0000
0000
0100
1000
0001
0010
0001
1000
0100
1000
0001
0100
,
0001
1000
0010
0100
0020
0000
0000
0000
0130
0000
0100
0000
0000
0000
0001
1000
,
0020
0000
0130
0000
0000
0000
0010
1000
0100
0000
0100
0000
0020
0000
0031
0000
,
0020
0000
0130
0000
0020
0000
1030
0000
0010
0000
0010
0000
0000
0000
0001
1000
,
0020
0000
0230
0000
0302
0000
2003
0000
3001
0010
0001
0010
0001
1000
0001
1000
,
0010
0100
0010
1000
0100
0000
MMMM
0000
0000
0000
1100
0000
1100
0000
1100
0000
,
1100
1100
0000
0000
0000
1001
1001
1001
,
1001
1001
1001
0000
0000
0000
0000
0000
;
