#TITLE:S.O.S;
#SUBTITLE:;
#ARTIST:Nancy & The Boys;
#TITLETRANSLIT:;
#SUBTITLETRANSLIT:;
#ARTISTTRANSLIT:;
#CREDIT:;
#BANNER:S.O.S-bn.png;
#BACKGROUND:S.O.S.png;
#LYRICSPATH:;
#CDTITLE:Dancemania Speed 4.png;
#MUSIC:Nancy & The Boys - S.O.S.mp3;
#OFFSET:-9.900;
#SAMPLESTART:21.214;
#SAMPLELENGTH:12.000;
#SELECTABLE:YES;
#DISPLAYBPM:170.000;
#BPMS:0.000=169.880;
#STOPS:;
#BGCHANGES:;
// cache tags:
#FIRSTBEAT:0.000;
#LASTBEAT:280.000;
#SONGFILENAME:Songs/toune/S.O.S/S.O.S.sm;
#HASMUSIC:1;
#HASBANNER:1;
#MUSICLENGTH:114.995;
// end cache tags

//---------------dance-single - ----------------
#NOTES:
     dance-single:
     :
     Hard:
     7:
     0.511,0.487,0.052,0.000,0.035,405.000,6.000,0.000,0.000,0.000:

1000
0000
0000
0000
0100
0000
0000
1000
0000
0000
0100
0000
0000
0000
0001
0000
,
1000
0000
0000
0000
0010
0000
0000
1000
0000
0000
0100
0000
0000
0000
1000
0000
,
0100
0000
0000
0000
1000
0000
0000
0001
0000
0000
0010
0000
0000
0000
1000
0000
,
0100
0000
0000
0000
1000
0000
0000
0001
0000
0000
0100
0000
0000
0000
0001
0000
,
1000
0000
0000
0000
0010
0000
0000
1000
0000
0000
0100
0000
0000
0000
0100
0000
,
0010
0000
0000
0000
1000
0000
0000
0100
0000
0000
0010
0000
0000
0000
0100
0000
,
0001
1000
0100
0010
,
1000
0100
0010
0001
1000
0100
0010
0001
,
1000
0010
1000
0010
1000
0000
0100
0100
,
0000
1000
0001
1000
0010
0000
0010
0100
,
0000
0001
0001
1000
0100
0000
1000
0000
,
0010
0000
1000
0000
0100
1000
0100
1000
,
0000
0100
1000
0010
1000
0000
0001
0100
,
0000
0010
1000
0100
1000
0000
0010
0010
,
0000
0100
0001
1000
0010
0000
1000
0000
,
1100
0000
1010
0000
0100
1000
0010
1000
,
0000
0001
0000
1000
0000
0010
1000
0100
,
0000
0100
0010
0100
0000
0001
1000
0010
,
0100
0000
0000
0000
1000
0000
0000
0001
0000
0000
1000
0000
0000
0000
0100
0000
,
1000
0000
0000
0000
0100
0000
0000
0010
0000
0000
1000
0000
0100
0000
1000
0000
,
0000
0001
0000
0001
0000
0100
0010
1000
,
0000
0100
1000
0010
0000
0100
0001
1000
,
0010
0100
0001
1000
,
0100
1000
0010
1000
0010
0100
0010
1000
,
1000
0001
1000
0010
1000
0000
0010
0010
,
0000
0100
0001
1000
0010
0000
0100
0001
,
1000
0010
1000
0100
0000
0100
1000
0010
,
0100
0001
1000
0010
0010
0000
0100
0001
,
0000
1000
0010
0100
0010
0000
1000
0001
,
0100
0010
1000
0010
0000
0010
0100
0001
,
1000
0010
0100
0001
1000
0010
0100
0001
,
0000
0001
1000
0000
0100
0000
0100
0000
,
1000
0001
1000
0010
0010
0000
0100
0001
,
1000
0010
0100
0010
0000
1000
0010
0100
,
0001
1000
0010
0010
0100
0000
0001
0001
,
0000
1000
0100
1000
0010
0000
0010
0100
,
0001
1000
0010
1000
0010
1000
0010
1000
,
0100
0100
0001
0100
0010
0100
0010
0100
,
0000
0001
1000
0010
0100
0000
0010
0100
,
0000
0001
0100
0010
1000
0000
0010
0100
,
0000
0001
1000
0100
1000
0000
0010
0000
,
0100
0000
0001
0000
0100
0010
0100
0010
,
0000
0100
0001
0100
0010
0000
0100
0001
,
0000
1000
0100
1000
0010
0000
0100
0001
,
0000
0100
0010
0100
0001
0000
1000
0000
,
0010
0000
0100
0000
0001
1000
0010
0100
,
0000
0010
0000
0010
0000
0100
0001
0100
,
0000
0100
1000
0100
0000
0100
0010
0100
,
0001
0001
1000
0010
,
0100
0000
0001
0000
1000
0010
1000
0100
,
0000
0100
0000
1000
0000
0010
1000
0001
,
0000
0001
0100
0010
0000
0010
1000
0010
,
0000
0100
0000
0001
0000
0001
1000
0000
,
0100
1000
0010
1000
0010
0000
1000
0000
,
0100
1000
0000
0010
0000
0010
0000
1000
,
0000
0001
0000
0001
1000
0010
1000
0010
,
0100
0010
0000
0010
0000
1000
0000
0001
,
0000
0001
0000
1000
0010
0100
0010
1000
,
0001
0001
0000
0001
0000
0001
0000
0001
,
0000
0001
0000
1000
0100
1000
0010
0100
,
0010
0010
0000
1000
0000
0001
0000
0001
,
1000
1100
1010
1100
,
0001
1000
0000
0010
0000
0010
0000
1000
,
0000
0100
0000
1000
0010
0100
1000
0010
,
0100
0001
0000
0001
0000
1000
0000
0100
,
0000
0010
0000
0010
0100
0010
1000
0001
,
0001
1000
0000
0100
0000
0100
0000
1000
,
0000
0010
0000
1000
0100
0010
1000
0010
,
1000
0001
0000
1000
0000
0100
0000
1000
,
0100
1000
0100
1000
0001
1000
0010
0000
,
0011
0000
0000
0000
;

//---------------dance-single - ----------------
#NOTES:
     dance-single:
     :
     Medium:
     6:
     0.439,0.487,0.157,0.000,0.000,335.000,18.000,0.000,0.000,0.000:
1000
0001
0010
0000
,
1000
0100
0001
0000
,
1000
0100
0100
0000
,
1000
0001
0010
0000
,
1000
0100
0100
0000
,
1000
0001
0010
0000
,
1001
0010
0010
0000
,
0010
1000
0001
0100
,
0000
1000
0001
0100
1000
0000
0001
0010
,
0000
1000
0100
1000
0000
0000
0001
0100
,
0000
1000
0001
0000
0100
0000
1000
0000
,
0010
0100
0001
0100
,
0000
1000
0100
1000
0100
0000
0001
0100
,
0000
1000
0001
0000
0001
0000
0010
1000
,
0000
0100
1000
0000
0001
0000
0100
0000
,
1000
0000
0001
0000
0000
0010
1000
0010
,
0000
1000
0000
0001
0000
0001
0100
1000
,
0000
0001
0010
1000
0000
0100
1000
0100
,
1000
0001
0100
1000
,
0001
0000
0010
0000
0100
0010
1000
0100
,
0000
1000
0000
0001
0000
0001
0100
1000
,
0000
0001
0010
0100
0000
0010
1000
0100
,
0000
1000
0001
0100
,
1000
0001
0100
1000
,
0001
0100
1000
0000
0001
0100
1000
0000
,
0001
0100
1000
0000
0001
0010
1000
0000
,
0001
0100
1000
0001
0000
0001
0100
1000
,
0001
0100
1000
0000
0001
0010
0100
0000
,
0001
0010
0100
0000
0001
0010
0100
0000
,
0001
0010
0100
0010
0000
1000
0100
1000
,
0100
1000
0001
0100
,
1000
0001
0100
1000
,
0001
0100
1000
0000
0001
0000
0010
0000
,
0100
0010
0100
0000
0001
0000
1000
0000
,
0001
1000
0001
0000
1000
0000
0100
0000
,
1000
0100
1000
0000
0001
0000
0010
0000
,
1001
0110
1001
0110
,
0011
1100
0011
1100
,
0000
0001
1000
0010
1000
0000
0100
1000
,
0000
0001
0100
1000
0001
0000
0001
0100
,
0000
1000
0001
0000
0010
0000
1000
0000
,
0100
0001
0100
1000
,
0000
0001
0100
1000
0001
0000
0010
1000
,
0000
0100
1000
0100
1000
0000
0001
0010
,
0000
0100
0010
0000
0000
1000
0100
0000
,
0001
0000
0100
0000
1000
0001
0100
1000
,
0000
0001
0000
0010
0000
0100
0010
1000
,
0000
0100
1000
0100
0000
0100
0001
0000
,
0100
1000
0001
0010
,
1000
0000
0100
0000
1000
0010
1000
0010
,
0000
0100
0000
0001
0000
0001
0010
0100
,
0000
0010
1000
0100
0000
0010
0100
0010
,
0000
1000
0001
0100
,
1000
0001
0100
1000
,
0001
0010
0000
1000
0000
1000
0000
0001
,
0000
0010
0000
1000
0100
1000
0001
0000
,
0001
0100
0000
1000
0000
0001
0000
0010
,
0000
0100
0000
0100
1000
0100
1000
0000
,
0001
0100
0000
1000
0000
0001
0000
0010
,
0000
0100
0000
0001
0100
0000
1000
0000
,
0001
0100
0000
1000
0000
0001
0000
0010
,
1001
0110
1001
0110
,
0001
0000
1000
0000
0001
1000
0001
0000
,
0010
0000
0100
0000
0001
0100
0001
0000
,
1000
0000
0100
0000
1000
0100
1000
0000
,
0001
0000
0100
0000
0010
0100
0010
0000
,
1000
0000
0100
0000
0001
0010
0100
0000
,
0001
0000
0100
0000
1000
0100
1000
0000
,
0001
0000
0100
0000
1000
0100
1000
0000
,
1001
0110
1001
0110
,
1001
0000
0000
0000
;

//---------------dance-single - ----------------
#NOTES:
     dance-single:
     :
     Easy:
     3:
     0.240,0.396,0.070,0.000,0.000,185.000,8.000,0.000,0.000,0.000:
1000
0000
0000
0000
,
0001
0000
0000
0000
,
1000
0000
0000
0000
,
0010
0000
0000
0000
,
1000
0000
0000
0000
,
0001
0000
0000
0000
,
1000
0001
1000
0001
,
0010
0100
0010
0100
,
0001
0000
0001
0000
,
1000
0000
0001
0000
,
1000
0000
0001
0000
,
0010
0010
0100
0100
,
1000
0000
0001
0000
,
0010
0000
0100
0000
,
0001
0000
1000
0000
,
0010
0010
0100
0100
,
1000
0000
0001
0000
,
1000
0001
1000
0001
,
1000
0000
0010
0000
,
0100
0010
0100
0001
,
0010
0000
1000
0000
,
0100
0001
0010
1000
,
0100
0000
0001
0000
,
1000
1000
0001
0001
,
1000
0000
0001
0000
,
1000
0000
0001
0000
,
1000
0010
0000
0100
,
0001
0000
0001
0000
,
1000
0001
1000
0001
,
1000
0000
0001
0000
,
1000
0010
1000
0000
,
0100
1000
0001
0000
,
0010
0010
0100
0000
,
0001
1000
0001
0000
,
1000
0001
1000
0001
,
1000
0010
0100
0010
,
0100
0000
0001
0000
,
1000
0100
0001
0100
,
1000
0000
1000
0000
,
0010
0000
0100
0000
,
0001
0000
1000
0000
,
0001
1000
0001
1000
,
0001
0000
1000
0000
,
0010
0000
0100
0000
,
1000
0001
1000
0001
,
1000
0001
1000
0001
,
0010
0000
1000
0000
,
0100
0010
0001
1000
,
0100
0000
0010
0000
,
0001
1000
0100
0010
,
0001
0000
1000
0000
,
0010
0001
1000
0100
,
0010
0000
0001
0000
,
1000
0100
0010
1000
,
0100
0000
0001
0000
,
1000
0000
0000
0000
,
0001
0000
0000
0000
,
0000
0000
0000
0000
,
1001
0000
0000
0000
,
0000
0000
0000
0000
,
0011
0000
1100
0000
,
1001
1001
1001
1001
,
0001
0001
1000
1000
,
0001
0001
1000
0000
,
0010
0010
0100
0100
,
0010
0010
0100
0000
,
1000
0010
1000
0010
,
1000
0010
0100
0000
,
0001
0100
0001
0010
,
0100
0001
1000
0000
,
1001
0000
0000
0000
;
