#TITLE:Shanghai Girl of Meiji 17;
#SUBTITLE:;
#ARTIST:dBu Music;
#TITLETRANSLIT:;
#SUBTITLETRANSLIT:;
#ARTISTTRANSLIT:;
#CREDIT:;
#BANNER:1166846302.png;
#BACKGROUND:1166846150.png;
#LYRICSPATH:;
#CDTITLE:;
#MUSIC:Shanghai Girl of Meiji 17.mp3;
#OFFSET:-2.020;
#SAMPLESTART:31.006;
#SAMPLELENGTH:12.000;
#SELECTABLE:YES;
#BPMS:0.000=140.000;
#STOPS:;
#BGCHANGES:;
// cache tags:
#FIRSTBEAT:0.000;
#LASTBEAT:392.000;
#SONGFILENAME:Songs/toune/Shanghai Girl of Meiji 17/asdf.sm;
#HASMUSIC:1;
#HASBANNER:1;
#MUSICLENGTH:229.302;
// end cache tags

//---------------dance-single - ----------------
#NOTES:
     dance-single:
     :
     Hard:
     12:
     1.000,1.000,1.000,0.366,0.619,993.000,485.000,84.000,0.000,134.000:  // measure 1
1001
0000
0000
0100
0000
0000
0101
0000
,  // measure 2
0000
0010
0000
0000
1001
0000
0000
0100
,  // measure 3
0000
0000
0000
0000
1010
0000
0000
0010
0000
1000
0100
0010
0000
0000
0000
0000
,  // measure 4
1001
0000
0001
0000
0001
0000
0011
1000
0101
0000
0001
0000
1101
0000
0001
0000
,  // measure 5
0101
0010
1001
0010
0101
0000
0001
0000
1101
0000
0001
0000
0001
0000
1001
0010
,  // measure 6
0001
0000
0000
0000
0001
0000
0000
0000
0111
0000
0000
0000
0001
0000
0000
0000
0001
0000
0000
0000
0001
0000
0000
0000
0001
0000
0000
0000
0001
0010
0100
0000
,  // measure 7
2001
0100
0000
3012
0000
1010
0203
1000
,  // measure 8
0000
0321
0000
0101
2030
0100
0000
3012
,  // measure 9
0000
0000
0000
0000
1010
0000
0000
0000
0203
0000
0000
0000
1000
0000
0000
0000
0000
0000
0000
0000
0301
1000
0010
1000
0100
0000
0000
0000
0001
0000
0010
0000
,  // measure 10
2001
0100
0000
3012
0000
1010
0203
1000
,  // measure 11
0000
0321
0000
0101
2030
0100
0000
3012
,  // measure 12
0000
0000
0000
0000
1010
0000
0000
0000
0203
0000
0000
0000
1000
0000
0000
0000
0000
0000
0000
0000
0301
1000
0010
1000
0100
0000
0000
0000
0001
0000
0010
0000
,  // measure 13
0102
1000
0010
1203
0010
1001
0320
1000
,  // measure 14
0100
2031
0100
0011
3200
0001
1000
0321
,  // measure 15
0100
0000
0000
0000
1100
0000
0000
0000
0132
0000
0000
0000
1000
0000
0000
0000
0010
0000
0000
0000
0113
1000
0110
1000
0001
0000
0000
0000
0100
0000
0100
0000
,  // measure 16
2000
0001
0010
3201
1000
0011
0302
1000
,  // measure 17
0100
1023
0100
1001
0230
0001
0010
1302
,  // measure 18
0010
0000
0100
0000
2013
0000
0000
0000
0000
0000
3101
0010
0100
1000
0001
0000
,  // measure 19
0102
1000
0010
1203
0010
1001
0320
1000
,  // measure 20
0100
2031
0100
0011
3200
0001
1000
0321
,  // measure 21
0100
0000
0000
0000
1100
0000
0000
0000
0132
0000
0000
0000
1000
0000
0000
0000
0010
0000
0000
0000
0113
1000
0110
1000
0001
0000
0000
0000
0100
0000
0100
0000
,  // measure 22
2000
0001
0010
3201
1000
0011
0302
1000
,  // measure 23
0100
1023
0100
1001
0230
0001
0010
1302
,  // measure 24
0010
0000
0100
0000
2013
0000
0000
0000
0000
0000
3101
0010
0100
1000
0001
1000
,  // measure 25
0101
0000
0011
0100
1011
0000
1100
0000
0011
0100
0010
0000
1101
0000
0010
1000
,  // measure 26
0100
0000
0000
0000
0010
0000
0100
0000
1001
0000
0000
0000
0110
0000
0000
0000
0011
0100
1010
0000
0001
0000
0000
0000
0100
0000
0000
0000
0001
0000
1000
0000
,  // measure 27
0110
0000
0110
0001
1110
0000
0001
0000
1010
0001
0110
0000
1101
0000
0010
0001
,  // measure 28
1100
0000
0010
1000
0101
0000
0110
0000
0011
1000
0100
0000
1001
0010
1001
0110
,  // measure 29
1001
0000
0010
0100
1001
0000
0110
0000
1010
0100
0010
0000
1101
0000
1010
0001
,  // measure 30
1100
0010
0101
1010
0101
0000
1010
0000
0101
1000
0011
0000
1001
0100
1010
0100
,  // measure 31
1001
0100
0011
1100
1011
0100
0011
1000
0101
1010
0101
1000
0111
1000
0101
1010
,  // measure 32
0101
0000
0110
1001
0110
0001
1010
0100
1010
0101
1010
0100
1001
0010
1100
0011
,  // measure 33
0100
0000
0011
0100
1011
0000
1100
0000
0011
0100
0010
0000
1101
0000
0010
1000
,  // measure 34
0100
0000
0000
0000
0010
0000
0100
0000
1001
0000
0000
0000
0110
0000
0000
0000
0011
0100
1010
0000
0001
0000
0000
0000
0100
0000
0000
0000
0001
0000
1000
0000
,  // measure 35
0110
0000
0110
0001
1110
0000
0001
0000
1010
0001
0110
0000
1101
0000
0010
0001
,  // measure 36
1100
0000
0010
1000
0101
0000
0110
0000
0011
1000
0100
0000
1001
0010
1001
0110
,  // measure 37
1001
0000
0010
0100
1001
0000
0110
0000
1010
0100
0010
0000
1101
0000
1010
0001
,  // measure 38
1100
0010
0101
1010
0101
0000
1010
0000
0101
1000
0011
0000
1001
0100
1010
0100
,  // measure 39
1001
0010
0101
1100
1011
0100
0011
1000
0101
1010
0101
1000
0111
1000
1100
1010
,  // measure 40
0101
0000
0110
1010
0101
0100
1010
0100
1010
0101
1010
0100
1001
0100
0110
0011
,  // measure 41
0100
0000
0011
0100
1011
0000
1100
0000
0011
0100
0010
0000
1101
0000
0010
1000
,  // measure 42
0100
0000
0000
0000
0010
0000
0100
0000
1001
0000
0000
0000
0110
0000
0000
0000
0011
0100
1010
0000
0001
0000
0000
0000
0100
0000
0000
0000
0001
0000
1000
0000
,  // measure 43
0011
0000
0110
0001
1110
0000
0001
0000
0110
1000
0101
0000
1101
0000
0100
0010
,  // measure 44
1001
0000
0001
1000
0101
0000
1010
0000
0011
0100
0010
0000
1001
0010
1001
0110
,  // measure 45
1001
0000
0010
0100
1001
0000
0110
0000
1010
0100
0010
0000
1101
0000
1010
0001
,  // measure 46
1100
0010
0101
1010
0101
0000
1010
0000
0101
1000
0011
0000
1001
0100
1010
0100
,  // measure 47
1001
0010
0101
1010
1101
0010
0101
1000
0101
1010
0101
1000
0111
1000
0101
1010
,  // measure 48
0101
0000
0110
1001
0110
0001
1010
0100
1010
0101
1010
0100
1001
0010
1100
0011
,  // measure 49
1100
1000
1000
1000
,  // measure 50
1001
0000
0000
0100
0000
0000
0101
0000
,  // measure 51
0000
0010
0000
0000
1001
0000
0000
0100
,  // measure 52
0000
0000
0000
0000
1010
0000
0000
0010
0000
1000
0100
0010
0000
0000
0000
0000
,  // measure 53
1001
0000
0001
0000
0001
0000
0011
1000
0101
0000
0001
0000
1101
0000
0001
0000
,  // measure 54
0101
0010
1001
0010
0101
0000
0001
0000
1101
0000
0001
0000
0001
0000
1001
0010
,  // measure 55
0001
0000
0100
0000
0001
0000
1000
0000
0111
0000
0000
0000
0001
0000
0000
0000
0001
0000
0000
0000
0001
0000
0000
0000
0001
0000
0000
0000
0001
0010
0100
0000
,  // measure 56
2001
0100
0000
3012
0000
1010
0203
1000
,  // measure 57
0000
0321
0000
0101
2030
0100
0000
3012
,  // measure 58
0000
0000
0000
0000
1010
0000
0000
0000
0203
0000
0000
0000
1000
0000
0000
0000
0000
0000
0000
0000
0301
1000
0010
1000
0100
0000
0000
0000
0001
0000
0010
0000
,  // measure 59
2001
0100
0000
3012
0000
1010
0203
1000
,  // measure 60
0000
0321
0000
0101
2030
0100
0000
3012
,  // measure 61
0000
0000
0000
0000
1010
0000
0000
0000
0203
0000
0000
0000
1000
0000
0000
0000
0000
0000
0000
0000
0301
1000
0010
1000
0100
0000
0000
0000
0001
0000
0010
0000
,  // measure 62
0102
1000
0010
1203
0010
1001
0320
1000
,  // measure 63
0100
2031
0100
0011
3200
0001
1000
0321
,  // measure 64
0100
0000
0000
0000
1100
0000
0000
0000
0132
0000
0000
0000
1000
0000
0000
0000
0010
0000
0000
0000
0113
1000
0110
1000
0001
0000
0000
0000
0100
0000
0100
0000
,  // measure 65
2000
0001
0010
3201
1000
0011
0302
1000
,  // measure 66
0100
1023
0100
1001
0230
0001
0010
1302
,  // measure 67
0010
0000
0110
0000
2013
0000
0000
0000
0000
0000
3101
0010
0100
1000
0001
0000
,  // measure 68
0102
1000
0010
1203
0010
1001
0320
1000
,  // measure 69
0100
2031
0100
0011
3200
0001
1000
0321
,  // measure 70
0100
0000
0000
0000
1100
0000
0000
0000
0132
0000
0000
0000
1000
0000
0000
0000
0010
0000
0000
0000
0113
1000
0110
1000
0001
0000
0000
0000
0100
0000
0100
0000
,  // measure 71
2000
0001
0010
3201
1000
0011
0302
1000
,  // measure 72
0100
1023
0100
1001
0230
0001
0010
1302
,  // measure 73
0010
0000
0110
0000
2013
0000
0000
0000
0000
0000
3101
0010
0100
1000
0001
1000
,  // measure 74
0101
0000
0011
0100
1011
0000
1100
0000
0011
0100
0010
0000
1101
0000
0010
1000
,  // measure 75
0100
0000
0000
0000
0010
0000
0100
0000
1001
0000
0000
0000
0110
0000
0000
0000
0011
0100
1010
0000
0001
0000
0000
0000
0100
0000
0000
0000
0001
0000
1000
0000
,  // measure 76
0110
0000
0110
0001
1110
0000
0001
0000
1010
0001
0110
0000
1101
0000
0010
0001
,  // measure 77
1100
0000
0010
1000
0101
0000
0110
0000
0011
1000
0100
0000
1001
0010
1001
0110
,  // measure 78
1001
0000
0010
0100
1001
0000
0110
0000
1010
0100
0010
0000
1101
0000
1010
0001
,  // measure 79
1100
0010
0101
1010
0101
0000
1010
0000
0101
1000
0011
0000
1001
0100
1010
0100
,  // measure 80
1001
0100
0011
1100
1011
0100
0011
1000
0101
1010
0101
1000
0111
1000
0101
1010
,  // measure 81
0101
0000
0110
1001
0110
0001
1010
0100
1010
0101
1010
0100
1001
0010
1100
0011
,  // measure 82
0100
0000
0011
0100
1011
0000
1100
0000
0011
0100
0010
0000
1101
0000
0010
1000
,  // measure 83
0100
0000
0000
0000
0010
0000
0100
0000
1001
0000
0000
0000
0110
0000
0000
0000
0011
0100
1010
0000
0001
0000
0000
0000
0100
0000
0000
0000
0001
0000
1000
0000
,  // measure 84
0110
0000
0110
0001
1110
0000
0001
0000
1010
0001
0110
0000
1101
0000
0010
0001
,  // measure 85
1100
0000
0010
1000
0101
0000
0110
0000
0011
1000
0100
0000
1001
0010
1001
0110
,  // measure 86
1001
0000
0010
0100
1001
0000
0110
0000
1010
0100
0010
0000
1101
0000
1010
0001
,  // measure 87
1100
0010
0101
1010
0101
0000
1010
0000
0101
1000
0011
0000
1001
0100
1010
0100
,  // measure 88
1001
0010
0101
1100
1011
0100
0011
1000
0101
1010
0101
1000
0111
1000
1100
1010
,  // measure 89
0101
0000
0110
1010
0101
0100
1010
0100
1010
0101
1010
0100
1001
0100
0110
0011
,  // measure 90
0100
0000
0011
0100
1011
0000
1100
0000
0011
0100
0010
0000
1101
0000
0010
1000
,  // measure 91
0100
0000
0000
0000
0010
0000
0100
0000
1001
0000
0000
0000
0110
0000
0000
0000
0011
0100
1010
0000
0001
0000
0000
0000
0100
0000
0000
0000
0001
0000
1000
0000
,  // measure 92
0011
0000
0110
0001
1110
0000
0001
0000
0110
1000
0101
0000
1101
0000
0100
0010
,  // measure 93
1001
0000
0001
1000
0101
0000
1010
0000
0011
0100
0010
0000
1001
0010
1001
0110
,  // measure 94
1001
0000
0010
0100
1001
0000
0110
0000
1010
0100
0010
0000
1101
0000
1010
0001
,  // measure 95
1100
0010
0101
1010
0101
0000
1010
0000
0101
1000
0011
0000
1001
0100
1010
0100
,  // measure 96
1001
0010
0101
1010
1101
0010
0101
1000
0101
1010
0101
1000
0111
1000
0101
1010
,  // measure 97
0101
0000
0110
1001
0110
0001
1010
0100
1010
0101
1010
0100
1001
0010
1100
0011
,  // measure 98
1100
1000
1000
1000
,  // measure 99
1001
0000
0000
0000
;
