#TITLE:Kissing The Shadows;
#SUBTITLE:By Nicholas T. Mihaila;
#ARTIST:Children of Bodom;
#TITLETRANSLIT:;
#SUBTITLETRANSLIT:;
#ARTISTTRANSLIT:;
#CREDIT:;
#BANNER:KTS - BN.jpg;
#BACKGROUND:KTS - BG.jpg;
#LYRICSPATH:;
#CDTITLE:cdtitle.gif;
#MUSIC:Children of Bodom - Kissing the Shadows.mp3;
#OFFSET:-0.100;
#SAMPLESTART:100.000;
#SAMPLELENGTH:12.000;
#SELECTABLE:YES;
#BPMS:0.000=143.660,72.000=144.000,147.000=143.500,199.000=144.000,338.000=143.500,377.000=145.000,392.000=148.500,400.500=134.000,447.000=158.000,451.000=175.000,459.000=134.100,531.500=133.940;
#STOPS:72.000=0.400
,137.000=0.880
,139.000=0.360
,142.000=0.880
,144.000=0.360
,199.000=1.220
,328.000=0.880
,330.000=0.420
,333.000=0.860
,335.000=0.340
,531.500=1.600
,532.000=1.100
;
#BGCHANGES:;
// cache tags:
#FIRSTBEAT:0.000;
#LASTBEAT:588.000;
#SONGFILENAME:Songs/toune 5/COB - Kissing The Shadows (final)/Children of Bodom - Kissing the Shadows.sm;
#HASMUSIC:1;
#HASBANNER:1;
#MUSICLENGTH:279.465;
// end cache tags

//---------------dance-single - ----------------
#NOTES:
     dance-single:
     :
     Hard:
     14:
     1.000,1.000,0.250,0.333,1.000,1946.000,70.000,93.000,0.000,16.000:
0110
0000
0000
0000
0001
1000
0000
1000
0001
0010
0100
1000
0100
0010
0001
0010
,
0100
1000
0100
0010
0002
0000
0000
0000
1003
0100
0010
0001
1000
0100
0010
0001
,
1010
0000
0000
0000
0202
0000
0000
0000
1303
0010
0100
0010
0001
0010
0100
0010
,
1000
0010
0100
0010
0002
0000
0000
0000
1003
0100
0010
0001
1000
0100
0010
0001
,
0110
0000
0000
0000
1001
0000
0000
0000
0001
0010
0100
1000
0100
0010
0001
0010
,
0100
1000
0100
0010
0002
0000
0000
0000
1003
0100
0010
0001
1000
0100
0010
0001
,
1010
0000
0000
0000
0202
0000
0000
0000
1303
0010
0100
0010
0001
0010
0100
0010
,
1000
0010
0100
0010
0002
0000
0000
0000
1103
0000
0000
0000
1010
0000
0000
0000
,
0101
0000
0000
0000
0011
0000
0000
0000
1000
0100
1000
0100
1000
0100
1000
0100
,
0001
0010
0001
0010
0001
0010
0001
0010
1000
0100
1000
0100
1000
0100
1000
0100
,
0001
0010
0001
0010
0001
0010
0001
0010
1000
0001
1000
0001
1000
0001
1000
0001
,
0010
0100
0010
0100
0010
0100
0010
0100
1000
0100
1000
0100
1000
0100
1000
0100
,
0001
0010
0001
0010
0001
0010
0001
0010
1000
0100
1000
0100
1000
0100
1000
0100
,
0001
0010
0001
0010
0001
0010
0001
0010
1000
0100
1000
0100
1000
0100
1000
0100
,
0001
0010
0001
0010
0001
0010
0001
0010
1000
0001
1000
0001
1000
0001
1000
0001
,
0010
0100
0010
0100
0010
0100
0010
0100
1000
0100
1000
0100
1000
0100
1000
0100
,
0001
0010
0001
0010
0001
0010
0001
0010
1000
0100
0010
0001
0010
0100
1000
0100
,
0010
0001
0010
0100
1000
0100
0022
0000
0000
0000
0000
0000
0000
0000
0000
0000
,
1133
0000
0000
0000
0001
0100
1000
0010
0100
0001
0010
1000
0001
1000
0100
1000
,
0010
0100
1000
0010
0001
0100
1000
0010
0100
0001
0010
1000
0001
1000
0100
1000
,
0010
0100
1000
0010
1000
0000
0001
0000
1000
0000
0001
0010
0100
0000
0001
0010
,
0100
1000
0100
0010
0001
0000
1000
0000
0001
0000
1000
0100
0010
0000
1000
0100
,
0010
0000
0001
0000
0001
0100
1000
0010
0100
0001
0010
1000
0001
1000
0100
1000
,
0010
0100
1000
0010
0001
0100
1000
0010
0100
0001
0010
1000
0001
1000
0100
1000
,
0010
0100
1000
0010
1000
0000
0001
0000
1000
0000
0001
0010
0100
0000
0001
0010
,
0100
1000
0100
0010
0001
0000
1000
0000
0001
0000
1000
0100
0010
0000
1000
0100
,
0010
0000
0001
0000
2000
0000
0000
0000
0000
0000
3100
0010
0001
0000
1000
0100
,
0010
0001
0010
0100
2000
0000
0000
0000
0000
0000
3100
0010
0001
0000
1000
0010
,
0100
0001
0010
0100
1000
0100
0010
0001
1000
0010
0100
0001
1000
0100
0010
0001
,
0100
0010
1000
0001
1000
0100
0010
0001
1000
0010
0100
0001
0010
0100
1000
0100
,
0010
0001
0010
0100
2000
0000
0000
0000
0000
0000
3100
0010
0001
0000
1000
0100
,
0010
0001
0010
0100
2000
0000
0000
0000
0000
0000
3100
0010
0001
0000
1000
0010
,
0100
0001
0010
0100
1000
0100
0010
0001
1000
0010
0100
0001
1000
0100
0010
0001
,
0100
0010
1000
0001
1000
0100
0010
0001
1000
0010
0100
0001
0010
0100
1000
0001
,
1000
0001
1000
0001
0110
0000
0002
0000
0000
0000
0000
0000
0113
0000
0100
0010
,
0002
0000
2003
0000
3110
0002
0000
0000
,
0113
0000
0000
0000
0002
0000
0000
0000
2003
0000
0000
0000
3110
0000
0001
0100
,
0001
0000
1000
0100
1000
0000
0100
0010
0100
0000
1000
0100
1000
0000
0100
0010
,
0100
0000
1000
0000
0001
0010
0100
1000
0001
0010
0100
1000
0110
0000
0001
0100
,
0001
0000
1000
0100
1000
0000
0100
0010
0100
0000
1000
0100
1000
0000
0100
0010
,
0100
0000
1000
0000
1001
0010
0100
1000
0100
0010
1001
0010
0100
1000
0100
0010
,
1001
0010
0100
1000
0110
0000
0001
0100
0001
0000
1000
0100
1000
0000
0100
0010
,
0100
0000
1000
0100
1000
0000
0100
0010
0100
0000
1000
0000
0001
0010
0100
1000
,
0001
0010
0100
1000
0110
0000
0001
0100
0001
0000
1000
0100
1000
0000
0100
0010
,
0100
0000
1000
0100
1000
0000
0100
0010
0100
0000
1000
0000
0011
1000
0001
1000
,
0001
1000
0110
1000
0001
1000
0001
1000
0101
0010
0100
1000
0011
1000
0001
1000
,
0001
1000
0110
1000
0001
1000
0001
1000
0101
0000
0010
0000
0010
0000
0100
0000
,
0010
0000
0001
1000
0000
0001
1000
0100
0010
0001
0010
0100
1000
0100
0010
0000
,
1000
0000
0001
0010
0100
1000
0000
0001
1000
0000
0001
0000
1000
0100
0010
0000
,
0001
0000
1000
0100
0010
0000
1000
0100
0010
0000
0001
0000
0110
0000
0000
0000
,
0001
0100
1000
0010
0100
0001
0010
1000
0001
1000
0100
1000
0010
0100
1000
0010
,
0001
0100
1000
0010
0100
0001
0010
1000
0001
1000
0100
1000
0010
0100
1000
0010
,
1000
0000
0001
0000
1000
0000
0001
0010
0100
0000
0001
0010
0100
1000
0100
0010
,
0001
0000
1000
0000
0001
0000
1000
0100
0010
0000
1000
0100
0010
0000
0001
0000
,
0001
0100
1000
0010
0100
0001
0010
1000
0001
1000
0100
1000
0010
0100
1000
0010
,
0001
0100
1000
0010
0100
0001
0010
1000
0001
1000
0100
1000
0010
0100
1000
0010
,
1000
0000
0001
0000
1000
0000
0001
0010
0100
0000
0001
0010
0100
1000
0100
0010
,
0001
1000
0001
2000
0000
0000
0000
0000
,
3010
0001
0010
0100
0000
0100
1000
0000
,
0100
0000
1000
0000
0100
0000
0010
0000
0000
0000
0010
0000
0002
0000
0000
0003
,
0010
0000
0001
0000
0010
0000
0100
0000
0000
0000
0100
0000
1000
0000
0001
0010
,
0100
1000
0100
0010
0001
0010
0100
1000
0100
0010
0001
1000
0001
1000
0001
1000
,
0100
1000
0100
0010
0000
0010
0001
0000
,
0010
0001
0010
0100
0000
0100
1000
0000
,
0100
0000
1000
0000
0100
0000
0010
0000
0000
0000
0010
0000
0001
0000
1000
0100
,
0001
0010
1000
0100
0010
0001
1000
0100
0001
0010
1000
0100
0010
0001
1000
0100
,
0001
0010
0100
1000
0100
0010
0001
0010
0100
1000
0100
0010
0002
0000
0000
0000
,
1003
0100
0010
0001
1000
0100
0010
0001
1010
0000
0000
0000
0202
0000
0000
0000
,
1303
0010
0100
0010
0001
0010
0100
0010
1000
0010
0100
0010
0002
0000
0000
0000
,
1003
0100
0010
0001
1000
0100
0010
0001
0110
0000
0000
0000
1001
0000
0000
0000
,
0001
0010
0100
1000
0100
0010
0001
0010
0100
1000
0100
0010
0002
0000
0000
0000
,
1003
0100
0010
0001
1000
0100
0010
0001
1010
0000
0000
0000
0202
0000
0000
0000
,
1303
0010
0100
0010
0001
0010
0100
0010
1000
0010
0100
0010
0002
0000
0000
0000
,
1103
1010
0101
0011
,
2000
0000
0000
0000
0000
0000
3100
0010
0001
0000
1000
0100
0010
0001
0010
0100
,
2000
0000
0000
0000
0000
0000
3100
0010
0001
0000
1000
0010
0100
0001
0010
0100
,
1000
0100
0010
0001
1000
0010
0100
0001
1000
0100
0010
0001
0100
0010
1000
0001
,
1000
0100
0010
0001
1000
0010
0100
0001
0010
0100
1000
0100
0010
0001
0010
0100
,
2000
0000
0000
0000
0000
0000
3100
0010
0001
0000
1000
0100
0010
0001
0010
0100
,
2000
0000
0000
0000
0000
0000
3100
0010
0001
0000
1000
0010
0100
0001
0010
0100
,
1000
0100
0010
0001
1000
0010
0100
0001
1000
0100
0010
0001
0100
0010
1000
0001
,
1000
0100
0010
0001
1000
0010
0100
0001
0010
0100
1000
0001
1000
0001
1000
0001
,
0110
0000
0002
0000
0000
0000
0000
0000
0113
0000
0100
0010
0002
0000
0000
0000
,
2003
0000
3110
0002
0000
0000
0113
0000
,
0002
0000
0000
0000
2003
0000
0000
0000
3110
0000
0001
0100
0001
0000
1000
0100
,
1000
0000
0100
0010
0100
0000
1000
0100
1000
0000
0100
0010
0100
0000
1000
0000
,
0001
0010
0100
1000
0001
0010
0100
1000
0110
0000
0001
0100
0001
0000
1000
0100
,
1000
0000
0100
0010
0100
0000
1000
0100
1000
0000
0100
0010
0100
0000
1000
0000
,
1001
0010
0100
1000
0100
0010
1001
0010
0100
1000
0100
0010
1001
0010
0100
1000
,
0110
0000
0001
0100
0001
0000
1000
0100
1000
0000
0100
0010
0100
0000
1000
0100
,
1000
0000
0100
0010
0100
0000
1000
0000
0001
0010
0100
1000
0001
0010
0100
1000
,
0110
0000
0001
0100
0001
0000
1000
0100
1000
0000
0100
0010
0100
0000
1000
0100
,
1000
0000
0100
0010
0100
0000
1000
0000
0011
1000
0001
1000
0001
1000
0110
1000
,
0001
1000
0001
1000
0101
0010
0100
1000
0011
1000
0001
1000
0001
1000
0110
1000
,
0001
1000
0001
1000
0101
1000
0100
0010
0001
0010
0100
1000
0001
0010
0100
1000
,
0100
0000
0010
0000
0001
0000
1000
0000
0200
0300
0020
0030
0001
0000
1000
0000
0002
0003
0020
0030
1000
0000
0100
0000
0010
0000
0001
0000
1000
0000
0100
0000
,
1000
0010
1000
0001
1000
0010
1000
0100
0011
0000
0000
0000
0101
0000
0000
0000
,
1010
0000
1100
0000
0001
1000
0010
1000
,
0200
0000
0000
0000
,
0000
0000
0000
0000
,
0000
0000
0000
0310
0000
0000
0001
0000
0000
0000
0000
0000
2000
0000
0000
0000
0000
0000
0000
0000
0000
0000
0000
0000
0010
0000
0010
0000
0010
0000
3010
0000
0000
0001
0000
0000
0020
0000
0000
0000
0000
0000
0000
0000
0000
0000
0000
0000
,
0000
0000
0000
0000
0000
0000
0000
0000
0000
0000
0000
0000
1030
0000
0100
0000
0010
0000
0001
0000
0000
0100
0000
0000
1000
0000
0000
0010
0000
0000
0001
0000
0000
0100
0000
0000
1000
0000
0000
0010
0000
0000
1000
0000
0100
0000
0001
0000
,
1000
0000
0100
0000
0001
0000
1000
0000
0010
0000
0100
0000
0001
0000
0000
0010
0000
0000
0100
0000
0000
1000
0000
0000
0010
0000
0000
0000
0000
0000
0001
0000
0000
0010
0000
0000
0100
0000
0000
1000
0000
0000
0010
0000
0000
0100
0000
0000
,
0000
0010
0100
1000
0100
0010
0100
0010
0001
0010
0001
1000
0001
1000
0100
1000
,
0002
0000
0000
0000
0000
0000
1003
0100
0010
0001
0010
0100
0001
0010
0100
0001
0010
0100
1000
0100
0010
0001
0100
0010
,
1000
0100
0010
0001
0100
0010
1000
0100
0010
0100
0010
0001
0010
0100
1000
0001
0010
0100
2000
0000
0000
0000
0000
0000
,
0000
0000
0000
0000
0000
0000
3001
0010
0100
1000
0100
0001
0010
0001
0000
0000
0000
0000
0010
0100
1000
0001
1000
0010
,
0100
0010
0000
0000
0000
0000
0001
0010
0100
0001
0010
0100
0010
0100
1000
0010
0100
1000
0100
1000
0001
0100
1000
0001
,
2000
0000
0000
3010
0000
0000
0200
0000
0000
0000
0000
0000
0000
0000
0000
1300
0000
0000
0001
0010
0100
1000
0010
0001
,
0000
1000
0000
0000
0001
0000
0000
1000
0000
0000
0002
0000
0000
0000
0000
0000
0000
0000
1003
0000
0100
0000
0010
0000
0001
0000
0010
0000
0100
0000
0002
0000
0013
0000
0100
0000
1000
0000
0100
0000
0010
0000
0001
0000
0100
0000
1000
0000
,
0001
0000
0100
0000
1000
0000
0001
0000
0100
0000
1000
0000
0002
0000
0000
0000
0000
0000
0000
0000
0000
0000
0000
0000
0000
0000
0000
0000
0000
0000
2003
0000
0000
0000
0000
0000
0000
0000
0000
3000
0000
0000
0200
0000
0000
0000
0000
0000
,
0000
0000
0000
0300
0000
0000
0020
0000
0000
0000
0000
0000
1030
0000
0100
0000
0010
0000
1000
0000
0100
0000
0010
0000
0001
0000
0010
0000
0100
0000
0001
0000
0010
0000
0100
0000
0001
0000
0010
0000
0100
0000
1000
0000
0100
0000
0010
0000
,
0001
0010
0100
1000
0100
0010
0001
0010
0100
1000
0100
0010
0001
0010
0100
1000
0100
0010
0001
0010
0100
1000
0100
0010
,
0001
0010
0100
1000
0100
0010
0001
0010
0100
1000
0100
0010
0001
0010
0100
1000
0100
0010
0001
0010
0100
1000
0100
0010
,
0001
0000
0010
0000
0100
0000
1000
0000
0100
0000
0010
0000
0001
0000
0010
0000
0100
0000
1000
0000
0100
0000
0010
0000
0001
0000
0010
0000
0100
0000
1000
0000
0100
0000
0010
0000
0001
0000
0000
0002
0000
0000
1000
0000
0100
0000
0013
0000
,
1000
0000
0100
0000
0001
0000
1000
0000
0010
0000
0001
0000
1000
0000
0000
0100
0000
0000
0001
0000
0000
0010
0000
0000
1000
0000
0000
0100
0000
0000
0020
0000
0000
0000
0000
0000
0031
0000
0010
0000
0100
0000
0001
0000
0010
0000
0100
0000
,
0010
0000
0100
0000
1000
0000
0010
0000
0100
0000
1000
0000
0100
0000
1000
0000
0001
0000
0100
0000
1000
0000
0001
0000
1000
0000
0001
0000
0010
0000
1000
0000
0001
0000
0010
0000
0001
0000
0010
0000
0100
0000
1000
0000
0000
0100
0000
0000
,
0010
0001
0010
0100
0010
0100
1000
0010
0100
0001
0010
0100
0010
0100
1000
0100
,
0010
0001
0010
0100
0010
0100
2000
0000
0000
0000
0000
0000
0000
0000
3002
0000
,
0203
0320
0032
0003
0002
0000
2003
3020
2030
3020
0230
0320
0230
0320
2030
3002
,
0000
0000
0000
0203
0000
0000
0302
0000
0000
2003
0000
0000
0000
0000
0000
3100
0000
0000
0001
0000
0010
0000
0100
0000
1000
0000
0000
0010
0000
0000
1000
0000
0100
0000
0010
0000
0001
0000
0000
0000
0000
0000
0100
0000
0000
1000
0000
0000
,
0001
0000
0010
0000
0100
0000
0001
0000
0010
0000
0100
0000
0001
0000
0000
0000
0000
0000
0100
0000
0000
1000
0000
0000
0010
0000
0100
0000
1000
0000
0010
0000
0100
0000
1000
0000
0001
0000
0000
0000
0000
0000
0100
0000
0000
1000
0000
0000
,
0100
0000
1000
0000
0010
0000
0100
0000
1000
0000
0010
0000
0001
0000
0000
0000
0000
0000
0100
0000
0000
1000
0000
0000
0001
0000
0000
0010
0000
0000
0100
0000
0000
1000
0000
0000
0100
0000
0000
0010
0000
0000
0001
0000
0000
0000
0000
0000
,
0001
0000
0000
0000
0000
0000
1000
0000
0000
0001
0000
0000
0100
0000
0000
0001
0000
0000
0010
0000
0000
1000
0000
0000
0100
0000
0000
0010
0000
0000
0001
0000
0000
1000
0000
0000
0100
0000
0000
0010
0000
0000
0001
0000
0010
0000
0100
0000
,
1000
0010
0100
0001
0010
0100
1000
0010
0100
0001
0010
0100
0001
0010
0100
0010
0100
1000
0010
0100
1000
0200
0000
0000
,
0000
0000
0000
0000
0000
0000
0310
0000
0000
0020
0000
0000
0000
0000
0000
0000
0000
0000
0000
0000
0000
1030
0100
0010
,
0001
0010
0100
1000
0100
0010
0001
0010
0100
0010
0100
1000
0002
1003
0001
1000
,
0020
0000
0000
1030
0000
0000
0001
0000
0000
1000
0000
0000
0200
0000
0000
1300
0000
0000
0001
0000
0000
0010
0000
0000
0100
0000
0000
1000
0000
0000
0001
0000
0000
0010
0000
0000
0100
0000
0000
1000
0000
0000
0001
0000
0100
0000
1000
0000
,
0001
0000
0010
0000
0100
0000
1000
0000
0100
0000
0010
0000
0001
0000
1000
0000
0001
0000
1000
0000
0100
0000
0010
0000
0002
0000
0000
0000
0000
0000
0000
0000
0000
0000
0000
0000
0000
0000
0000
0003
0000
0000
1000
0000
0100
0000
0010
0000
,
0001
0100
0010
1000
0100
0010
0100
0010
0001
1000
0010
0001
0100
0001
1000
0001
0010
0100
1000
0100
0010
0001
0010
0100
,
1000
0010
0100
1000
0001
0100
1000
0001
0010
1000
0001
0010
0100
0001
0010
0100
1000
0010
0100
1000
0001
1000
0100
0010
,
0001
0000
0100
0000
0010
0000
1000
0000
0100
0000
0010
0000
0100
0000
0010
0000
0001
0000
1000
0000
0000
0000
0000
0000
0100
0000
0000
0000
0000
0000
0010
0000
0000
1000
0000
0000
0010
0000
0000
0000
0000
0000
0001
0000
0010
0000
0100
0000
,
1000
0000
0100
0000
0010
0000
0001
0000
0010
0000
0100
0000
1000
0000
0010
0000
0100
0000
2000
0000
0000
0000
0000
0000
0001
0000
0000
0001
0000
0000
0001
0000
0000
0001
0000
0000
0001
0000
0000
0001
0000
0000
3110
0000
0000
0000
0000
0000
,
0110
0000
1000
0000
0001
0010
0100
0000
1001
0000
0010
0000
1001
0000
0100
0000
,
1001
0000
0010
0000
1001
0000
0100
0000
1001
0000
0010
0000
1001
0000
0100
0010
,
0100
0000
0000
0010
0000
0000
0100
0000
0000
0010
0000
0000
0100
0000
0000
0010
0001
0000
0010
0000
0100
0000
1000
0000
0100
0000
0010
0000
0001
0000
0010
0000
0100
0000
1000
0000
0100
0000
0010
0000
0001
0000
0010
0000
0100
0000
1000
0000
,
0100
0010
0001
0010
0100
1000
0100
0010
0001
0010
0100
1000
0100
0010
0001
0010
0100
1000
0100
0010
0001
0010
0100
1000
,
0001
0010
0200
0000
0000
0000
0300
0000
0001
0010
0100
1000
0100
0010
0001
0010
0100
1000
0100
0010
0001
0010
0100
1000
,
0100
0010
0001
0010
0100
1000
0100
0010
0001
0010
0100
1000
0100
0010
0001
0010
0100
1000
0100
0010
0001
0010
0100
1000
,
0001
0000
0010
0000
0200
0000
0000
0000
0000
0000
0000
0000
0300
0000
0000
0000
0000
0000
1000
0000
0000
0100
0000
0000
0010
0000
0000
0001
0000
0000
0100
0000
0000
0000
0000
0000
1000
0000
0000
0100
0000
0000
0010
0000
0000
0000
0000
0000
,
0100
0000
0010
0000
0001
0000
0000
0000
0010
0000
0001
0000
2000
0000
0000
0000
0000
3000
0000
2000
0000
0000
0000
0000
3000
0000
2000
0000
0000
0000
0000
0000
,
0000
0000
0000
0000
0000
3000
0001
0010
0100
1000
0001
0010
0100
1000
0010
0001
,
0010
0000
0100
0000
0000
0000
0100
0000
1000
0000
0000
0000
0002
0000
0000
0000
0000
0000
0000
0000
0000
0003
0000
0002
0000
0000
0003
0000
0002
0000
0000
0000
,
0000
0000
0000
0000
0000
0000
0000
0000
0000
0003
0000
0000
0010
0000
0100
0000
1000
0000
0100
0000
0010
0000
0001
0000
0010
0000
0100
0000
0010
0000
0001
0000
0010
0000
0100
0000
1000
0000
0100
0000
0010
0000
0100
0000
1000
0000
0100
0000
,
0010
0001
1000
0100
0010
0001
1000
0100
0010
0001
0010
0100
1000
0010
0100
1000
0001
0100
1000
0001
0010
1000
0001
0010
,
0100
0010
0001
0010
0100
1000
0100
0010
0001
0010
0000
1000
0001
0100
0001
0010
,
0001
1000
0001
0100
0001
0010
0100
0001
0100
0001
0100
0000
1000
0001
1000
0001
,
1000
0000
0000
0000
;

//---------------dance-single - Copied from----------------
#NOTES:
     dance-single:
     Copied from:
     Edit:
     14:
     1.000,1.000,0.308,0.326,1.000,1922.000,86.000,91.000,0.000,16.000:
0110
0000
0000
0000
0001
1000
0000
1000
0001
0010
0100
1000
0100
0010
0001
0010
,
0100
1000
0100
0010
0002
0000
0000
0000
1003
0100
0010
0001
1000
0100
0010
0001
,
1010
0000
0000
0000
0202
0000
0000
0000
1303
0010
0100
0010
0001
0010
0100
0010
,
1000
0010
0100
0010
0002
0000
0000
0000
1003
0100
0010
0001
1000
0100
0010
0001
,
0110
0000
0000
0000
1001
0000
0000
0000
0001
0010
0100
1000
0100
0010
0001
0010
,
0100
1000
0100
0010
0002
0000
0000
0000
1003
0100
0010
0001
1000
0100
0010
0001
,
1010
0000
0000
0000
0202
0000
0000
0000
1303
0010
0100
0010
0001
0010
0100
0010
,
1000
0010
0100
0010
0002
0000
0000
0000
1103
0000
0000
0000
1010
0000
0000
0000
,
0101
0000
0000
0000
0011
0000
0000
0000
1000
0100
1000
0100
1000
0100
1000
0100
,
0001
0010
0001
0010
0001
0010
0001
0010
1000
0100
1000
0100
1000
0100
1000
0100
,
0001
0010
0001
0010
0001
0010
0001
0010
1000
0001
1000
0001
1000
0001
1000
0001
,
0010
0100
0010
0100
0010
0100
0010
0100
1000
0100
1000
0100
1000
0100
1000
0100
,
0001
0010
0001
0010
0001
0010
0001
0010
1000
0100
1000
0100
1000
0100
1000
0100
,
0001
0010
0001
0010
0001
0010
0001
0010
1000
0100
1000
0100
1000
0100
1000
0100
,
0001
0010
0001
0010
0001
0010
0001
0010
1000
0001
1000
0001
1000
0001
1000
0001
,
0010
0100
0010
0100
0010
0100
0010
0100
1000
0100
1000
0100
1000
0100
1000
0100
,
0001
0010
0001
0010
0001
0010
0001
0010
1000
0100
0010
0001
0010
0100
1000
0100
,
0010
0001
0010
0100
1000
0100
0022
0000
0000
0000
0000
0000
0000
0000
0000
0000
,
1133
0000
0000
0000
0001
0100
1000
0010
0100
0001
0010
1000
0001
1000
0100
1000
,
0010
0100
1000
0010
0001
0100
1000
0010
0100
0001
0010
1000
0001
1000
0100
1000
,
0010
0100
1000
0010
1000
0000
0001
0000
1000
0000
0001
0010
0100
0000
0001
0010
,
0100
1000
0100
0010
0001
0000
1000
0000
0001
0000
1000
0100
0010
0000
1000
0100
,
0010
0000
0001
0000
0001
0100
1000
0010
0100
0001
0010
1000
0001
1000
0100
1000
,
0010
0100
1000
0010
0001
0100
1000
0010
0100
0001
0010
1000
0001
1000
0100
1000
,
0010
0100
1000
0010
1000
0000
0001
0000
1000
0000
0001
0010
0100
0000
0001
0010
,
0100
1000
0100
0010
0001
0000
1000
0000
0001
0000
1000
0100
0010
0000
1000
0100
,
0010
0000
0001
0000
2000
0000
0000
0000
0000
0000
3100
0010
0001
0000
1000
0100
,
0010
0001
0010
0100
2000
0000
0000
0000
0000
0000
3100
0010
0001
0000
1000
0010
,
0100
0001
0010
0100
1000
0100
0010
0001
1000
0010
0100
0001
1000
0100
0010
0001
,
0100
0010
1000
0001
1000
0100
0010
0001
1000
0010
0100
0001
0010
0100
1000
0100
,
0010
0001
0010
0100
2000
0000
0000
0000
0000
0000
3100
0010
0001
0000
1000
0100
,
0010
0001
0010
0100
2000
0000
0000
0000
0000
0000
3100
0010
0001
0000
1000
0010
,
0100
0001
0010
0100
1000
0100
0010
0001
1000
0010
0100
0001
1000
0100
0010
0001
,
0100
0010
1000
0001
1000
0100
0010
0001
1000
0010
0100
0001
0010
0100
1000
0001
,
1000
0001
1000
0001
0110
0000
0002
0000
0000
0000
0000
0000
0113
0000
0100
0010
,
0002
0000
2003
0000
3110
0002
0000
0000
,
0113
0000
0000
0000
0002
0000
0000
0000
2003
0000
0000
0000
3110
0000
0001
0100
,
0001
0000
1000
0100
1000
0000
0100
0010
0100
0000
1000
0100
1000
0000
0100
0010
,
0100
0000
1000
0000
0001
0010
0100
1000
0001
0010
0100
1000
0110
0000
0001
0100
,
0001
0000
1000
0100
1000
0000
0100
0010
0100
0000
1000
0100
1000
0000
0100
0010
,
0100
0000
1000
0000
1001
0010
0100
1000
0100
0010
1001
0010
0100
1000
0100
0010
,
1001
0010
0100
1000
0110
0000
0001
0100
0001
0000
1000
0100
1000
0000
0100
0010
,
0100
0000
1000
0100
1000
0000
0100
0010
0100
0000
1000
0000
0001
0010
0100
1000
,
0001
0010
0100
1000
0110
0000
0001
0100
0001
0000
1000
0100
1000
0000
0100
0010
,
0100
0000
1000
0100
1000
0000
0100
0010
0100
0000
1000
0000
0011
1000
0001
1000
,
0001
1000
0110
1000
0001
1000
0001
1000
0101
0010
0100
1000
0011
1000
0001
1000
,
0001
1000
0110
1000
0001
1000
0001
1000
0101
0000
0010
0000
0010
0000
0100
0000
,
0010
0000
0001
1000
0000
0001
1000
0100
0010
0001
0010
0100
1000
0100
0010
0000
,
1000
0000
0001
0010
0100
1000
0000
0001
1000
0000
0001
0000
1000
0100
0010
0000
,
0001
0000
1000
0100
0010
0000
1000
0100
0010
0000
0001
0000
0110
0000
0000
0000
,
0001
0100
1000
0010
0100
0001
0010
1000
0001
1000
0100
1000
0010
0100
1000
0010
,
0001
0100
1000
0010
0100
0001
0010
1000
0001
1000
0100
1000
0010
0100
1000
0010
,
1000
0000
0001
0000
1000
0000
0001
0010
0100
0000
0001
0010
0100
1000
0100
0010
,
0001
0000
1000
0000
0001
0000
1000
0100
0010
0000
1000
0100
0010
0000
0001
0000
,
0001
0100
1000
0010
0100
0001
0010
1000
0001
1000
0100
1000
0010
0100
1000
0010
,
0001
0100
1000
0010
0100
0001
0010
1000
0001
1000
0100
1000
0010
0100
1000
0010
,
1000
0000
0001
0000
1000
0000
0001
0010
0100
0000
0001
0010
0100
1000
0100
0010
,
0001
1000
0001
2000
0000
0000
0000
0000
,
3010
0001
0010
0100
0000
0100
1000
0000
,
0100
0000
1000
0000
0100
0000
0010
0000
0000
0000
0010
0000
0002
0000
0000
0003
,
0010
0000
0001
0000
0010
0000
0100
0000
0000
0000
0100
0000
1000
0000
0001
0010
,
0100
1000
0100
0010
0001
0010
0100
1000
0100
0010
0001
1000
0001
1000
0001
1000
,
0100
1000
0100
0010
0000
0010
0001
0000
,
0010
0001
0010
0100
0000
0100
1000
0000
,
0100
0000
1000
0000
0100
0000
0010
0000
0000
0000
0010
0000
0001
0000
1000
0100
,
0001
0010
1000
0100
0010
0001
1000
0100
0001
0010
1000
0100
0010
0001
1000
0100
,
0001
0010
0100
1000
0100
0010
0001
0010
0100
1000
0100
0010
0002
0000
0000
0000
,
1003
0100
0010
0001
1000
0100
0010
0001
1010
0000
0000
0000
0202
0000
0000
0000
,
1303
0010
0100
0010
0001
0010
0100
0010
1000
0010
0100
0010
0002
0000
0000
0000
,
1003
0100
0010
0001
1000
0100
0010
0001
0110
0000
0000
0000
1001
0000
0000
0000
,
0001
0010
0100
1000
0100
0010
0001
0010
0100
1000
0100
0010
0002
0000
0000
0000
,
1003
0100
0010
0001
1000
0100
0010
0001
1010
0000
0000
0000
0202
0000
0000
0000
,
1303
0010
0100
0010
0001
0010
0100
0010
1000
0010
0100
0010
0002
0000
0000
0000
,
1103
1010
0101
0011
,
2000
0000
0000
0000
0000
0000
3100
0010
0001
0000
1000
0100
0010
0001
0010
0100
,
2000
0000
0000
0000
0000
0000
3100
0010
0001
0000
1000
0010
0100
0001
0010
0100
,
1000
0100
0010
0001
1000
0010
0100
0001
1000
0100
0010
0001
0100
0010
1000
0001
,
1000
0100
0010
0001
1000
0010
0100
0001
0010
0100
1000
0100
0010
0001
0010
0100
,
2000
0000
0000
0000
0000
0000
3100
0010
0001
0000
1000
0100
0010
0001
0010
0100
,
2000
0000
0000
0000
0000
0000
3100
0010
0001
0000
1000
0010
0100
0001
0010
0100
,
1000
0100
0010
0001
1000
0010
0100
0001
1000
0100
0010
0001
0100
0010
1000
0001
,
1000
0100
0010
0001
1000
0010
0100
0001
0010
0100
1000
0001
1000
0001
1000
0001
,
0110
0000
0002
0000
0000
0000
0000
0000
0113
0000
0100
0010
0002
0000
0000
0000
,
2003
0000
3110
0002
0000
0000
0113
0000
,
0002
0000
0000
0000
2003
0000
0000
0000
3110
0000
0001
0100
0001
0000
1000
0100
,
1000
0000
0100
0010
0100
0000
1000
0100
1000
0000
0100
0010
0100
0000
1000
0000
,
0001
0010
0100
1000
0001
0010
0100
1000
0110
0000
0001
0100
0001
0000
1000
0100
,
1000
0000
0100
0010
0100
0000
1000
0100
1000
0000
0100
0010
0100
0000
1000
0000
,
1001
0010
0100
1000
0100
0010
1001
0010
0100
1000
0100
0010
1001
0010
0100
1000
,
0110
0000
0001
0100
0001
0000
1000
0100
1000
0000
0100
0010
0100
0000
1000
0100
,
1000
0000
0100
0010
0100
0000
1000
0000
0001
0010
0100
1000
0001
0010
0100
1000
,
0110
0000
0001
0100
0001
0000
1000
0100
1000
0000
0100
0010
0100
0000
1000
0100
,
1000
0000
0100
0010
0100
0000
1000
0000
0011
1000
0001
1000
0001
1000
0110
1000
,
0001
1000
0001
1000
0101
0010
0100
1000
0011
1000
0001
1000
0001
1000
0110
1000
,
0001
1000
0001
1000
0101
1000
0100
0010
0001
0010
0100
1000
0001
0010
0100
1000
,
0100
0000
0010
0000
0001
0000
1000
0000
0200
0300
0020
0030
0001
0000
1000
0000
0002
0003
0020
0030
1000
0000
0100
0000
0010
0000
0001
0000
1000
0000
0100
0000
,
1000
0010
1000
0001
1000
0010
1000
0100
0011
0000
0000
0000
0101
0000
0000
0000
,
1010
0000
1100
0000
0001
1000
0010
1000
,
0200
0000
0000
0000
,
0000
0000
0000
0000
,
0000
0000
0000
0310
0000
0000
0001
0000
0000
0000
0000
0000
2000
0000
0000
0000
0000
0000
0000
0000
0000
0000
0000
0000
0010
0000
0010
0000
0010
0000
3010
0000
0000
0001
0000
0000
0020
0000
0000
0000
0000
0000
0000
0000
0000
0000
0000
0000
,
0000
0000
0000
0000
0000
0000
0000
0000
0000
0000
0000
0000
1030
0000
0100
0000
0010
0000
0001
0000
0000
0100
0000
0000
1000
0000
0000
0010
0000
0000
0001
0000
0000
0100
0000
0000
1000
0000
0000
0010
0000
0000
1000
0000
0100
0000
0001
0000
,
1000
0000
0100
0000
0001
0000
1000
0000
0010
0000
0100
0000
0001
0000
0000
0010
0000
0000
0100
0000
0000
1000
0000
0000
0010
0000
0000
0000
0000
0000
0001
0000
0000
0010
0000
0000
0100
0000
0000
1000
0000
0000
0010
0000
0000
0100
0000
0000
,
0000
0010
0100
1000
0100
0010
0100
0010
0001
0010
0001
1000
0001
1000
0100
1000
,
0002
0000
0000
0000
0000
0000
1003
0100
0010
0001
0010
0100
0001
0010
0100
0001
0010
0100
1000
0100
0010
0001
0100
0010
,
1000
0100
0010
0001
0100
0010
1000
0100
0010
0100
0010
0001
0010
0100
1000
0001
0010
0100
2000
0000
0000
0000
0000
0000
,
0000
0000
0000
0000
0000
0000
3001
0010
0100
1000
0100
0001
0010
0001
0000
0000
0000
0000
0010
0100
1000
0001
1000
0010
,
0100
0010
0000
0000
0000
0000
0001
0010
0100
0001
0010
0100
0010
0100
1000
0010
0100
1000
0100
1000
0001
0100
1000
0001
,
2000
0000
0000
3010
0000
0000
0200
0000
0000
0000
0000
0000
0000
0000
0000
1300
0000
0000
0001
0010
0100
1000
0010
0001
,
0000
1000
0000
0000
0001
0000
0000
1000
0000
0000
0002
0000
0000
0000
0000
0000
0000
0000
1003
0000
0100
0000
0010
0000
0001
0000
0010
0000
0100
0000
0002
0000
0013
0000
0100
0000
1000
0000
0100
0000
0010
0000
0001
0000
0100
0000
1000
0000
,
0001
0000
0100
0000
1000
0000
0001
0000
0100
0000
1000
0000
0002
0000
0000
0000
0000
0000
0000
0000
0000
0000
0000
0000
0000
0000
0000
0000
0000
0000
2003
0000
0000
0000
0000
0000
0000
0000
0000
3000
0000
0000
0200
0000
0000
0000
0000
0000
,
0000
0000
0000
0300
0000
0000
0020
0000
0000
0000
0000
0000
1030
0000
0100
0000
0010
0000
1000
0000
0100
0000
0010
0000
0001
0000
0010
0000
0100
0000
0001
0000
0010
0000
0100
0000
0001
0000
0010
0000
0100
0000
1000
0000
0100
0000
0010
0000
,
0001
0010
0100
1000
0100
0010
0001
0010
0100
1000
0100
0010
0001
0010
0100
1000
0100
0010
0001
0010
0100
1000
0100
0010
,
0001
0010
0100
1000
0100
0010
0001
0010
0100
1000
0100
0010
0001
0010
0100
1000
0100
0010
0001
0010
0100
1000
0100
0010
,
0001
0000
0010
0000
0100
0000
1000
0000
0100
0000
0010
0000
0001
0000
0010
0000
0100
0000
1000
0000
0100
0000
0010
0000
0001
0000
0010
0000
0100
0000
1000
0000
0100
0000
0010
0000
0001
0000
0000
0002
0000
0000
1000
0000
0100
0000
0013
0000
,
1000
0000
0100
0000
0001
0000
1000
0000
0010
0000
0001
0000
1000
0000
0000
0100
0000
0000
0001
0000
0000
0010
0000
0000
1000
0000
0000
0100
0000
0000
0020
0000
0000
0000
0000
0000
0031
0000
0010
0000
0100
0000
0001
0000
0010
0000
0100
0000
,
0010
0000
0100
0000
1000
0000
0010
0000
0100
0000
1000
0000
0100
0000
1000
0000
0001
0000
0100
0000
1000
0000
0001
0000
1000
0000
0001
0000
0010
0000
1000
0000
0001
0000
0010
0000
0001
0000
0010
0000
0100
0000
1000
0000
0000
0100
0000
0000
,
0010
0001
0010
0100
0010
0100
1000
0010
0100
0001
0010
0100
0010
0100
1000
0100
,
0010
0001
0010
0100
0010
0100
2000
0000
0000
0000
0000
0000
0000
0000
3002
0000
,
0203
0320
0032
0003
0002
0000
2003
3020
2030
3020
0230
0320
0230
0320
2030
3002
,
0000
0000
0000
0203
0000
0000
0302
0000
0000
2003
0000
0000
0000
0000
0000
3100
0000
0000
0001
0000
0010
0000
0100
0000
1000
0000
0000
0010
0000
0000
1000
0000
0100
0000
0010
0000
0001
0000
0000
0000
0000
0000
0100
0000
0000
1000
0000
0000
,
0001
0000
0010
0000
0100
0000
0001
0000
0010
0000
0100
0000
0001
0000
0000
0000
0000
0000
0100
0000
0000
1000
0000
0000
0010
0000
0100
0000
1000
0000
0010
0000
0100
0000
1000
0000
0001
0000
0000
0000
0000
0000
0100
0000
0000
1000
0000
0000
,
0100
0000
1000
0000
0010
0000
0100
0000
1000
0000
0010
0000
0001
0000
0000
0000
0000
0000
0100
0000
0000
1000
0000
0000
0001
0000
0000
0010
0000
0000
0100
0000
0000
1000
0000
0000
0100
0000
0000
0010
0000
0000
0001
0000
0000
0000
0000
0000
,
0001
0000
0000
0000
0000
0000
1000
0000
0000
0001
0000
0000
0100
0000
0000
0001
0000
0000
0010
0000
0000
1000
0000
0000
0100
0000
0000
0010
0000
0000
0001
0000
0000
1000
0000
0000
0100
0000
0000
0010
0000
0000
0001
0000
0010
0000
0100
0000
,
1000
0010
0100
0001
0010
0100
1000
0010
0100
0001
0010
0100
0001
0010
0100
0010
0100
1000
0010
0100
1000
0200
0000
0000
,
0000
0000
0000
0000
0000
0000
0310
0000
0000
0020
0000
0000
0000
0000
0000
0000
0000
0000
0000
0000
0000
1030
0100
0010
,
0001
0010
0100
1000
0100
0010
0001
0010
0100
0010
0100
1000
0002
1003
0001
1000
,
0020
0000
0000
1030
0000
0000
0001
0000
0000
1000
0000
0000
0200
0000
0000
1300
0000
0000
0001
0000
0000
0010
0000
0000
0100
0000
0000
1000
0000
0000
0001
0000
0000
0010
0000
0000
0100
0000
0000
1000
0000
0000
0001
0000
0100
0000
1000
0000
,
0001
0000
0010
0000
0100
0000
1000
0000
0100
0000
0010
0000
0001
0000
1000
0000
0001
0000
1000
0000
0100
0000
0010
0000
0002
0000
0000
0000
0000
0000
0000
0000
0000
0000
0000
0000
0000
0000
0000
0003
0000
0000
1000
0000
0100
0000
0010
0000
,
0001
0100
0010
1000
0100
0010
0100
0010
0001
1000
0010
0001
0100
0001
1000
0001
0010
0100
1000
0100
0010
0001
0010
0100
,
1000
0010
0100
1000
0001
0100
1000
0001
0010
1000
0001
0010
0100
0001
0010
0100
1000
0010
0100
1000
0001
1000
0100
0010
,
0001
0000
0100
0000
0010
0000
1000
0000
0100
0000
0010
0000
0100
0000
0010
0000
0001
0000
1000
0000
0000
0000
0000
0000
0100
0000
0000
0000
0000
0000
0010
0000
0000
1000
0000
0000
0010
0000
0000
0000
0000
0000
0001
0000
0010
0000
0100
0000
,
1000
0000
0100
0000
0010
0000
0001
0000
0010
0000
0100
0000
1000
0000
0010
0000
0100
0000
2000
0000
0000
0000
0000
0000
0001
0000
0000
0001
0000
0000
0001
0000
0000
0001
0000
0000
0001
0000
0000
0001
0000
0000
3110
0000
0000
0000
0000
0000
,
0110
0000
1000
0000
0001
0010
0100
0000
1001
0000
0010
0000
1001
0000
0100
0000
,
1001
0000
0010
0000
1001
0000
0100
0000
1001
0000
0010
0000
1001
0000
0100
0010
,
0100
0010
0100
0010
0100
0010
1100
1000
1000
1000
0011
0001
0001
0001
1100
1000
,
1000
1000
0110
0010
0010
0010
0101
0100
0100
0100
0011
0001
0001
0001
0011
0001
,
0001
0001
0101
0100
0100
0000
1100
1000
1000
1000
0011
0001
0001
0001
1100
1000
,
1000
1000
0110
0010
0010
0010
0101
0100
0100
0100
0011
0001
0001
0001
0011
0001
,
0001
0001
0101
0100
0100
0000
1000
0100
0010
0001
0100
0000
1000
0100
0010
0000
,
0100
0000
0010
0000
0001
0000
0000
0000
0010
0000
0001
0000
2000
0000
0000
0000
0000
3000
0000
2000
0000
0000
0000
0000
3000
0000
2000
0000
0000
0000
0000
0000
,
0000
0000
0000
0000
0000
3000
0001
0010
0100
1000
0001
0010
0100
1000
0010
0001
,
0010
0000
0100
0000
0000
0000
0100
0000
1000
0000
0000
0000
0002
0000
0000
0000
0000
0000
0000
0000
0000
0003
0000
0002
0000
0000
0003
0000
0002
0000
0000
0000
,
0000
0000
0000
0000
0000
0000
0000
0000
0000
0003
0000
0000
0010
0000
0100
0000
1000
0000
0100
0000
0010
0000
0001
0000
0010
0000
0100
0000
0010
0000
0001
0000
0010
0000
0100
0000
1000
0000
0100
0000
0010
0000
0100
0000
1000
0000
0100
0000
,
0010
0001
1000
0100
0010
0001
1000
0100
0010
0001
0010
0100
1000
0010
0100
1000
0001
0100
1000
0001
0010
1000
0001
0010
,
0100
0010
0001
0010
0100
1000
0100
0010
0001
0010
0000
1000
0001
0100
0001
0010
,
0001
1000
0001
0100
0001
0010
0100
0001
0100
0001
0100
0000
1000
0001
1000
0001
,
1000
0000
0000
0000
;

//---------------dance-single - Copied from----------------
#NOTES:
     dance-single:
     Copied from:
     Medium:
     13:
     1.000,1.000,0.250,0.333,1.000,1922.000,70.000,93.000,0.000,16.000:
0110
0000
0000
0000
0001
1000
0000
1000
0001
0010
0100
1000
0100
0010
0001
0010
,
0100
1000
0100
0010
0002
0000
0000
0000
1003
0100
0010
0001
1000
0100
0010
0001
,
1010
0000
0000
0000
0202
0000
0000
0000
1303
0010
0100
0010
0001
0010
0100
0010
,
1000
0010
0100
0010
0002
0000
0000
0000
1003
0100
0010
0001
1000
0100
0010
0001
,
0110
0000
0000
0000
1001
0000
0000
0000
0001
0010
0100
1000
0100
0010
0001
0010
,
0100
1000
0100
0010
0002
0000
0000
0000
1003
0100
0010
0001
1000
0100
0010
0001
,
1010
0000
0000
0000
0202
0000
0000
0000
1303
0010
0100
0010
0001
0010
0100
0010
,
1000
0010
0100
0010
0002
0000
0000
0000
1103
0000
0000
0000
1010
0000
0000
0000
,
0101
0000
0000
0000
0011
0000
0000
0000
1000
0100
1000
0100
1000
0100
1000
0100
,
0001
0010
0001
0010
0001
0010
0001
0010
1000
0100
1000
0100
1000
0100
1000
0100
,
0001
0010
0001
0010
0001
0010
0001
0010
1000
0001
1000
0001
1000
0001
1000
0001
,
0010
0100
0010
0100
0010
0100
0010
0100
1000
0100
1000
0100
1000
0100
1000
0100
,
0001
0010
0001
0010
0001
0010
0001
0010
1000
0100
1000
0100
1000
0100
1000
0100
,
0001
0010
0001
0010
0001
0010
0001
0010
1000
0100
1000
0100
1000
0100
1000
0100
,
0001
0010
0001
0010
0001
0010
0001
0010
1000
0001
1000
0001
1000
0001
1000
0001
,
0010
0100
0010
0100
0010
0100
0010
0100
1000
0100
1000
0100
1000
0100
1000
0100
,
0001
0010
0001
0010
0001
0010
0001
0010
1000
0100
0010
0001
0010
0100
1000
0100
,
0010
0001
0010
0100
1000
0100
0022
0000
0000
0000
0000
0000
0000
0000
0000
0000
,
1133
0000
0000
0000
0001
0100
1000
0010
0100
0001
0010
1000
0001
1000
0100
1000
,
0010
0100
1000
0010
0001
0100
1000
0010
0100
0001
0010
1000
0001
1000
0100
1000
,
0010
0100
1000
0010
1000
0000
0001
0000
1000
0000
0001
0010
0100
0000
0001
0010
,
0100
1000
0100
0010
0001
0000
1000
0000
0001
0000
1000
0100
0010
0000
1000
0100
,
0010
0000
0001
0000
0001
0100
1000
0010
0100
0001
0010
1000
0001
1000
0100
1000
,
0010
0100
1000
0010
0001
0100
1000
0010
0100
0001
0010
1000
0001
1000
0100
1000
,
0010
0100
1000
0010
1000
0000
0001
0000
1000
0000
0001
0010
0100
0000
0001
0010
,
0100
1000
0100
0010
0001
0000
1000
0000
0001
0000
1000
0100
0010
0000
1000
0100
,
0010
0000
0001
0000
2000
0000
0000
0000
0000
0000
3100
0010
0001
0000
1000
0100
,
0010
0001
0010
0100
2000
0000
0000
0000
0000
0000
3100
0010
0001
0000
1000
0010
,
0100
0001
0010
0100
1000
0100
0010
0001
1000
0010
0100
0001
1000
0100
0010
0001
,
0100
0010
1000
0001
1000
0100
0010
0001
1000
0010
0100
0001
0010
0100
1000
0100
,
0010
0001
0010
0100
2000
0000
0000
0000
0000
0000
3100
0010
0001
0000
1000
0100
,
0010
0001
0010
0100
2000
0000
0000
0000
0000
0000
3100
0010
0001
0000
1000
0010
,
0100
0001
0010
0100
1000
0100
0010
0001
1000
0010
0100
0001
1000
0100
0010
0001
,
0100
0010
1000
0001
1000
0100
0010
0001
1000
0010
0100
0001
0010
0100
1000
0001
,
1000
0001
1000
0001
0110
0000
0002
0000
0000
0000
0000
0000
0113
0000
0100
0010
,
0002
0000
2003
0000
3110
0002
0000
0000
,
0113
0000
0000
0000
0002
0000
0000
0000
2003
0000
0000
0000
3110
0000
0001
0100
,
0001
0000
1000
0100
1000
0000
0100
0010
0100
0000
1000
0100
1000
0000
0100
0010
,
0100
0000
1000
0000
0001
0010
0100
1000
0001
0010
0100
1000
0110
0000
0001
0100
,
0001
0000
1000
0100
1000
0000
0100
0010
0100
0000
1000
0100
1000
0000
0100
0010
,
0100
0000
1000
0000
1001
0010
0100
1000
0100
0010
1001
0010
0100
1000
0100
0010
,
1001
0010
0100
1000
0110
0000
0001
0100
0001
0000
1000
0100
1000
0000
0100
0010
,
0100
0000
1000
0100
1000
0000
0100
0010
0100
0000
1000
0000
0001
0010
0100
1000
,
0001
0010
0100
1000
0110
0000
0001
0100
0001
0000
1000
0100
1000
0000
0100
0010
,
0100
0000
1000
0100
1000
0000
0100
0010
0100
0000
1000
0000
0011
1000
0001
1000
,
0001
1000
0110
1000
0001
1000
0001
1000
0101
0010
0100
1000
0011
1000
0001
1000
,
0001
1000
0110
1000
0001
1000
0001
1000
0101
0000
0010
0000
0010
0000
0100
0000
,
0010
0000
0001
1000
0000
0001
1000
0100
0010
0001
0010
0100
1000
0100
0010
0000
,
1000
0000
0001
0010
0100
1000
0000
0001
1000
0000
0001
0000
1000
0100
0010
0000
,
0001
0000
1000
0100
0010
0000
1000
0100
0010
0000
0001
0000
0110
0000
0000
0000
,
0001
0100
1000
0010
0100
0001
0010
1000
0001
1000
0100
1000
0010
0100
1000
0010
,
0001
0100
1000
0010
0100
0001
0010
1000
0001
1000
0100
1000
0010
0100
1000
0010
,
1000
0000
0001
0000
1000
0000
0001
0010
0100
0000
0001
0010
0100
1000
0100
0010
,
0001
0000
1000
0000
0001
0000
1000
0100
0010
0000
1000
0100
0010
0000
0001
0000
,
0001
0100
1000
0010
0100
0001
0010
1000
0001
1000
0100
1000
0010
0100
1000
0010
,
0001
0100
1000
0010
0100
0001
0010
1000
0001
1000
0100
1000
0010
0100
1000
0010
,
1000
0000
0001
0000
1000
0000
0001
0010
0100
0000
0001
0010
0100
1000
0100
0010
,
0001
1000
0001
2000
0000
0000
0000
0000
,
3010
0001
0010
0100
0000
0100
1000
0000
,
0100
0000
1000
0000
0100
0000
0010
0000
0000
0000
0010
0000
0002
0000
0000
0003
,
0010
0000
0001
0000
0010
0000
0100
0000
0000
0000
0100
0000
1000
0000
0001
0010
,
0100
1000
0100
0010
0001
0010
0100
1000
0100
0010
0001
1000
0001
1000
0001
1000
,
0100
1000
0100
0010
0000
0010
0001
0000
,
0010
0001
0010
0100
0000
0100
1000
0000
,
0100
0000
1000
0000
0100
0000
0010
0000
0000
0000
0010
0000
0001
0000
1000
0100
,
0001
0010
1000
0100
0010
0001
1000
0100
0001
0010
1000
0100
0010
0001
1000
0100
,
0001
0010
0100
1000
0100
0010
0001
0010
0100
1000
0100
0010
0002
0000
0000
0000
,
1003
0100
0010
0001
1000
0100
0010
0001
1010
0000
0000
0000
0202
0000
0000
0000
,
1303
0010
0100
0010
0001
0010
0100
0010
1000
0010
0100
0010
0002
0000
0000
0000
,
1003
0100
0010
0001
1000
0100
0010
0001
0110
0000
0000
0000
1001
0000
0000
0000
,
0001
0010
0100
1000
0100
0010
0001
0010
0100
1000
0100
0010
0002
0000
0000
0000
,
1003
0100
0010
0001
1000
0100
0010
0001
1010
0000
0000
0000
0202
0000
0000
0000
,
1303
0010
0100
0010
0001
0010
0100
0010
1000
0010
0100
0010
0002
0000
0000
0000
,
1103
1010
0101
0011
,
2000
0000
0000
0000
0000
0000
3100
0010
0001
0000
1000
0100
0010
0001
0010
0100
,
2000
0000
0000
0000
0000
0000
3100
0010
0001
0000
1000
0010
0100
0001
0010
0100
,
1000
0100
0010
0001
1000
0010
0100
0001
1000
0100
0010
0001
0100
0010
1000
0001
,
1000
0100
0010
0001
1000
0010
0100
0001
0010
0100
1000
0100
0010
0001
0010
0100
,
2000
0000
0000
0000
0000
0000
3100
0010
0001
0000
1000
0100
0010
0001
0010
0100
,
2000
0000
0000
0000
0000
0000
3100
0010
0001
0000
1000
0010
0100
0001
0010
0100
,
1000
0100
0010
0001
1000
0010
0100
0001
1000
0100
0010
0001
0100
0010
1000
0001
,
1000
0100
0010
0001
1000
0010
0100
0001
0010
0100
1000
0001
1000
0001
1000
0001
,
0110
0000
0002
0000
0000
0000
0000
0000
0113
0000
0100
0010
0002
0000
0000
0000
,
2003
0000
3110
0002
0000
0000
0113
0000
,
0002
0000
0000
0000
2003
0000
0000
0000
3110
0000
0001
0100
0001
0000
1000
0100
,
1000
0000
0100
0010
0100
0000
1000
0100
1000
0000
0100
0010
0100
0000
1000
0000
,
0001
0010
0100
1000
0001
0010
0100
1000
0110
0000
0001
0100
0001
0000
1000
0100
,
1000
0000
0100
0010
0100
0000
1000
0100
1000
0000
0100
0010
0100
0000
1000
0000
,
1001
0010
0100
1000
0100
0010
1001
0010
0100
1000
0100
0010
1001
0010
0100
1000
,
0110
0000
0001
0100
0001
0000
1000
0100
1000
0000
0100
0010
0100
0000
1000
0100
,
1000
0000
0100
0010
0100
0000
1000
0000
0001
0010
0100
1000
0001
0010
0100
1000
,
0110
0000
0001
0100
0001
0000
1000
0100
1000
0000
0100
0010
0100
0000
1000
0100
,
1000
0000
0100
0010
0100
0000
1000
0000
0011
1000
0001
1000
0001
1000
0110
1000
,
0001
1000
0001
1000
0101
0010
0100
1000
0011
1000
0001
1000
0001
1000
0110
1000
,
0001
1000
0001
1000
0101
1000
0100
0010
0001
0010
0100
1000
0001
0010
0100
1000
,
0100
0000
0010
0000
0001
0000
1000
0000
0200
0300
0020
0030
0001
0000
1000
0000
0002
0003
0020
0030
1000
0000
0100
0000
0010
0000
0001
0000
1000
0000
0100
0000
,
1000
0010
1000
0001
1000
0010
1000
0100
0011
0000
0000
0000
0101
0000
0000
0000
,
1010
0000
1100
0000
0001
1000
0010
1000
,
0200
0000
0000
0000
,
0000
0000
0000
0000
,
0000
0000
0000
0310
0000
0000
0001
0000
0000
0000
0000
0000
2000
0000
0000
0000
0000
0000
0000
0000
0000
0000
0000
0000
0010
0000
0010
0000
0010
0000
3010
0000
0000
0001
0000
0000
0020
0000
0000
0000
0000
0000
0000
0000
0000
0000
0000
0000
,
0000
0000
0000
0000
0000
0000
0000
0000
0000
0000
0000
0000
1030
0000
0100
0000
0010
0000
0001
0000
0000
0100
0000
0000
1000
0000
0000
0010
0000
0000
0001
0000
0000
0100
0000
0000
1000
0000
0000
0010
0000
0000
1000
0000
0100
0000
0001
0000
,
1000
0000
0100
0000
0001
0000
1000
0000
0010
0000
0100
0000
0001
0000
0000
0010
0000
0000
0100
0000
0000
1000
0000
0000
0010
0000
0000
0000
0000
0000
0001
0000
0000
0010
0000
0000
0100
0000
0000
1000
0000
0000
0010
0000
0000
0100
0000
0000
,
0000
0010
0100
1000
0100
0010
0100
0010
0001
0010
0001
1000
0001
1000
0100
1000
,
0002
0000
0000
0000
0000
0000
1003
0100
0010
0001
0010
0100
0001
0010
0100
0001
0010
0100
1000
0100
0010
0001
0100
0010
,
1000
0100
0010
0001
0100
0010
1000
0100
0010
0100
0010
0001
0010
0100
1000
0001
0010
0100
2000
0000
0000
0000
0000
0000
,
0000
0000
0000
0000
0000
0000
3001
0010
0100
1000
0100
0001
0010
0001
0000
0000
0000
0000
0010
0100
1000
0001
1000
0010
,
0100
0010
0000
0000
0000
0000
0001
0010
0100
0001
0010
0100
0010
0100
1000
0010
0100
1000
0100
1000
0001
0100
1000
0001
,
2000
0000
0000
3010
0000
0000
0200
0000
0000
0000
0000
0000
0000
0000
0000
1300
0000
0000
0001
0010
0100
1000
0010
0001
,
0000
1000
0000
0000
0001
0000
0000
1000
0000
0000
0002
0000
0000
0000
0000
0000
0000
0000
1003
0000
0100
0000
0010
0000
0001
0000
0010
0000
0100
0000
0002
0000
0013
0000
0100
0000
1000
0000
0100
0000
0010
0000
0001
0000
0100
0000
1000
0000
,
0001
0000
0100
0000
1000
0000
0001
0000
0100
0000
1000
0000
0002
0000
0000
0000
0000
0000
0000
0000
0000
0000
0000
0000
0000
0000
0000
0000
0000
0000
2003
0000
0000
0000
0000
0000
0000
0000
0000
3000
0000
0000
0200
0000
0000
0000
0000
0000
,
0000
0000
0000
0300
0000
0000
0020
0000
0000
0000
0000
0000
1030
0000
0100
0000
0010
0000
1000
0000
0100
0000
0010
0000
0001
0000
0010
0000
0100
0000
0001
0000
0010
0000
0100
0000
0001
0000
0010
0000
0100
0000
1000
0000
0000
0000
0000
0000
,
0001
0010
0100
1000
0000
0000
0001
0010
0100
1000
0000
0000
0001
0010
0100
1000
0000
0000
0001
0010
0100
1000
0000
0000
,
0001
0010
0100
1000
0000
0000
0001
0010
0100
1000
0000
0000
0001
0010
0100
1000
0000
0000
0001
0010
0100
1000
0000
0000
,
0001
0000
0010
0000
0100
0000
1000
0000
0000
0000
0000
0000
0001
0000
0010
0000
0100
0000
1000
0000
0000
0000
0000
0000
0001
0000
0010
0000
0100
0000
1000
0000
0000
0000
0000
0000
0001
0000
0000
0002
0000
0000
1000
0000
0100
0000
0013
0000
,
1000
0000
0100
0000
0001
0000
1000
0000
0010
0000
0001
0000
1000
0000
0000
0100
0000
0000
0001
0000
0000
0010
0000
0000
1000
0000
0000
0100
0000
0000
0020
0000
0000
0000
0000
0000
0031
0000
0010
0000
0100
0000
0001
0000
0010
0000
0100
0000
,
0010
0000
0100
0000
1000
0000
0010
0000
0100
0000
1000
0000
0100
0000
1000
0000
0001
0000
0100
0000
1000
0000
0001
0000
1000
0000
0001
0000
0010
0000
1000
0000
0001
0000
0010
0000
0001
0000
0010
0000
0100
0000
1000
0000
0000
0100
0000
0000
,
0010
0001
0010
0100
0010
0100
1000
0010
0100
0001
0010
0100
0010
0100
1000
0100
,
0010
0001
0010
0100
0010
0100
2000
0000
0000
0000
0000
0000
0000
0000
3002
0000
,
0203
0320
0032
0003
0002
0000
2003
3020
2030
3020
0230
0320
0230
0320
2030
3002
,
0000
0000
0000
0203
0000
0000
0302
0000
0000
2003
0000
0000
0000
0000
0000
3100
0000
0000
0001
0000
0010
0000
0100
0000
1000
0000
0000
0010
0000
0000
1000
0000
0100
0000
0010
0000
0001
0000
0000
0000
0000
0000
0100
0000
0000
1000
0000
0000
,
0001
0000
0010
0000
0100
0000
0001
0000
0010
0000
0100
0000
0001
0000
0000
0000
0000
0000
0100
0000
0000
1000
0000
0000
0010
0000
0100
0000
1000
0000
0010
0000
0100
0000
1000
0000
0001
0000
0000
0000
0000
0000
0100
0000
0000
1000
0000
0000
,
0100
0000
1000
0000
0010
0000
0100
0000
1000
0000
0010
0000
0001
0000
0000
0000
0000
0000
0100
0000
0000
1000
0000
0000
0001
0000
0000
0010
0000
0000
0100
0000
0000
1000
0000
0000
0100
0000
0000
0010
0000
0000
0001
0000
0000
0000
0000
0000
,
0001
0000
0000
0000
0000
0000
1000
0000
0000
0001
0000
0000
0100
0000
0000
0001
0000
0000
0010
0000
0000
1000
0000
0000
0100
0000
0000
0010
0000
0000
0001
0000
0000
1000
0000
0000
0100
0000
0000
0010
0000
0000
0001
0000
0010
0000
0100
0000
,
1000
0010
0100
0001
0010
0100
1000
0010
0100
0001
0010
0100
0001
0010
0100
0010
0100
1000
0010
0100
1000
0200
0000
0000
,
0000
0000
0000
0000
0000
0000
0310
0000
0000
0020
0000
0000
0000
0000
0000
0000
0000
0000
0000
0000
0000
1030
0100
0010
,
0001
0010
0100
1000
0100
0010
0001
0010
0100
0010
0100
1000
0002
1003
0001
1000
,
0020
0000
0000
1030
0000
0000
0001
0000
0000
1000
0000
0000
0200
0000
0000
1300
0000
0000
0001
0000
0000
0010
0000
0000
0100
0000
0000
1000
0000
0000
0001
0000
0000
0010
0000
0000
0100
0000
0000
1000
0000
0000
0001
0000
0100
0000
1000
0000
,
0001
0000
0010
0000
0100
0000
1000
0000
0100
0000
0010
0000
0001
0000
1000
0000
0001
0000
1000
0000
0100
0000
0010
0000
0002
0000
0000
0000
0000
0000
0000
0000
0000
0000
0000
0000
0000
0000
0000
0003
0000
0000
1000
0000
0100
0000
0010
0000
,
0001
0100
0010
1000
0100
0010
0100
0010
0001
1000
0010
0001
0100
0001
1000
0001
0010
0100
1000
0100
0010
0001
0010
0100
,
1000
0010
0100
1000
0001
0100
1000
0001
0010
1000
0001
0010
0100
0001
0010
0100
1000
0010
0100
1000
0001
1000
0100
0010
,
0001
0000
0100
0000
0010
0000
1000
0000
0100
0000
0010
0000
0100
0000
0010
0000
0001
0000
1000
0000
0000
0000
0000
0000
0100
0000
0000
0000
0000
0000
0010
0000
0000
1000
0000
0000
0010
0000
0000
0000
0000
0000
0001
0000
0010
0000
0100
0000
,
1000
0000
0100
0000
0010
0000
0001
0000
0010
0000
0100
0000
1000
0000
0010
0000
0100
0000
2000
0000
0000
0000
0000
0000
0001
0000
0000
0001
0000
0000
0001
0000
0000
0001
0000
0000
0001
0000
0000
0001
0000
0000
3110
0000
0000
0000
0000
0000
,
0110
0000
1000
0000
0001
0010
0100
0000
1001
0000
0010
0000
1001
0000
0100
0000
,
1001
0000
0010
0000
1001
0000
0100
0000
1001
0000
0010
0000
1001
0000
0100
0010
,
0100
0000
0000
0010
0000
0000
0100
0000
0000
0010
0000
0000
0100
0000
0000
0010
0001
0000
0010
0000
0100
0000
1000
0000
0100
0000
0010
0000
0001
0000
0010
0000
0100
0000
1000
0000
0100
0000
0010
0000
0001
0000
0010
0000
0100
0000
1000
0000
,
0100
0010
0001
0010
0100
1000
0100
0010
0001
0010
0100
1000
0100
0010
0001
0010
0100
1000
0100
0010
0001
0010
0100
1000
,
0001
0010
0200
0000
0000
0000
0300
0000
0001
0010
0100
1000
0100
0010
0001
0010
0100
1000
0100
0010
0001
0010
0100
1000
,
0100
0010
0001
0010
0100
1000
0100
0010
0001
0010
0100
1000
0100
0010
0001
0010
0100
1000
0100
0010
0001
0010
0100
1000
,
0001
0000
0010
0000
0200
0000
0000
0000
0000
0000
0000
0000
0300
0000
0000
0000
0000
0000
1000
0000
0000
0100
0000
0000
0010
0000
0000
0001
0000
0000
0100
0000
0000
0000
0000
0000
1000
0000
0000
0100
0000
0000
0010
0000
0000
0000
0000
0000
,
0100
0000
0010
0000
0001
0000
0000
0000
0010
0000
0001
0000
2000
0000
0000
0000
0000
3000
0000
2000
0000
0000
0000
0000
3000
0000
2000
0000
0000
0000
0000
0000
,
0000
0000
0000
0000
0000
3000
0001
0010
0100
1000
0001
0010
0100
1000
0010
0001
,
0010
0000
0100
0000
0000
0000
0100
0000
1000
0000
0000
0000
0002
0000
0000
0000
0000
0000
0000
0000
0000
0003
0000
0002
0000
0000
0003
0000
0002
0000
0000
0000
,
0000
0000
0000
0000
0000
0000
0000
0000
0000
0003
0000
0000
0010
0000
0100
0000
1000
0000
0100
0000
0010
0000
0001
0000
0010
0000
0100
0000
0010
0000
0001
0000
0010
0000
0100
0000
1000
0000
0100
0000
0010
0000
0100
0000
1000
0000
0100
0000
,
0010
0001
1000
0100
0010
0001
1000
0100
0010
0001
0010
0100
1000
0010
0100
1000
0001
0100
1000
0001
0010
1000
0001
0010
,
0100
0010
0001
0010
0100
1000
0100
0010
0001
0010
0000
1000
0001
0100
0001
0010
,
0001
1000
0001
0100
0001
0010
0100
0001
0100
0001
0100
0000
1000
0001
1000
0001
,
1000
0000
0000
0000
;
