#TITLE:Hades;
#SUBTITLE:;
#ARTIST:Dir en Grey;
#TITLETRANSLIT:;
#SUBTITLETRANSLIT:;
#ARTISTTRANSLIT:;
#CREDIT:;
#BANNER:Hades-bn.png;
#BACKGROUND:Hades-bg.png;
#LYRICSPATH:;
#CDTITLE:!reachTitle.png;
#MUSIC:Dir en grey - Hades2.mp3;
#OFFSET:-0.040;
#SAMPLESTART:85.000;
#SAMPLELENGTH:14.500;
#SELECTABLE:YES;
#BPMS:0.000=190.000,21.000=194.000;
#STOPS:;
#BGCHANGES:;
// cache tags:
#FIRSTBEAT:0.750;
#LASTBEAT:361.000;
#SONGFILENAME:Songs/Community Keyboard Megapack - Volume 1/(Reach) Hades/Hades.sm;
#HASMUSIC:1;
#HASBANNER:1;
#MUSICLENGTH:111.960;
// end cache tags

//---------------dance-single - ----------------
#NOTES:
     dance-single:
     :
     Challenge:
     12:
     1.000,1.000,1.000,0.411,0.840,783.000,126.000,46.000,0.000,0.000:
0000
0000
0000
2000
0000
0000
0000
0000
0000
0000
0000
0000
0000
0000
0000
0000
,
0000
0000
0000
3002
0000
0000
0000
0000
0000
0000
0000
0000
0000
2003
0000
0000
,
0000
0000
3000
0001
0000
0010
0000
0100
0010
0100
0000
0001
0010
0001
0000
1000
,
0001
1000
0000
0200
0000
0300
0000
0010
0001
0010
0000
1000
0010
1000
0000
0001
,
0100
0001
0000
2000
0000
3000
0000
0001
0010
0001
0000
1000
0100
1000
0000
0001
,
0010
0001
1100
0000
1001
0000
0110
0000
1010
0000
0101
0000
0011
0000
1100
0000
,
0001
0010
0100
1000
0001
0000
1000
0000
0100
0010
0001
0010
0100
0000
1000
0000
,
0010
0100
0010
1000
0100
0000
1000
0000
0100
1000
0100
0010
0001
0000
0100
0000
,
0001
0010
0100
0010
0100
0000
0010
0000
1000
0100
0010
0001
0010
0000
0100
0000
,
1000
0100
0011
0000
1100
0000
0011
0000
1001
0000
0110
0000
1001
0000
0010
0000
,
1001
0110
1001
0010
1100
0100
0011
0010
,
1001
0110
1100
0010
0101
0010
1100
0001
,
1100
0110
1001
0010
1100
0100
0011
0010
,
1001
0110
1000
0100
0010
0001
1000
0010
,
0100
1001
0110
1000
0011
0100
1010
0010
,
1001
0110
1001
0100
0011
0100
1010
0100
,
0011
1100
0011
0100
1010
0100
1001
0010
,
1010
0101
1000
0001
0100
0010
1000
0001
,
0010
0002
1003
0002
1003
0002
1003
0002
,
1003
0000
0100
0010
0001
0000
0100
0000
1000
0000
0010
0000
0100
0000
0001
0000
,
1000
0100
0001
0010
1000
0010
0001
0010
,
1000
0210
0000
0000
0000
0000
0000
0000
,
0300
0002
1003
0002
1003
0002
1003
0002
,
1003
0000
0001
0010
0100
0000
1000
0000
0010
0000
0100
0000
0001
0000
0010
0000
,
0100
1000
0011
0100
1000
0100
0010
0100
,
1000
0100
0000
1000
0000
0010
0000
1000
,
0000
0200
0000
0000
0320
0000
0000
0030
,
0000
0100
0000
0100
0000
0100
0000
0100
,
0000
0200
0301
0200
0301
0200
0301
0200
,
0301
0000
0100
0010
0001
0000
0010
0000
0100
0000
1000
0000
0010
0000
0100
0000
,
0001
0010
1100
0010
0001
1000
0100
0001
,
0010
1000
0010
0001
0100
1000
0100
0001
,
0100
2000
3001
2000
3001
2000
3001
2000
,
3001
0000
1000
0000
0010
0000
0100
0000
1000
0100
1000
0000
0001
0010
0001
1000
,
0100
0010
1001
0000
0110
0000
1000
0010
0100
0001
0010
0100
1000
0010
0100
0001
,
0010
0000
0110
0000
1100
0000
0001
0100
0010
1000
0100
0010
0100
1000
0010
0100
,
0010
0000
1010
0000
0011
0000
1000
0010
1000
0010
0100
0001
0100
0001
0010
0100
,
1000
0100
0010
0001
0010
0100
0010
0001
1000
0100
0010
0100
1000
0100
0010
0001
,
0010
0100
1001
0000
0110
0000
1000
0100
0010
0001
0010
0100
1000
0100
0010
0100
,
1000
0000
0110
0000
1001
0000
0010
0001
0010
0100
1000
0010
0100
0001
0010
0100
,
1000
0000
1100
0000
0011
0000
1000
0010
0100
0001
1000
0100
0010
0001
1000
0010
,
0100
0011
1100
0101
1010
0110
1001
0011
,
1100
2000
3001
2000
3001
2000
3001
2000
,
3001
0000
1000
0100
0010
0000
1000
0000
0010
0000
0100
0000
0001
0010
0100
0000
,
1000
0120
0130
0000
1000
0010
0100
0001
,
0000
2000
0000
0000
0000
0000
3000
0001
,
0000
0200
0310
0200
0310
0200
0310
0200
,
0310
0000
1000
0001
1000
0000
0100
0000
0010
0000
0001
0000
1000
0100
0010
0000
,
1000
0001
0000
1000
0010
0100
0001
0010
,
0100
1000
0000
0001
0000
1000
0000
0010
,
0000
0200
0000
0000
0000
0320
0000
0030
,
0000
1000
0000
0010
0000
0100
0000
0001
,
0000
0200
0301
0200
0301
0200
0301
0200
,
0301
0000
0001
1000
0001
0000
0100
0000
0010
0000
1000
0000
0001
0000
0100
0000
,
0010
1000
0100
0000
0000
0001
1000
0010
,
0100
0001
0000
1000
0000
0010
0000
0100
,
0000
0002
1003
0002
1003
0002
1003
0002
,
1003
0000
0010
0100
1000
0000
0100
0000
0001
0000
1000
0100
0010
0001
1000
0010
,
0100
0001
2000
0000
0000
0000
3100
0000
0000
0000
1010
0000
0000
0000
0001
0000
,
0000
0000
1000
0001
1000
0000
0000
0000
0000
0000
0110
0000
0000
0000
1000
0000
,
0000
0000
0001
1000
0001
0000
0100
0000
0000
0000
0011
0000
0000
0000
1000
0000
,
0000
0000
0001
0010
0100
0000
1000
0000
0100
0000
0010
0001
0010
0000
0100
0000
,
1000
0101
0000
1000
0000
0110
0000
1000
,
0000
0000
0001
0010
0100
0000
0000
0000
0000
0000
0110
0000
0000
0000
1000
0000
,
0000
0000
0010
0100
1000
0000
0001
0000
0000
0000
1001
0000
0000
0000
0100
0000
,
0000
0000
1000
0100
1000
0000
0100
0000
0010
0000
0001
0010
0001
0000
0010
0000
,
0100
1001
0000
0100
0100
1001
0000
1000
,
0000
0101
0000
0010
0010
1100
0000
0001
,
0000
1001
0000
1000
0010
1100
0000
0001
,
0000
0000
1000
0100
0010
0000
0001
0000
0010
0000
1000
0100
1000
0000
0010
0000
,
0001
1100
0000
0001
0001
1001
0000
0100
,
0000
1001
0000
1000
1000
1001
0000
0010
,
0000
0110
0000
0010
0010
0110
0000
1000
,
0000
0000
0001
0010
0100
0000
0001
0000
0010
0000
0001
0010
0100
0000
0001
0000
,
0000
0000
0001
0000
1100
0000
0110
0000
0101
0000
0110
0000
1000
0100
0010
0001
,
0010
0100
0010
0001
1000
0001
0010
0100
1000
0010
0100
0001
0010
0100
1000
0010
,
0100
0001
1100
0000
0110
0000
0101
0000
1100
0000
0001
0010
0100
1000
0001
0100
,
0010
1000
0100
0010
0001
1000
0001
0010
0100
1000
0010
0100
0001
0010
0001
1000
,
0100
0010
1001
0000
1100
0000
0110
0000
0011
0000
1100
0000
0001
0100
0001
0010
,
0100
1000
0100
0010
0100
1000
0010
0100
0001
0010
0100
0010
0001
0010
0100
1000
,
0001
0010
1100
0000
0110
0000
1001
0000
0110
0000
1000
0010
0100
0001
0010
0100
,
1000
0010
0100
0001
0010
0001
1000
0100
1000
0001
0100
0001
1000
0010
1000
0100
,
0010
0001
1100
0000
0110
0000
0101
0000
1010
0000
0100
0010
0001
0010
0100
1000
,
0010
0100
0001
0010
0001
0100
0001
0010
0100
1000
0100
1000
0010
1000
0100
0010
,
0001
0100
1001
0000
0110
0000
0011
0000
1100
0000
0010
0001
0010
0100
1000
0100
,
0010
0001
0010
0100
0010
0001
1000
0100
0010
0100
1000
0010
0100
0001
1000
0001
,
0100
0001
1100
0000
0110
0000
0011
0000
1100
0000
0001
0100
0010
1000
0100
0010
,
0001
0100
0010
1000
0100
1000
0010
1000
0100
0010
0001
0010
0001
0100
0001
0010
,
0100
1000
0011
0000
1100
0000
0110
0000
1001
0000
0000
0000
0110
0000
0100
0000
,
0000
1100
0100
0000
0000
0001
1000
0010
,
1100
0021
0030
0000
0000
0000
0000
0000
;
