#TITLE:Tokyo Style Speedcore;
#SUBTITLE:;
#ARTIST:m1dy;
#TITLETRANSLIT:;
#SUBTITLETRANSLIT:;
#ARTISTTRANSLIT:;
#CREDIT:;
#BANNER:tokyo-bn.png;
#BACKGROUND:Tokyo-bg.png;
#LYRICSPATH:;
#CDTITLE:!reachTitle.png;
#MUSIC:m1dy - Tokyo Style Speedcore.mp3;
#OFFSET:-0.060;
#SAMPLESTART:44.621;
#SAMPLELENGTH:12.000;
#SELECTABLE:YES;
#BPMS:0.000=396.000,96.000=198.002,104.000=396.000,160.000=792.005,164.000=397.001,260.000=198.503,260.750=99.252,265.375=49.632,266.500=198.503,268.500=396.001,786.000=198.503,789.000=99.252,790.000=198.503,795.000=397.001;
#STOPS:160.000=0.100
,161.000=0.100
,162.000=0.100
,265.375=0.560
;
#BGCHANGES:;
// cache tags:
#FIRSTBEAT:0.000;
#LASTBEAT:796.000;
#SONGFILENAME:Songs/Community Keyboard Megapack - Volume 1/(Reach) Tokyo Style Speedcore/tokyospeedcore.sm;
#HASMUSIC:1;
#HASBANNER:1;
#MUSICLENGTH:129.503;
// end cache tags

//---------------dance-single - MANIAC----------------
#NOTES:
     dance-single:
     MANIAC:
     Hard:
     12:
     1.000,1.000,1.000,0.317,0.097,877.000,250.000,41.000,0.000,0.000:
1001
0000
0000
0000
,
0000
0000
0000
0000
,
0000
0000
0000
0000
,
0000
0000
0000
0110
,
1001
0000
0000
0000
,
0000
0000
0000
0000
,
0000
0000
0000
0100
,
0010
0100
0010
0100
,
1001
0000
0110
0000
,
1100
0101
1010
0110
,
1001
0101
1010
0110
,
1001
0000
0000
0110
,
1001
0000
0110
0000
,
0011
1100
0101
1010
,
0110
0011
1100
0010
,
0110
1001
0110
1001
,
0101
0000
1100
0000
,
0011
0011
1100
1100
,
0110
0110
1001
0110
,
1001
0000
0000
0110
,
1001
0010
0100
1000
0001
0010
0100
1000
,
0001
0010
0100
1000
0001
0010
0100
1002
,
0000
0000
0000
0000
,
1003
0000
0100
0000
0010
0000
0001
0000
1000
0000
0010
0000
0100
0000
0001
0000
1000
0000
0100
0000
0000
0010
0000
0000
,
2002
0000
0000
0000
,
0000
0000
0000
3003
,
1000
0001
0010
0100
,
0010
1000
0100
0010
,
0100
0000
1000
0000
0100
0000
0001
1000
,
0010
0000
0100
0000
0010
1000
0100
0000
,
0001
1000
0100
0010
,
0100
0001
1000
0100
,
0010
0000
0100
0010
0100
0010
0001
0000
,
0010
0000
0000
0000
1000
0000
0100
0010
0001
0000
1000
0000
0100
0000
0010
0000
,
0001
0000
1000
0100
0010
0100
1000
0000
,
0100
0010
0100
0001
,
0100
0000
0010
0000
1000
0000
0010
1000
,
0100
0000
0001
0000
0100
0001
0010
0000
,
1000
0010
0100
0001
,
1000
0010
0100
0000
0010
1000
0100
0010
,
1001
1001
1001
0110
,
1001
0010
0100
0010
0100
0010
0100
0010
,
1001
0100
0010
0001
,
0010
1000
0010
0001
,
0100
0000
1000
0000
0100
0000
0001
0010
,
0100
0000
1000
0000
0100
0010
0100
0000
,
0001
0010
1000
0010
,
0001
0100
0001
0100
,
1000
0000
0100
0010
0001
0010
0100
0000
,
1000
0000
0000
0000
0001
0000
0010
0100
1000
0000
0100
0000
0010
0000
0001
0000
,
1000
0000
0000
0000
0001
0000
0010
0000
0100
1000
0100
0000
0001
0000
0000
0000
,
1000
0100
0001
0100
,
1000
0000
0100
0000
0001
0000
0100
0010
,
0001
0100
0010
0100
,
0011
1000
0010
0100
,
0100
0001
0100
0000
1000
0000
0010
0000
,
0200
2300
3020
0130
,
0001
0010
0100
1000
0001
0010
0100
1000
0001
0010
0100
1000
0001
0010
0100
1000
,
0001
0100
1010
0001
,
0110
0001
1100
0010
,
0101
0000
0010
0000
1100
0000
0010
1000
,
0001
1100
0110
1001
,
0011
1010
0110
1001
,
0110
1100
0110
0011
,
0110
0000
1001
0000
0110
0000
1000
0100
,
0011
0000
0000
0000
0000
0000
1100
0000
0000
0000
1001
0000
0000
0000
0000
0201
0000
0000
0300
0000
0000
2001
0000
0000
3000
0000
0000
0000
0102
0000
0000
0000
,
0003
0000
0000
2100
0000
0000
3000
0000
0000
0000
0000
2002
0000
0000
0000
0000
0000
0000
0000
0000
0000
0000
0000
0000
0000
0000
0000
0000
0000
0000
0000
0000
,
3003
0000
0100
1000
0010
0100
0001
0000
,
0100
0010
1000
0010
0100
0000
0010
0100
,
0001
0000
0010
0100
1000
0010
0100
0000
,
0001
0010
0100
1000
0100
0000
1000
0001
,
1000
0000
0001
0010
0100
1000
0010
0000
,
0100
0001
0010
0100
1000
0000
0010
0100
,
0001
0010
0100
1000
0001
0100
0010
0100
,
0002
0000
0000
0013
0000
0000
0001
1000
,
0001
1100
0011
0110
,
0011
1100
1010
0110
,
1001
1100
0011
1100
,
0110
1001
0101
0110
,
1010
0101
0110
0101
,
1010
0110
1001
0101
,
1010
0101
0110
1010
,
0110
0000
0001
0000
1000
0100
0010
0100
,
1001
0001
0001
0001
,
0101
0100
0100
0100
,
0110
0010
0010
0010
,
1010
1000
1000
1000
,
1001
0001
0001
0001
,
0011
0010
0010
0010
,
0010
0000
1000
0100
0000
0001
0010
0000
,
1000
0000
0000
0100
0000
0000
0000
0000
0000
0001
0000
0000
0010
0000
0000
0100
0000
0000
1000
0000
0100
0000
0010
0000
,
0001
1000
1010
1001
,
0010
0100
1001
0000
,
0010
0010
1010
1100
,
0001
0010
0110
0000
,
1000
1001
0110
0001
,
1000
0010
1100
0000
,
0001
1001
0011
1000
,
0001
0010
0100
1000
0001
0100
0010
1000
,
0001
1001
0110
1000
,
0010
0100
0011
0000
,
1100
1100
0001
1100
,
0110
0011
1000
0000
,
0110
0110
0001
1100
,
0110
0011
0100
0000
,
1000
0110
0001
0110
,
1000
0100
0010
0001
1000
0010
0100
0001
,
1000
0000
0110
0000
,
0011
1010
0011
0110
,
0011
1010
0011
0110
,
1001
0000
0110
0000
,
1001
0000
1010
0000
,
1100
0110
1100
0011
,
1100
0110
0101
0110
,
1001
0000
0100
0010
,
1001
0000
0110
0000
,
1001
0110
0011
1100
,
1010
0101
0110
1001
,
0110
0000
1001
0000
,
0011
0000
1100
0000
,
1010
0100
1010
0100
,
0011
0100
0011
0100
,
0001
0010
0100
0000
1000
0000
0100
0000
,
1001
0100
0010
1000
,
0001
0010
0100
1000
,
0010
0100
0001
1000
,
0100
0001
0100
1000
,
0110
0001
0010
1000
,
0100
0001
0100
1000
,
0010
0001
0100
0001
,
1000
0100
0010
0000
0100
0000
0001
0000
,
1100
0010
0100
0001
,
1000
0100
0001
0100
,
1000
0010
0001
0010
,
1000
0100
0001
1000
,
0110
0001
0010
1000
,
0010
0001
1000
0100
,
0001
0000
0100
1000
0100
0000
0010
0000
,
2002
0000
0000
3003
,
1000
0100
0010
0001
1000
0100
0010
0001
,
1000
0010
0100
0001
1000
0010
0100
0001
,
1000
0100
0010
0100
1000
0010
0100
0010
,
1000
0001
0010
0100
0010
0001
1000
0100
,
0010
0001
0100
0010
1000
0001
0010
0100
,
1000
0010
0100
0001
0100
0010
0100
0010
,
1000
0100
0010
0001
0010
0001
0100
0001
,
1000
0100
1000
0010
1000
0001
0010
0100
,
2000
3200
0320
0032
,
0023
0230
2300
3200
,
2300
3200
0320
0032
,
0023
0230
2300
3001
,
1200
0310
2010
3001
,
2001
3010
0210
0310
,
2001
3001
0201
0301
,
1020
1030
2001
3010
,
1001
0100
0001
1000
,
0010
0100
0001
1000
,
0011
1000
0010
0100
,
0001
0010
0001
1000
,
0110
0001
1000
0100
,
1000
0001
0100
0001
,
1000
0100
0010
0000
0001
0010
0100
0000
,
0001
0010
0100
1000
0022
0000
0033
0000
,
1100
1100
1100
1100
,
0110
0110
0110
0110
,
0011
0011
0011
0011
,
1001
1001
1001
1001
,
1100
1010
1100
1010
,
0110
1001
0110
1001
,
0011
0101
0011
0101
,
0110
0000
0001
0010
0100
1000
0010
0000
,
0110
0110
0110
0110
,
0101
0101
0101
0101
,
1010
1010
1010
1010
,
1001
1001
1001
1001
,
1010
0110
0101
0110
,
1001
1100
1001
0011
,
0001
0010
0100
1000
0001
0100
0010
1000
,
0001
0010
0100
0010
0001
1000
0100
1000
,
0110
1000
0100
0001
,
0100
1000
0010
0100
,
0011
0100
1001
0010
,
1000
0100
0010
0001
1000
0010
0100
0001
,
1000
0100
0001
0100
,
1000
0010
0001
0010
,
1000
0000
1000
0000
1000
0100
0010
0001
,
1000
0000
1000
0000
1000
0010
0100
0001
,
1000
0100
0001
0100
,
1000
0010
0001
0010
,
1000
1000
0001
0001
,
0010
1000
0010
0100
0001
0100
0010
1000
,
0010
1000
0100
0010
0001
1000
0100
0010
,
0001
1000
0010
0100
0001
1000
0001
1000
,
0010
0100
0010
0100
0010
0100
0010
0100
,
0020
0000
0000
0000
,
0000
0000
0000
0000
,
0000
0000
0000
0000
,
0000
0000
0000
0000
,
0000
0000
0000
1000
,
0030
0000
0000
0000
;
