#TITLE:La La;
#SUBTITLE:;
#ARTIST:Lalo;
#TITLETRANSLIT:;
#SUBTITLETRANSLIT:;
#ARTISTTRANSLIT:;
#CREDIT:;
#BANNER:LALA-bn.jpg;
#BACKGROUND:LALA-bg.jpg;
#LYRICSPATH:;
#CDTITLE:;
#MUSIC:canciones infantiles - lala.mp3;
#OFFSET:-0.540;
#SAMPLESTART:36.641;
#SAMPLELENGTH:12.000;
#SELECTABLE:YES;
#BPMS:0.000=166.200;
#STOPS:;
#BGCHANGES:;
// cache tags:
#FIRSTBEAT:0.000;
#LASTBEAT:240.000;
#SONGFILENAME:Songs/dragon force/lalas/canciones infantiles - lala.sm;
#HASMUSIC:1;
#HASBANNER:1;
#MUSICLENGTH:91.017;
// end cache tags

//---------------dance-single - ----------------
#NOTES:
     dance-single:
     :
     Easy:
     4:
     0.265,0.297,0.000,0.341,0.000,138.000,0.000,31.000,0.000,0.000:
1000
1000
1000
1000
,
1000
1000
1000
0001
,
0001
0000
1000
0000
0000
0020
0000
0000
,
0000
0000
0000
0230
,
0000
0000
0000
0301
0000
2000
0000
0000
,
0000
0000
0000
3200
,
0000
0000
0000
0000
0000
0320
0000
0000
,
0000
0000
0000
0230
,
0000
0000
0000
0000
0000
2300
0000
0000
,
0000
0000
0000
3002
,
0000
0000
0000
0000
0000
0203
0000
0000
,
0000
0000
0000
0320
,
0000
0000
0000
0130
0000
0020
0000
0000
,
0000
0000
0000
2030
,
0000
0000
0000
0000
0000
3002
0000
0000
,
0000
0000
0000
0023
,
0000
0000
0000
1030
0000
0200
0000
0000
,
0000
0000
0000
0302
,
0000
0000
0000
0000
0000
2003
0000
0000
,
0000
0000
0000
3020
,
0000
0000
0000
0130
0000
0020
0000
0000
,
0000
0000
0000
2030
,
0000
0000
0000
0000
0000
3002
0000
0000
,
0000
0000
0000
2003
,
0000
0000
0000
3001
0000
2000
0000
0000
,
0000
0000
0000
3020
,
0000
0000
0000
0130
0000
0020
0000
0000
,
0000
0000
0000
0032
,
0000
0000
0000
0103
0000
0020
0000
0000
,
0000
0000
0000
2030
,
0000
0000
0000
0000
0000
3200
0000
0000
,
0000
0000
0000
0301
,
0000
1000
0000
0000
0002
0000
0000
0000
,
0000
0000
0000
1003
,
1000
0010
0100
0001
,
0010
0100
1000
0010
,
1000
0100
0010
0001
,
0100
0010
0010
1000
,
0001
0100
0010
1000
,
0100
0010
0001
0010
,
1000
0100
0001
0100
,
0010
1000
1000
0001
,
0100
0010
1000
0100
,
0010
0001
0010
1000
,
0100
0001
0100
0010
,
1000
0100
0100
0001
,
0100
0010
1000
0100
,
0010
0001
0010
1000
,
0100
0001
0100
0010
,
1000
0001
0000
1000
,
1000
0001
0001
1000
,
1000
0001
0001
0100
,
0010
0100
0010
0100
,
0000
0010
0000
1000
,
0001
0010
0100
1000
,
0001
0100
0010
1000
,
0000
0010
0000
0000
0200
0000
0000
0000
,
0000
0000
0000
0010
0000
0000
0000
0000
,
0000
0000
0000
0000
,
0000
0000
0000
0000
,
0300
0000
0000
0000
;

//---------------dance-single - Copied from----------------
#NOTES:
     dance-single:
     Copied from:
     Hard:
     11:
     1.000,1.000,0.472,0.077,1.000,708.000,43.000,7.000,0.000,34.000:
1001
1100
0101
1001
,
1100
0000
0101
0100
0010
1000
0100
0010
,
0001
0000
0000
1000
1000
0000
0001
0000
0100
0000
0010
0000
0100
0000
0001
0000
,
1000
0100
0010
0100
1000
0000
1001
0010
,
0100
0000
0000
0001
0001
0000
1000
0000
0010
0000
0100
0000
0001
0000
0010
0000
,
0100
0000
0000
1000
1000
0000
0010
0000
0100
0000
0010
0000
1000
0000
0001
0000
,
0010
0000
0000
0100
0010
0000
0100
0000
1000
0000
0001
0000
0100
0000
0010
0000
,
0100
0001
1000
0001
0100
0010
1000
0100
,
0010
0000
0000
0001
0001
0000
1000
0000
0010
0000
0100
0000
0001
0000
0100
0000
,
0010
0000
0100
0000
1101
0000
0000
1101
0000
0000
0000
0000
1000
0100
0010
0001
,
0010
0100
1000
0010
0100
0001
0100
0010
1000
0100
0010
0001
0010
1000
0100
0001
,
0100
0010
1000
0100
0010
0001
0010
0100
1000
0010
1000
0100
1000
0010
0100
0001
,
0010
0001
0100
0010
1000
0100
0010
0001
1000
0010
0100
0001
1000
0010
0100
0010
,
0100
0000
0010
0100
1101
0000
0000
1101
0000
0000
0000
0000
1000
0010
0100
0001
,
0010
1000
0010
0100
0010
0001
1000
0010
0100
0001
0100
0010
1000
0100
0010
1000
,
0001
0001
1000
1000
0001
0001
1000
1000
0010
0100
0010
0100
0010
0100
0001
0001
,
1000
1000
0001
0001
0100
0100
0010
0010
0100
0100
0010
0010
0100
0001
1000
0001
,
1000
0010
0100
0010
1101
0000
0000
1101
0000
0000
0000
0000
1000
0010
0100
0001
,
0010
1000
0010
1000
0010
0001
0010
1000
0100
0001
0010
1000
0100
0001
0010
1000
,
0100
0001
0100
1000
0010
0001
0100
1000
0010
0001
0100
1000
0100
0010
0100
0001
,
1000
0010
0100
0001
0010
0100
1000
0001
0010
0100
1000
0001
0010
0100
1000
0001
,
0010
0100
1000
1000
0111
0000
0111
0000
0000
0000
0000
0000
1000
0010
0100
0001
,
0100
0010
1000
0100
0010
0001
0010
1000
0100
0001
0100
0010
0100
0001
1000
0010
,
1000
0100
0010
0100
1000
0100
1000
0100
1000
0100
1000
0100
0010
0001
0010
0001
,
0010
0001
0010
0001
0100
0010
0100
0001
1000
0100
0010
0001
1000
0100
0010
0001
,
1000
0100
0010
0000
1101
0000
1101
0000
0000
0000
0000
0000
1000
0010
1000
0010
,
1000
0010
1000
0010
0100
0001
0100
0001
0100
0001
0100
0001
0010
0001
0010
0001
,
0010
0001
0010
0001
1101
0000
1101
0000
0000
0000
0000
0000
1000
0010
0100
0001
,
1000
0010
0100
0001
0001
0010
0100
1000
0001
1000
1000
0001
0100
0010
0100
0010
,
1000
1000
0010
1000
0111
0000
0111
0000
0000
0000
0000
0000
1000
0010
0100
0001
,
0010
1000
0010
0100
0010
0001
0010
0100
1000
0001
0100
0010
0100
0010
1000
0010
,
0100
0010
1000
0010
0100
0010
0001
0010
0100
0010
1000
0000
1020
0000
0000
0000
,
0000
0000
0000
0231
0000
0000
0000
0000
1302
0000
0000
0000
0000
0000
0000
0000
,
0000
0000
0000
0000
0000
0000
0000
0000
0000
0000
0000
0000
0000
0000
0000
0000
0000
0000
0000
0000
0000
0000
0000
0000
0000
0000
0000
0000
0000
0000
0000
0000
0000
0000
0000
0000
0000
0000
0000
0000
0000
0000
0000
0000
0000
0000
0000
0000
0000
0000
0000
0000
0000
0000
0000
0000
0000
0000
0000
0000
0000
0000
0000
0000
0113
0000
0000
0000
0000
0000
0000
0000
0000
0000
0000
0000
0000
0000
0000
0000
0000
0000
0000
0000
0000
0000
0000
0000
0000
0000
0000
0000
0000
0000
0000
0000
0000
0000
0000
0111
0000
0000
0000
0000
0000
0000
0000
0000
0000
0000
0000
0000
0000
0000
0000
0000
0000
0000
0000
0000
0000
0000
0000
0000
0000
0000
0000
0000
0000
0000
0000
0000
0000
0000
0000
0000
0000
0000
0000
0000
0000
0000
0000
0000
1000
0000
0000
0000
0000
0000
0000
0000
0000
0000
0000
0000
0100
0000
0000
0000
0000
0000
0000
0000
0000
0000
0000
0000
0010
0000
0000
0000
0000
0000
0000
0000
0000
0000
0000
0000
0001
0000
0000
0000
0000
0000
0000
0000
0000
0000
0000
0000
,
0010
0100
1000
0010
0100
0001
0100
0010
1000
0100
0010
0001
0010
1000
0100
0001
,
0100
0010
1000
0100
0010
0001
0010
1000
0100
0001
0010
1000
0010
0001
0010
1000
,
0100
0001
0010
1000
0010
0001
0010
1000
0100
0001
0010
1000
1000
0001
0100
0010
,
0100
0010
0100
0010
1101
0000
1101
0000
0000
0000
0000
0000
1000
0010
0100
0001
,
0010
0100
0010
0100
1000
0010
0100
0001
0100
0010
1000
0100
0010
0001
0010
1000
,
0100
0001
0100
1000
0100
0001
0010
1000
0010
0100
1000
0010
0100
0001
0010
0001
,
0100
0010
1000
0001
0010
0100
0010
1000
0010
0100
1000
0001
0100
0010
0100
0010
,
0100
0010
0100
0010
1101
0000
1101
0000
0000
0000
0000
0000
1000
0010
0100
0001
,
0010
1000
0010
1000
0100
0001
0100
1000
0100
0001
0010
1000
0010
0001
0100
1000
,
0100
0001
1000
0010
1000
0100
1000
0010
0100
0001
0001
1000
0010
0100
0001
0001
,
1000
0100
0010
0001
1000
1000
0100
0010
0001
1000
1000
0001
0010
0100
0010
0100
,
0100
1000
0010
0100
1101
0000
1101
0000
0000
0000
0000
0000
0100
0010
0100
0001
,
1000
0010
0100
0001
1000
0010
0100
0001
0010
0100
1000
0001
0010
0100
1000
0001
,
1000
0100
1000
0001
0010
0100
1000
0001
0010
0100
1000
1000
0100
0010
0001
1000
,
0100
0010
0001
1000
0100
1000
0001
1000
0001
1000
0001
1000
0010
0100
0010
0100
,
0010
0100
0010
1000
0111
0000
0111
0000
0000
0000
0000
0000
1000
0010
0100
0001
,
0010
0100
0010
0100
1000
0001
0100
0010
0100
0001
1000
0010
1000
0100
0010
0001
,
1000
0100
1000
0010
1101
0000
1101
0000
0000
0000
0000
0000
1000
0010
0100
0001
,
1000
0010
0100
0001
1000
0100
0010
0001
1000
0100
0010
0001
1000
0010
0100
0001
,
1000
0100
0010
0100
1101
0000
1101
0000
0000
0000
0000
0000
0100
0010
0100
0001
,
1000
0010
0100
0001
1000
0010
0100
0010
0100
0001
1000
0010
0100
0001
1000
0010
,
0100
0010
0100
0010
1000
0001
0100
0010
1000
0100
1000
0000
0012
0000
0000
0000
,
0000
0000
0000
1203
0000
0000
0000
0000
0000
0000
2301
0000
0000
0000
0000
0000
,
0000
0000
0000
0000
0000
0000
0000
3101
0000
0000
1201
0000
0000
0000
0000
0000
,
0000
0000
0000
0000
,
0000
0000
0000
0000
,
0300
0000
0000
0000
;

//---------------dance-single - Copied from----------------
#NOTES:
     dance-single:
     Copied from:
     Medium:
     9:
     0.648,0.560,0.286,0.121,0.005,376.000,26.000,11.000,0.000,0.000:
1001
0010
0100
0001
,
1001
0000
0100
0000
0010
0001
1000
0000
,
0010
0100
0010
0100
0000
0002
0000
1000
,
0010
1000
0010
1000
0010
0003
2000
0000
,
0000
0000
3000
0010
0000
0200
0001
1000
,
0001
1000
0001
1000
0001
0000
0302
0000
,
0000
0000
0000
0000
0003
2000
0100
0010
,
0001
0010
0100
0010
0001
0000
3020
0000
,
0000
0000
0030
0100
0000
0002
0010
0100
,
1000
0010
0100
1000
0010
0003
1000
0100
,
0010
0001
0010
0100
1000
0010
0100
0001
,
0100
0010
1000
0100
0010
0001
0010
0100
,
1000
0010
0100
0001
0100
0010
1000
0100
,
0010
0000
0011
0011
0000
0000
1000
0010
,
0100
0001
1000
0010
1000
0100
0010
0001
,
0010
1000
0010
0001
0010
0100
1000
0010
,
0100
0001
0100
0010
1000
0100
0010
0001
,
1000
0010
0101
0101
0000
0000
0010
1000
,
0100
0010
0001
0010
1000
0100
0001
0100
,
0010
1000
0100
0010
0001
0010
1000
0100
,
0001
0100
0010
1000
0100
0010
0001
1000
,
0010
0000
0110
0110
0000
0000
0010
1000
,
0100
1000
0010
0100
0001
0010
0001
0100
,
0010
0100
0001
0100
0010
0100
1000
0000
,
0000
0100
0010
0100
0001
1000
0010
1000
,
0001
0010
0110
0110
0000
0000
0001
0010
,
0100
1000
0010
0100
0001
0100
0010
1000
,
0010
0000
1010
1010
0000
0000
0010
0100
,
0001
0010
0100
0010
0100
1000
0010
0100
,
0001
0000
1010
0101
0000
0000
0010
1000
,
0100
0010
0001
0010
0100
1000
0010
0100
,
0001
0010
1000
0100
0001
0000
1010
0000
,
0000
0101
0000
0000
2002
0000
0000
0000
,
3003
0000
0010
0000
0010
0000
0100
0001
,
0010
0100
0010
0100
1000
0001
0100
0010
,
0100
0010
1000
0001
0010
0100
0010
0100
,
1000
0010
0100
0001
0010
0100
1000
0010
,
0100
0000
1001
1001
0000
0000
0010
1000
,
0100
0010
0001
0010
1000
0100
0001
0100
,
0010
1000
0100
0010
0001
1000
0010
0100
,
0001
0010
1000
0100
0001
0010
1000
0100
,
0001
0010
0011
0011
0000
0000
0010
1000
,
0001
0100
0010
1000
0001
1000
1000
0001
,
0001
1000
1000
0001
0001
0100
0100
0010
,
0010
0100
0100
0001
0010
1000
0010
0001
,
1000
0100
1010
0101
0000
0000
0010
0001
,
1000
0100
0010
0001
1000
0100
0010
0001
,
1000
0000
0010
0100
0001
0000
0001
1000
,
0010
0001
1000
0100
0010
0001
1000
0100
,
0010
0001
0010
0001
1000
0000
0010
0001
,
1000
0100
1000
0001
0010
1000
0100
0001
,
0010
1000
0001
0100
0010
0100
0001
1000
,
0010
0100
0001
0010
0100
1000
0010
0100
,
0001
0000
1010
0101
0000
0000
0010
1000
,
0100
0010
0001
0010
1000
0100
0001
0100
,
0010
1000
0100
0010
0001
0000
1000
0000
,
0000
0000
0000
0010
0000
0000
0000
0000
2002
0000
0000
0000
0000
0000
0000
0000
,
0000
0000
0000
0000
,
0000
0000
0000
0000
,
0000
0000
0000
0000
,
3003
0000
0000
0000
;
