#TITLE:Der Overload;
#SUBTITLE:;
#ARTIST:Speedcore Front Ost Berlin;
#TITLETRANSLIT:;
#SUBTITLETRANSLIT:;
#ARTISTTRANSLIT:;
#CREDIT:;
#BANNER:der overload bn.png;
#BACKGROUND:der overload bg.png;
#LYRICSPATH:;
#CDTITLE:;
#MUSIC:Der Overload.ogg;
#OFFSET:-0.122;
#SAMPLESTART:34.415;
#SAMPLELENGTH:13.715;
#SELECTABLE:YES;
#DISPLAYBPM:280.000;
#BPMS:0.000=280.000;
#STOPS:;
#BGCHANGES:;
// cache tags:
#FIRSTBEAT:64.000;
#LASTBEAT:652.000;
#SONGFILENAME:Songs/Speedcore Rejects/Der Overload - [Tyler]/Der Overload.sm;
#HASMUSIC:1;
#HASBANNER:1;
#MUSICLENGTH:142.768;
// end cache tags

//---------------dance-single - T. Moore----------------
#NOTES:
     dance-single:
     T. Moore:
     Challenge:
     20:
     1.000,1.000,0.623,0.014,0.718,929.000,89.000,2.000,109.000,0.000:
0000
0000
0000
0000
,
0000
0000
0000
0000
,
0000
0000
0000
0000
,
0000
0000
0000
0000
,
0000
0000
0000
0000
,
0000
0000
0000
0000
,
0000
0000
0000
0000
,
0000
0000
0000
0000
,
0000
0000
0000
0000
,
0000
0000
0000
0000
,
0000
0000
0000
0000
,
0000
0000
0000
0000
,
0000
0000
0000
0000
,
0000
0000
0000
0000
,
0000
0000
0000
0000
,
0000
0000
0000
0000
,
1001
0000
0001
0100
,
0000
0000
0001
0000
0100
M00M
0100
0000
1000
0000
0000
0000
1000
0100
1000
0100
,
1000
0000
0001
0100
,
0000
0000
0001
0000
0010
M00M
0010
0000
1000
0000
0000
0000
0010
0000
0000
0000
,
0110
0000
0100
0001
,
0000
0000
1000
0000
0010
M00M
0010
0000
0001
0000
0000
0000
1000
0001
1000
0001
,
1000
0000
0001
0010
,
0000
0000
0001
0000
0100
M00M
0100
0000
1000
0000
0000
0000
0100
0000
0000
0000
,
0011
0001
1000
0001
,
0000
0000
1000
0000
0010
M00M
0010
0000
0001
0000
0000
0000
0100
0001
0100
0001
,
0100
0010
1000
0010
,
0000
0000
0100
0000
0010
M00M
0010
0000
0001
0000
0000
0000
1000
0000
0000
0000
,
1100
0100
0010
0100
,
0000
0000
1000
0000
0100
M00M
0100
0000
0010
0000
0000
0000
1000
0001
1000
0001
,
1000
0000
0001
0010
,
0000
0000
0001
0000
0100
M00M
0100
0000
0010
0000
0000
0000
0100
0000
0000
0000
,
1001
0001
0100
0001
,
0000
0000
0010
0000
0100
M00M
0100
0000
0001
0000
0000
0000
0010
0100
0010
0100
,
0010
0001
1000
0001
,
0000
0000
0010
0000
0100
M00M
0100
0000
0001
0000
0000
0000
0010
0000
0000
0000
,
0100
0000
0000
0000
,
M000
0000
0000
00M0
0000
0000
00M0
0000
,
0000
0000
00M0
0000
,
000M
00M0
0000
0000
,
1001
0101
0011
1100
,
1001
0000
0000
0000
0110
0000
0000
0000
1001
0000
0000
0000
1000
0100
0010
0001
,
1000
1100
0011
1001
,
0101
0000
1010
0000
0101
0000
1000
0100
,
0010
1001
0101
1001
,
0110
0000
0000
0000
1001
0000
0000
0000
0110
0000
0000
0000
1000
0001
1000
0001
,
0100
0110
1010
0101
,
1001
0000
1100
0000
0011
0000
1000
0010
,
0100
0101
0011
1001
,
1010
0000
0000
0000
0101
0000
0000
0000
1001
0000
0000
0000
0001
0010
0100
1000
,
0001
0101
1010
1001
,
1100
0000
0011
0000
1001
0000
1000
0010
,
0100
0101
0011
0101
,
1010
0000
0000
0000
0101
0000
0000
0000
1010
0000
0000
0000
1000
0001
0010
0100
,
1000
1001
0101
1001
,
0110
0000
0011
0000
1100
0000
1000
0001
,
0100
0000
0001
0000
0100
0000
0000
0000
0100
0000
0000
0000
0010
1000
0001
1000
,
0100
0110
0011
1100
,
1000
0001
0100
0000
1010
0000
1001
0000
,
0110
0000
0010
0001
1000
0010
0100
0001
,
0010
0000
0100
0000
1000
0000
0000
0000
1001
0000
0000
0000
0001
0100
0001
0100
,
0001
0110
1010
1001
,
1000
0100
0010
0000
1001
0000
0101
0000
,
1010
0000
0001
0010
0100
1000
0001
0100
,
0010
0000
1000
0000
0100
0000
0000
0000
0011
0000
0000
0000
1000
0001
1000
0001
,
1000
1100
0011
1001
,
1000
0010
0100
0000
1001
0000
0110
0000
,
1100
0000
1000
0001
0100
0001
0010
0100
,
1000
0000
0001
0000
0100
0000
0000
0000
1010
0000
0000
0000
0001
0100
0001
0100
,
0001
1001
1100
0011
,
0001
0100
0010
0000
1001
0000
0110
0000
,
1010
0000
0100
0001
0010
0001
1000
0010
,
0200
0000
0000
0000
,
0000
0000
0000
0000
,
0000
0000
0000
0000
,
0000
0000
0000
0000
,
M000
00M0
000M
00M0
M000
00M0
000M
00M0
,
M000
00M0
000M
00M0
M000
00M0
000M
00M0
,
M000
00M0
000M
00M0
M000
00M0
000M
00M0
,
M000
00M0
000M
00M0
M000
00M0
000M
00M0
,
M304
04M0
M000
00M0
M000
00M0
M000
00M0
,
M000
00M0
M000
00M0
M000
00M0
M000
00M0
,
M000
00M0
M000
00M0
M000
00M0
M000
00M0
,
M000
00M0
M000
00M0
M000
00M0
M003
03M0
,
1010
0000
1100
0000
0010
0001
0100
0001
,
1000
0000
0000
0000
0001
0000
0010
0000
0100
1000
0100
1000
0001
0000
1000
0000
,
0100
0010
0001
0000
0100
0001
1000
0100
,
0000
0000
0010
0000
0100
0000
1000
0000
0001
0000
0100
0000
0010
1000
0001
1000
,
0100
0000
0110
0000
0001
0010
0100
1000
,
0001
0000
0000
0000
0100
0000
0001
0000
1000
0001
1000
0100
0010
0000
0001
0000
,
0010
0100
1000
0000
0001
1000
0100
0010
,
0000
0000
0001
0000
0010
0000
0001
0000
0100
0000
0010
0000
1000
0010
0100
0001
,
1000
0000
1001
0000
0001
0010
0100
1000
,
0010
0000
0000
0000
1000
0000
0100
0000
0010
0001
0010
0100
1000
0000
0001
0000
,
1000
0010
0100
0000
0001
0100
0010
1000
,
0000
0000
0010
0000
0100
0000
0001
0000
1000
0000
0001
0000
0100
0010
1000
0010
,
0100
0000
0101
0000
0001
1000
0100
0010
,
0001
0000
0000
0000
1000
0000
0001
0000
0010
0100
1000
0001
0010
0000
0100
0000
,
0010
0001
1000
0000
0010
1000
0001
0010
,
0000
0000
0001
0000
0100
0000
0010
0000
1000
0000
0010
0000
0100
0001
0100
0001
,
1000
0000
1001
0000
0001
0010
0001
0100
,
0010
0000
0000
0000
1000
0000
0010
0000
0100
0001
1000
0001
0010
0000
0001
0000
,
1000
0010
0100
0000
0001
0100
0010
1000
,
0000
0000
0010
0000
0100
0000
0001
0000
0100
0000
0010
0000
1000
0001
0010
0001
,
1000
0000
1010
0000
0001
0010
0001
0100
,
0010
0000
0000
0000
1000
0000
0100
0000
0010
0001
0010
0001
1000
0000
0100
0000
,
1000
0010
0100
0000
0001
0100
0010
1000
,
0000
0000
0010
0000
0100
0000
0001
0000
0010
0000
0001
0000
0100
0010
4000
0000
,
000M
0000
000M
0000
,
000M
0000
000M
0000
,
000M
0000
000M
0000
,
000M
0000
000M
0000
,
3001
0010
0100
1000
0010
1000
0100
0010
,
0001
0000
0100
0000
0010
0000
1000
0000
0001
0010
0100
0000
1000
0000
0001
0000
,
0100
0010
1000
0001
0010
0001
0100
0010
,
1000
0000
0010
0000
0100
0000
0001
0000
0010
0000
0100
0000
1000
0100
0010
0001
,
1000
0001
0010
0100
0010
0001
0100
0010
,
1000
0000
0100
0000
1000
0000
0010
0000
0100
0001
1000
0000
0100
0000
0010
0000
,
0001
0010
0001
0100
0010
1000
0010
0100
,
0001
0000
0010
0000
0100
0000
1000
0000
0010
0000
1000
0000
0100
1000
0100
1000
,
0001
1000
0010
0100
0001
1000
0001
0100
0010
1000
0001
0100
0001
1000
0010
1000
,
0001
0010
0100
1000
0001
1000
0001
0010
0001
1000
0100
1000
0001
0010
0001
1000
,
0010
0100
0001
1000
0001
0100
0010
1000
0001
1000
0001
0100
0010
0100
0001
1000
,
0001
0010
0100
1000
0001
1000
0100
1000
0001
0010
0001
1000
0100
1000
0001
1000
,
0001
0100
0010
1000
0001
1000
0010
0100
0001
1000
0001
0010
0001
1000
0010
0100
,
0001
1000
0001
0010
0100
1000
0001
1000
0100
0010
0100
1000
0001
0010
0001
1000
,
0010
0100
0001
1000
0001
0100
0010
1000
0001
0100
0001
1000
0010
1000
0001
0010
,
0001
1000
0100
0010
0001
1000
0100
1000
0001
0010
0100
1000
0001
1000
0010
0100
,
0001
1000
0001
0100
0010
1000
0001
0010
,
0100
0000
0010
0000
0001
0000
1000
0000
0010
1000
0001
0000
0010
0000
0100
0000
,
1000
0100
0010
0001
1000
0010
0100
0001
,
0010
0000
0001
0000
0100
0000
0010
0000
1000
0000
0001
0000
0010
0001
0010
0100
,
1000
0001
1000
0010
0100
0001
0010
0001
,
0100
0000
0010
0000
1000
0000
0010
0000
0100
0001
1000
0000
0001
0000
0100
0000
,
0010
1000
0100
1000
0010
0100
0001
0010
,
0100
0000
1000
0000
0001
0000
0100
0000
0010
0000
0100
0000
0001
1000
0001
1000
,
0001
0010
0100
0010
0001
1000
0001
1000
0010
0100
0001
1000
0010
1000
0001
1000
,
0001
0010
0100
1000
0001
1000
0001
0010
0001
1000
0100
1000
0001
0010
0001
1000
,
0010
0100
0001
1000
0001
0100
0010
1000
0001
1000
0001
0100
0010
0100
0001
1000
,
0001
0010
0100
1000
0001
1000
0100
1000
0001
0010
0001
1000
0100
1000
0001
1000
,
0001
0100
0010
1000
0001
1000
0010
0100
0001
1000
0001
0010
0001
1000
0010
0100
,
0001
1000
0001
0010
0100
1000
0001
1000
0100
0010
0100
1000
0001
0010
0001
1000
,
0010
0100
0001
1000
0001
0100
0010
1000
0001
0100
0001
1000
0010
1000
0001
0010
,
0001
1000
0100
0010
0001
1000
0100
1000
0001
0010
0100
1000
0001
1000
0010
0100
,
0001
1000
0010
1000
0001
0100
0010
1000
,
0001
0000
0010
0000
0100
0000
0010
0000
0001
1000
0001
0000
0010
0000
0100
0000
,
1000
0010
1000
0001
0010
0001
1000
0010
,
0100
0000
0001
0000
0010
0000
0001
0000
0100
0000
0010
0000
1000
0010
1000
0010
,
0100
0001
1000
0001
0010
0100
1000
0100
,
0010
0000
0001
0000
1000
0000
0001
0000
1000
0010
0100
0000
0001
0000
0100
0000
,
0010
1000
0010
1000
0001
1000
0010
0100
,
0001
0000
1000
0000
0100
0000
1000
0000
0001
0000
0010
0000
0100
1000
0100
1000
,
0002
0000
0000
0000
,
0M03
0000
0000
0000
,
00M0
0000
0000
0000
,
M000
0000
0000
0000
,
000M
0000
0000
0000
,
0M00
0000
0000
0000
,
00M0
0000
0000
0000
,
M000
0000
0000
0000
,
000M
0000
0000
0000
,
0M00
0000
0000
0000
,
00M0
0000
0000
0000
,
M000
0000
0000
0000
;

//---------------dance-single - T. Moore----------------
#NOTES:
     dance-single:
     T. Moore:
     Hard:
     14:
     0.959,1.000,0.623,0.014,0.718,865.000,89.000,2.000,109.000,0.000:
0000
0000
0000
0000
,
0000
0000
0000
0000
,
0000
0000
0000
0000
,
0000
0000
0000
0000
,
0000
0000
0000
0000
,
0000
0000
0000
0000
,
0000
0000
0000
0000
,
0000
0000
0000
0000
,
0000
0000
0000
0000
,
0000
0000
0000
0000
,
0000
0000
0000
0000
,
0000
0000
0000
0000
,
0000
0000
0000
0000
,
0000
0000
0000
0000
,
0000
0000
0000
0000
,
0000
0000
0000
0000
,
1001
0000
0001
0100
,
0000
0000
0001
0000
0100
M00M
0100
0000
1000
0000
0000
0000
1000
0100
1000
0100
,
1000
0000
0001
0100
,
0000
0000
0001
0000
0010
M00M
0010
0000
1000
0000
0000
0000
0010
0000
0000
0000
,
0110
0000
0100
0001
,
0000
0000
1000
0000
0010
M00M
0010
0000
0001
0000
0000
0000
1000
0001
1000
0001
,
1000
0000
0001
0010
,
0000
0000
0001
0000
0100
M00M
0100
0000
1000
0000
0000
0000
0100
0000
0000
0000
,
0011
0001
1000
0001
,
0000
0000
1000
0000
0010
M00M
0010
0000
0001
0000
0000
0000
0100
0001
0100
0001
,
0100
0010
1000
0010
,
0000
0000
0100
0000
0010
M00M
0010
0000
0001
0000
0000
0000
1000
0000
0000
0000
,
1100
0100
0010
0100
,
0000
0000
1000
0000
0100
M00M
0100
0000
0010
0000
0000
0000
1000
0001
1000
0001
,
1000
0000
0001
0010
,
0000
0000
0001
0000
0100
M00M
0100
0000
0010
0000
0000
0000
0100
0000
0000
0000
,
1001
0001
0100
0001
,
0000
0000
0010
0000
0100
M00M
0100
0000
0001
0000
0000
0000
0010
0100
0010
0100
,
0010
0001
1000
0001
,
0000
0000
0010
0000
0100
M00M
0100
0000
0001
0000
0000
0000
0010
0000
0000
0000
,
0100
0000
0000
0000
,
M000
0000
0000
00M0
0000
0000
00M0
0000
,
0000
0000
00M0
0000
,
000M
00M0
0000
0000
,
1001
0101
0011
1100
,
1001
0000
0000
0000
0110
0000
0000
0000
1001
0000
0000
0000
1000
0100
0010
0001
,
1000
1100
0011
1001
,
0101
0000
1010
0000
0101
0000
1000
0100
,
0010
1001
0101
1001
,
0110
0000
0000
0000
1001
0000
0000
0000
0110
0000
0000
0000
1000
0001
1000
0001
,
0100
0110
1010
0101
,
1001
0000
1100
0000
0011
0000
1000
0010
,
0100
0101
0011
1001
,
1010
0000
0000
0000
0101
0000
0000
0000
1001
0000
0000
0000
0001
0010
0100
1000
,
0001
0101
1010
1001
,
1100
0000
0011
0000
1001
0000
1000
0010
,
0100
0101
0011
0101
,
1010
0000
0000
0000
0101
0000
0000
0000
1010
0000
0000
0000
1000
0001
0010
0100
,
1000
1001
0101
1001
,
0110
0000
0011
0000
1100
0000
1000
0001
,
0100
0000
0001
0000
0100
0000
0000
0000
0100
0000
0000
0000
0010
1000
0001
1000
,
0100
0110
0011
1100
,
1000
0001
0100
0000
1010
0000
1001
0000
,
0110
0000
0010
0001
1000
0010
0100
0001
,
0010
0000
0100
0000
1000
0000
0000
0000
1001
0000
0000
0000
0001
0100
0001
0100
,
0001
0110
1010
1001
,
1000
0100
0010
0000
1001
0000
0101
0000
,
1010
0000
0001
0010
0100
1000
0001
0100
,
0010
0000
1000
0000
0100
0000
0000
0000
0011
0000
0000
0000
1000
0001
1000
0001
,
1000
1100
0011
1001
,
1000
0010
0100
0000
1001
0000
0110
0000
,
1100
0000
1000
0001
0100
0001
0010
0100
,
1000
0000
0001
0000
0100
0000
0000
0000
1010
0000
0000
0000
0001
0100
0001
0100
,
0001
1001
1100
0011
,
0001
0100
0010
0000
1001
0000
0110
0000
,
1010
0000
0100
0001
0010
0001
1000
0010
,
0200
0000
0000
0000
,
0000
0000
0000
0000
,
0000
0000
0000
0000
,
0000
0000
0000
0000
,
M000
00M0
000M
00M0
M000
00M0
000M
00M0
,
M000
00M0
000M
00M0
M000
00M0
000M
00M0
,
M000
00M0
000M
00M0
M000
00M0
000M
00M0
,
M000
00M0
000M
00M0
M000
00M0
000M
00M0
,
M304
04M0
M000
00M0
M000
00M0
M000
00M0
,
M000
00M0
M000
00M0
M000
00M0
M000
00M0
,
M000
00M0
M000
00M0
M000
00M0
M000
00M0
,
M000
00M0
M000
00M0
M000
00M0
M003
03M0
,
1010
0000
1100
0000
0010
0001
0100
0001
,
1000
0000
0000
0000
0001
0000
0010
0000
0100
1000
0100
1000
0001
0000
1000
0000
,
0100
0010
0001
0000
0100
0001
1000
0100
,
0000
0000
0010
0000
0100
0000
1000
0000
0001
0000
0100
0000
0010
1000
0001
1000
,
0100
0000
0110
0000
0001
0010
0100
1000
,
0001
0000
0000
0000
0100
0000
0001
0000
1000
0001
1000
0100
0010
0000
0001
0000
,
0010
0100
1000
0000
0001
1000
0100
0010
,
0000
0000
0001
0000
0010
0000
0001
0000
0100
0000
0010
0000
1000
0010
0100
0001
,
1000
0000
1001
0000
1000
0100
0010
0001
,
0100
0000
0000
0000
0001
0000
0010
0000
0100
1000
0100
0010
0001
0000
1000
0000
,
0001
0100
0010
0000
1000
0010
0100
0001
,
0000
0000
0100
0000
0010
0000
1000
0000
0001
0000
1000
0000
0010
0100
0001
0100
,
0010
0000
1010
0000
1000
0001
0010
0100
,
1000
0000
0000
0000
0001
0000
1000
0000
0100
0010
0001
1000
0100
0000
0010
0000
,
0100
1000
0001
0000
0100
0001
1000
0100
,
0000
0000
1000
0000
0010
0000
0100
0000
0001
0000
0100
0000
0010
1000
0010
1000
,
0001
0000
1001
0000
1000
0100
1000
0010
,
0100
0000
0000
0000
0001
0000
0100
0000
0010
1000
0001
1000
0100
0000
1000
0000
,
0001
0100
0010
0000
1000
0010
0100
0001
,
0000
0000
0100
0000
0010
0000
1000
0000
0010
0000
0100
0000
0001
1000
0100
1000
,
0001
0000
0101
0000
1000
0100
1000
0010
,
0100
0000
0000
0000
0001
0000
0010
0000
0100
1000
0100
1000
0001
0000
0010
0000
,
0001
0100
0010
0000
1000
0010
0100
0001
,
0000
0000
0100
0000
0010
0000
1000
0000
0100
0000
1000
0000
0010
0100
0004
0000
,
M000
0000
M000
0000
,
M000
0000
M000
0000
,
M000
0000
M000
0000
,
M000
0000
M000
0000
,
1003
0100
0010
0001
0100
0001
0010
0100
,
1000
0000
0010
0000
0100
0000
0001
0000
1000
0100
0010
0000
0001
0000
1000
0000
,
0010
0100
0001
1000
0100
1000
0010
0100
,
0001
0000
0100
0000
0010
0000
1000
0000
0100
0000
0010
0000
0001
0010
0100
1000
,
0001
1000
0100
0010
0100
1000
0010
0100
,
0001
0000
0010
0000
0001
0000
0100
0000
0010
1000
0001
0000
0010
0000
0100
0000
,
1000
0100
1000
0010
0100
0001
0100
0010
,
1000
0000
0100
0000
0010
0000
0001
0000
0100
0000
0001
0000
0010
0001
0010
0100
,
1000
0100
1000
0001
0010
0001
1000
0100
0010
0001
0010
0100
,
1000
0001
1000
0001
0100
0001
1000
0010
0100
0001
0100
0010
,
1000
0001
1000
0100
1000
0100
0010
0100
1000
0001
0010
0100
,
1000
0001
1000
0001
0100
0001
1000
0010
0100
0001
0100
0010
,
1000
0001
1000
0100
1000
0001
0010
0001
1000
0100
0010
0001
,
1000
0001
0100
0001
1000
0010
0100
0010
1000
0001
1000
0010
,
1000
0001
1000
0100
0010
0100
1000
0100
0010
0001
1000
0001
,
1000
0010
1000
0001
0100
0001
1000
0010
0100
0001
1000
0100
,
1000
0001
1000
0010
0100
0001
1000
0100
,
0010
0000
0100
0000
1000
0000
0001
0000
0100
0001
1000
0000
0100
0000
0010
0000
,
0001
0010
0100
1000
0001
0100
0010
1000
,
0100
0000
1000
0000
0010
0000
0100
0000
0001
0000
1000
0000
0100
1000
0100
0010
,
0001
1000
0001
0100
0010
1000
0100
1000
,
0010
0000
0100
0000
0001
0000
0100
0000
0010
1000
0001
0000
1000
0000
0010
0000
,
0100
0001
0010
0001
0100
0010
1000
0100
,
0010
0000
0001
0000
1000
0000
0010
0000
0100
0000
0010
0000
1000
0010
0100
0001
,
1000
0001
0100
0010
0100
0001
1000
0010
0100
0010
1000
0001
,
1000
0100
1000
0001
0010
0001
1000
0100
0010
0001
1000
0001
,
0100
0010
1000
0001
1000
0010
0100
0001
1000
0001
1000
0010
,
1000
0001
0010
0100
1000
0100
0010
0001
1000
0001
0010
0001
,
1000
0001
0100
0010
0100
0001
1000
0010
1000
0001
1000
0010
,
1000
0001
0010
0100
1000
0100
0010
0100
1000
0001
0010
0001
,
1000
0010
1000
0001
0100
0001
1000
0010
0100
0001
1000
0001
,
1000
0100
0010
0001
1000
0100
0010
0100
1000
0001
0010
0001
,
1000
0001
0100
0001
1000
0010
0100
0001
,
1000
0000
0100
0000
0010
0000
0100
0000
1000
0001
1000
0000
0100
0000
0010
0000
,
0001
0100
0001
1000
0100
1000
0001
0100
,
0010
0000
1000
0000
0100
0000
1000
0000
0010
0000
0100
0000
0001
0100
0001
0100
,
0010
1000
0001
1000
0100
0010
0001
0010
,
0100
0000
1000
0000
0001
0000
1000
0000
0001
0100
0010
0000
1000
0000
0010
0000
,
0100
0001
0100
0001
1000
0001
0100
0010
,
1000
0000
0001
0000
0010
0000
0001
0000
1000
0000
0100
0000
0010
0001
0010
0001
,
2000
0000
0000
0000
,
30M0
0000
0000
0000
,
0M00
0000
0000
0000
,
000M
0000
0000
0000
,
M000
0000
0000
0000
,
00M0
0000
0000
0000
,
0M00
0000
0000
0000
,
000M
0000
0000
0000
,
M000
0000
0000
0000
,
00M0
0000
0000
0000
,
0M00
0000
0000
0000
,
000M
0000
0000
0000
;
