#TITLE:yume-tsukasa-night-loopin';
#SUBTITLE:;
#ARTIST:Fukuhara Kaori;
#TITLETRANSLIT:;
#SUBTITLETRANSLIT:;
#ARTISTTRANSLIT:;
#CREDIT:;
#BANNER:yume-tsukasa-night-loopin' BN.jpg;
#BACKGROUND:yume-tsukasa-night-loopin' BG.jpg;
#LYRICSPATH:;
#CDTITLE:Lucky Star Character Song Vol.003 - Hiiragi Tsukasa;
#MUSIC:03 - yume-tsukasa-night-loopin'.mp3;
#OFFSET:-0.555;
#SAMPLESTART:-0.285;
#SAMPLELENGTH:21.820;
#SELECTABLE:YES;
#BPMS:0.000=130.040;
#STOPS:;
#BGCHANGES:;
// cache tags:
#FIRSTBEAT:0.000;
#LASTBEAT:111.250;
#SONGFILENAME:Songs/toune 8/Yume-Tsukasa-Night-Loopin'/yume-tsukasa-night-loopin.sm;
#HASMUSIC:1;
#HASBANNER:1;
#MUSICLENGTH:55.935;
// end cache tags

//---------------dance-single - ----------------
#NOTES:
     dance-single:
     :
     Hard:
     9:
     0.000,0.000,0.000,0.000,0.000,0.000,0.000,0.000,0.000,0.000:
0000
0000
0000
0000
;

//---------------dance-single - ----------------
#NOTES:
     dance-single:
     :
     Medium:
     1:
     0.347,0.398,0.572,0.340,0.375,85.000,32.000,19.000,0.000,1.000:
1000
0000
0000
0000
0000
1000
0000
0000
0000
0000
1000
0000
0000
0000
0000
1000
,
0000
0000
0000
0000
1000
0000
0000
0000
0000
1000
0000
0000
0000
0000
1000
0000
,
0000
0000
0000
1000
0000
0000
0000
0000
1000
0000
0000
0000
0000
1001
0000
0000
,
2002
0000
3003
0000
0000
0001
0000
0000
0000
0000
0001
0000
0000
0000
0000
0001
,
0000
0000
0000
0000
0001
0000
0000
0000
0000
0001
0000
0000
0000
0000
0001
0000
,
0000
0000
0000
0001
0000
0000
0000
0000
0001
0000
0000
0000
0000
0001
0000
0000
,
0000
1001
0000
2002
0000
0000
3003
0000
0000
0000
0000
0020
0000
0000
0000
0000
,
0000
0000
0000
1031
1001
0000
0000
1000
,
0001
0000
0020
0000
0000
0000
0000
0000
0000
0000
0000
0000
0000
0030
0000
0000
,
0000
0000
1000
0000
0001
0000
0000
0000
0000
1001
0000
0000
0000
0000
1000
0000
,
0000
0000
0000
1000
0000
0000
0000
0000
1000
0000
0000
0000
0000
1000
0000
0000
,
0000
0000
1000
0000
0000
0000
0000
1000
0000
0000
0000
0000
1000
0000
0000
0000
,
0000
1000
0000
0000
0000
0000
1000
0000
0000
0000
0000
1001
0000
2002
0000
0000
,
3003
0000
0000
0000
0000
1001
0000
0000
0000
0000
0001
0000
0000
0000
0000
1000
,
0000
0000
0000
0000
0001
0000
0000
0000
0000
1000
0000
0000
0000
0000
0001
0000
,
0000
0000
0000
1000
0000
0000
0000
0000
0001
0000
0000
0000
0000
1000
0000
0000
,
0000
0000
0001
0000
0000
0000
0000
0000
0000
0000
0000
0000
0002
0000
0003
2000
,
0000
3000
0002
0000
0003
0200
0000
0000
0000
0300
0000
0000
0000
2000
0000
3000
,
0200
0000
0300
0020
0000
0030
0000
0000
0000
0200
0000
0000
0000
0000
0000
0300
,
0000
0000
0000
0000
2000
0000
0000
0002
0000
0000
0000
3003
0000
0000
0000
0000
,
1001
0000
0000
0000
0000
1001
0000
0000
0000
0000
0110
0000
0000
0000
0000
1001
,
0000
0000
0000
0000
0110
0000
0000
0000
0000
1001
0000
0000
0000
0000
0110
0000
,
0000
0000
0000
1001
0000
0000
0000
0000
0110
0000
0110
0000
0000
1001
0000
0000
,
0000
0000
0110
0000
0000
0000
0000
1001
0000
0000
0000
0000
0110
0000
0000
0000
,
0000
1001
0000
0000
0000
0000
0110
0000
0000
0000
0000
1001
0000
0000
0000
0000
,
0110
0000
0000
0000
0000
1001
0000
0000
0000
0000
0110
0000
0110
0000
0000
1001
,
0000
0000
0000
0000
0000
0000
0000
0000
0000
0000
0000
0000
0000
0020
0000
0000
,
0000
0000
0000
0000
0000
0000
0000
0000
0000
0000
0000
0000
0000
0030
0000
0000
;
