#TITLE:Mr. Bassman;
#SUBTITLE:;
#ARTIST:John Entwhistle;
#TITLETRANSLIT:;
#SUBTITLETRANSLIT:;
#ARTISTTRANSLIT:;
#CREDIT:;
#BANNER:Mr Bassman.png;
#BACKGROUND:Mr Bassman-bg.png;
#LYRICSPATH:;
#CDTITLE:./CDTitles/disney.png;
#MUSIC:Mr Bassman.mp3;
#OFFSET:-0.100;
#SAMPLESTART:19.520;
#SAMPLELENGTH:12.000;
#SELECTABLE:YES;
#BPMS:0.000=249.950;
#STOPS:;
#BGCHANGES:;
// cache tags:
#FIRSTBEAT:16.000;
#LASTBEAT:304.000;
#SONGFILENAME:Songs/new encore/Mr Bassman/Mr Bassman.sm;
#HASMUSIC:1;
#HASBANNER:1;
#MUSICLENGTH:76.048;
// end cache tags

//---------------dance-single - ----------------
#NOTES:
     dance-single:
     :
     Easy:
     5:
     0.331,0.450,0.079,0.000,0.000,170.000,6.000,0.000,0.000,0.000:  // measure 1
0000
0000
0000
0000
,  // measure 2
0000
0000
0000
0000
,  // measure 3
0000
0000
0000
0000
,  // measure 4
0000
0000
0000
0000
,  // measure 5
0010
0000
0100
0000
,  // measure 6
0010
0000
0100
0000
,  // measure 7
0010
0000
0100
0000
,  // measure 8
0010
0000
1000
0100
,  // measure 9
0001
0000
1000
0000
,  // measure 10
0001
0000
1000
0000
,  // measure 11
0001
0000
1000
0000
,  // measure 12
0001
0000
0100
1000
,  // measure 13
0010
0000
0001
0000
,  // measure 14
0100
0000
1000
0000
,  // measure 15
0010
0000
0001
0000
,  // measure 16
0100
0000
1000
0000
,  // measure 17
1001
0000
0000
0000
,  // measure 18
1001
0000
0000
0000
,  // measure 19
0010
0000
0010
0000
,  // measure 20
1000
1000
0001
0001
,  // measure 21
0010
0000
1000
0000
,  // measure 22
0100
0000
0001
0000
,  // measure 23
0010
0000
1000
0000
,  // measure 24
0001
0000
0010
1000
,  // measure 25
0100
0000
0001
0000
,  // measure 26
0010
0000
1000
0000
,  // measure 27
0100
0000
0001
0000
,  // measure 28
0010
0000
1000
0100
,  // measure 29
0001
0000
1000
0000
,  // measure 30
0001
0000
0100
0000
,  // measure 31
1000
0000
0001
0000
,  // measure 32
1000
0000
0100
0000
,  // measure 33
1001
0000
0000
0000
,  // measure 34
0110
0000
0000
0000
,  // measure 35
0001
0000
0001
0000
,  // measure 36
0010
0010
0100
0100
,  // measure 37
1000
0000
0010
0000
,  // measure 38
0001
0000
0100
0000
,  // measure 39
1000
0000
0100
0000
,  // measure 40
0001
0000
0010
0000
,  // measure 41
1000
0000
0100
0000
,  // measure 42
0001
0000
0010
0000
,  // measure 43
1001
0000
0000
0000
,  // measure 44
0000
0000
0000
0000
,  // measure 45
0001
0000
0100
0000
,  // measure 46
1000
0000
0100
0000
,  // measure 47
0001
0000
0010
0000
,  // measure 48
1000
1000
0001
0001
,  // measure 49
1000
0000
0100
0000
,  // measure 50
0001
0000
0100
0000
,  // measure 51
1000
0000
0010
0000
,  // measure 52
0001
0001
1000
1000
,  // measure 53
0001
0000
0001
0000
,  // measure 54
0010
1000
0001
0000
,  // measure 55
1000
0000
1000
0000
,  // measure 56
0010
0001
1000
0000
,  // measure 57
0001
1000
0001
0001
,  // measure 58
1000
0001
1000
1000
,  // measure 59
0001
0010
1000
0001
,  // measure 60
1000
0010
0001
0000
,  // measure 61
0100
0000
0010
0000
,  // measure 62
0100
1000
0010
0000
,  // measure 63
0100
0000
0001
0000
,  // measure 64
1000
0001
0110
0000
,  // measure 65
1000
0000
0001
0000
,  // measure 66
1000
0100
0001
0000
,  // measure 67
1000
0000
0010
0000
,  // measure 68
0100
0001
1000
0100
,  // measure 69
0010
0000
1000
0000
,  // measure 70
0010
1000
0010
0000
,  // measure 71
0100
0000
0001
0000
,  // measure 72
0100
0001
0100
0000
,  // measure 73
0001
0000
0010
0000
,  // measure 74
1000
0000
0100
0000
,  // measure 75
0001
0010
0100
1000
,  // measure 76
0001
0010
0100
1000
,  // measure 77
0001
0000
0000
0000
;

//---------------dance-single - ----------------
#NOTES:
     dance-single:
     :
     Medium:
     7:
     0.490,0.647,0.158,0.000,0.000,249.000,12.000,0.000,0.000,0.000:  // measure 1
0000
0000
0000
0000
,  // measure 2
0000
0000
0000
0000
,  // measure 3
0000
0000
0000
0000
,  // measure 4
0000
0000
0000
0000
,  // measure 5
0100
1000
0100
1000
,  // measure 6
0001
0010
0001
0010
,  // measure 7
0100
1000
0100
1000
,  // measure 8
0001
0010
1000
0000
,  // measure 9
0100
0001
0100
0001
,  // measure 10
1000
0010
1000
0010
,  // measure 11
0100
0001
0100
0001
,  // measure 12
1000
0010
0001
0000
,  // measure 13
0010
1000
0100
0001
,  // measure 14
1000
0001
0010
0000
,  // measure 15
0100
1000
0010
0001
,  // measure 16
1000
0001
0100
0000
,  // measure 17
1000
1000
1000
1000
,  // measure 18
0001
0001
1000
0001
,  // measure 19
0010
0100
0010
1000
,  // measure 20
0001
0010
1001
0000
,  // measure 21
0010
1000
0010
1000
,  // measure 22
0001
0010
0001
0010
,  // measure 23
1000
0010
1000
0010
,  // measure 24
0001
1000
0100
0000
,  // measure 25
0010
0001
0010
0001
,  // measure 26
1000
0010
1000
0010
,  // measure 27
0001
0010
0001
0010
,  // measure 28
1000
0001
0100
0000
,  // measure 29
0001
0100
1000
0010
,  // measure 30
0001
0010
1000
0000
,  // measure 31
0001
0100
1000
0100
,  // measure 32
0001
0010
1000
0000
,  // measure 33
0001
0001
0001
0001
,  // measure 34
1000
1000
0001
1000
,  // measure 35
0010
0100
0010
0001
,  // measure 36
0100
1000
0110
0000
,  // measure 37
0000
0001
0000
0100
,  // measure 38
0000
1000
0000
0010
,  // measure 39
0000
0001
0000
0100
,  // measure 40
0000
1000
0000
0100
,  // measure 41
0000
0001
0000
0001
,  // measure 42
0000
1000
0000
1000
,  // measure 43
1001
0000
1010
0000
,  // measure 44
0101
0100
1000
0000
,  // measure 45
0001
0100
0001
0100
,  // measure 46
0010
1000
0010
0100
,  // measure 47
0001
0010
0001
0010
,  // measure 48
1000
0100
0010
0000
,  // measure 49
1000
0100
1000
0100
,  // measure 50
0010
0001
0010
0100
,  // measure 51
1000
0010
1000
0010
,  // measure 52
0001
0100
0010
0000
,  // measure 53
0100
1000
0001
0000
,  // measure 54
0100
0001
1000
0100
,  // measure 55
0010
0001
1000
0000
,  // measure 56
0010
1000
0001
0010
,  // measure 57
0100
0100
0100
0100
,  // measure 58
0010
0010
1000
0001
,  // measure 59
0010
0010
0100
0010
,  // measure 60
0001
1000
1001
0000
,  // measure 61
0100
0000
0100
0000
,  // measure 62
0001
0000
0001
0000
,  // measure 63
1000
0000
1000
0000
,  // measure 64
0010
1010
0000
0100
,  // measure 65
0100
0001
0100
1000
,  // measure 66
1000
0010
0001
0100
,  // measure 67
1000
0100
0001
0010
,  // measure 68
1000
0101
0000
1000
,  // measure 69
0010
0001
0010
1000
,  // measure 70
0010
0001
0100
0001
,  // measure 71
0010
1000
0010
0001
,  // measure 72
0100
1000
0000
0010
,  // measure 73
0011
0010
1010
0100
,  // measure 74
0101
0100
1100
0001
,  // measure 75
0100
1000
0010
0001
,  // measure 76
0100
1000
0001
1000
;

//---------------dance-single - ----------------
#NOTES:
     dance-single:
     :
     Hard:
     9:
     0.590,0.650,0.342,0.000,0.000,288.000,26.000,0.000,0.000,0.000:  // measure 1
0000
0000
0000
0000
,  // measure 2
0000
0000
0000
0000
,  // measure 3
0000
0000
0000
0000
,  // measure 4
0000
0000
0000
0000
,  // measure 5
0010
0010
0100
1100
,  // measure 6
0010
0010
0100
0101
,  // measure 7
0010
1000
0100
1000
,  // measure 8
0001
0100
0001
0010
,  // measure 9
0100
1000
0010
0001
,  // measure 10
1000
0100
0001
0010
,  // measure 11
0100
1000
0010
0001
,  // measure 12
1000
0100
0001
1001
,  // measure 13
1000
1000
0010
1010
,  // measure 14
0001
0001
0100
0101
,  // measure 15
1000
0010
0001
0100
,  // measure 16
0001
0010
1000
0100
,  // measure 17
0001
0001
0001
0010
,  // measure 18
1000
0000
1000
0000
0001
0100
0001
0000
,  // measure 19
0010
1000
0100
0001
,  // measure 20
0010
1000
1001
0000
,  // measure 21
0100
0100
0010
0011
,  // measure 22
0100
0100
0010
1010
,  // measure 23
0100
0001
0010
0001
,  // measure 24
1000
0010
1000
0100
,  // measure 25
0010
0001
0100
1000
,  // measure 26
0001
0010
1000
0100
,  // measure 27
0010
0001
0100
1000
,  // measure 28
0001
0010
1000
0110
,  // measure 29
0001
0001
0100
0101
,  // measure 30
1000
1000
0010
1010
,  // measure 31
0001
0100
1000
0010
,  // measure 32
0001
0100
1000
0010
,  // measure 33
1001
0001
0001
0010
,  // measure 34
0110
0100
0100
1000
,  // measure 35
1010
0001
0101
1000
,  // measure 36
1010
0100
1000
0000
,  // measure 37
0010
0001
0010
0001
,  // measure 38
0101
0010
1000
0100
,  // measure 39
0010
1000
0001
0010
,  // measure 40
1000
0100
1000
0000
,  // measure 41
1010
0100
0101
0010
,  // measure 42
1100
0010
0011
0100
,  // measure 43
1000
0000
1000
0000
,  // measure 44
0001
0010
1000
1001
,  // measure 45
0100
0100
0010
1000
,  // measure 46
0001
0001
0100
0010
,  // measure 47
1000
0100
0001
0010
,  // measure 48
1000
0001
0100
0001
,  // measure 49
1000
1000
0001
0100
,  // measure 50
0010
0010
1000
0100
,  // measure 51
0001
0010
1000
0100
,  // measure 52
0001
1000
0010
1000
,  // measure 53
0001
0100
0001
0010
,  // measure 54
1000
0100
1000
0010
,  // measure 55
0001
0100
0001
0010
,  // measure 56
1000
0100
1000
0010
,  // measure 57
0001
0001
0001
1000
,  // measure 58
0010
0000
0010
0000
0100
0010
0100
0000
,  // measure 59
0001
1000
0001
0000
1000
0100
1000
0000
,  // measure 60
0001
0010
0001
0000
1000
0000
0000
0000
,  // measure 61
0010
0010
0100
0101
,  // measure 62
0010
0010
0100
1100
,  // measure 63
0010
0001
0100
1000
,  // measure 64
0001
0010
1000
0100
,  // measure 65
0001
0001
0100
0110
,  // measure 66
1000
1000
0010
0110
,  // measure 67
0001
0010
0100
1000
,  // measure 68
0001
0100
0010
1000
,  // measure 69
0100
0001
0010
1000
,  // measure 70
0010
0001
0010
1000
,  // measure 71
0100
0001
0100
0010
,  // measure 72
1000
0100
0001
0010
,  // measure 73
1000
1000
1000
1000
,  // measure 74
0100
0100
0001
0001
,  // measure 75
0000
0010
0000
0010
0000
0010
0000
0010
,  // measure 76
0000
0010
0000
0010
0100
0000
1000
0000
,  // measure 77
0001
0000
0000
0000
;

//---------------dance-double - ----------------
#NOTES:
     dance-double:
     :
     Easy:
     6:
     0.349,0.450,0.013,0.000,0.000,185.000,1.000,0.000,0.000,0.000:  // measure 1
00000000
00000000
00000000
00000000
,  // measure 2
00000000
00000000
00000000
00000000
,  // measure 3
00000000
00000000
00000000
00000000
,  // measure 4
00000000
00000000
00000000
00000000
,  // measure 5
00000010
00000000
00000100
00000000
,  // measure 6
00000010
00000000
00000100
00000000
,  // measure 7
00000001
00000000
00001000
00000000
,  // measure 8
00000001
00000100
00001000
00000100
,  // measure 9
00000010
00000000
00000100
00000000
,  // measure 10
00000010
00000000
00000100
00000000
,  // measure 11
00000001
00000000
00001000
00000000
,  // measure 12
00000001
00000100
00001000
00010000
,  // measure 13
00100000
00000000
01000000
00000000
,  // measure 14
00100000
00000000
01000000
00000000
,  // measure 15
10000000
00000000
00010000
00000000
,  // measure 16
10000000
00000000
00010000
00000000
,  // measure 17
00100000
00000000
00100000
00000000
,  // measure 18
01000000
00100000
00010000
00001000
,  // measure 19
00000010
00000000
00000010
00000000
,  // measure 20
00000100
00001000
00010000
00000000
,  // measure 21
10000000
00000000
00010000
00000000
,  // measure 22
10000000
00000000
00010000
00000000
,  // measure 23
00100000
00000000
01000000
00000000
,  // measure 24
00100000
00010000
01000000
10000000
,  // measure 25
00010000
00000000
10000000
00000000
,  // measure 26
00010000
00000000
10000000
00000000
,  // measure 27
00100000
00000000
01000000
00000000
,  // measure 28
00100000
00010000
00001000
00000100
,  // measure 29
00000010
00000000
00000100
00000000
,  // measure 30
00000010
00000001
00001000
00000100
,  // measure 31
00000001
00000000
00001000
00000000
,  // measure 32
00000001
00001000
00000010
00001000
,  // measure 33
00000001
00000000
00000001
00000000
,  // measure 34
00000001
00000010
00000100
00001000
,  // measure 35
00010000
00000000
00010000
00000000
,  // measure 36
00010000
10000000
01100000
00000000
,  // measure 37
10000000
00000000
01000000
00000000
,  // measure 38
00010000
00000000
00100000
00000000
,  // measure 39
10000000
00000000
01000000
00000000
,  // measure 40
00010000
00000000
10000000
01000000
,  // measure 41
00010000
00000000
01000000
00000000
,  // measure 42
10000000
00000000
00100000
00000000
,  // measure 43
00010000
00000000
00010000
00000000
,  // measure 44
00010000
00100000
01000000
10000000
,  // measure 45
00010000
00000000
10000000
00000000
,  // measure 46
00010000
00000000
10000000
00000000
,  // measure 47
00100000
00000000
01000000
00000000
,  // measure 48
00100000
01000000
10000000
00010000
,  // measure 49
00001000
00000000
00000001
00000000
,  // measure 50
00001000
00000000
00000001
00000000
,  // measure 51
00000010
00000000
00000100
00000000
,  // measure 52
00000010
00000100
00000001
00001000
,  // measure 53
00010000
00000000
00100000
00000000
,  // measure 54
00001000
00000000
00000100
00000000
,  // measure 55
00000001
00000000
00000010
00000000
,  // measure 56
00000100
00000000
00001000
00000000
,  // measure 57
00010000
01000000
10000000
01000000
,  // measure 58
00100000
10000000
00010000
01000000
,  // measure 59
00100000
10000000
01000000
00010000
,  // measure 60
00001000
00000100
00000010
00000000
,  // measure 61
00000001
00000000
00000100
00000000
,  // measure 62
00001000
00000000
00000010
00000000
,  // measure 63
00000001
00000000
00000100
00000000
,  // measure 64
00000001
00001000
00000010
00000001
,  // measure 65
00001000
00000000
00000100
00000000
,  // measure 66
00000001
00000000
00000010
00000000
,  // measure 67
00001000
00000000
00000100
00000000
,  // measure 68
00000010
00001000
00000001
00000100
,  // measure 69
00010000
00000000
01000000
00000000
,  // measure 70
10000000
00000000
00100000
00000000
,  // measure 71
00010000
00000000
01000000
00000000
,  // measure 72
10000000
00000000
00010000
00000000
,  // measure 73
00000000
00001000
00000000
00001000
,  // measure 74
00000000
00001000
00000000
00001000
,  // measure 75
00010000
00100000
10000000
01000000
,  // measure 76
00010000
00100000
00010000
01000000
,  // measure 77
10000000
00000000
00000000
00000000
;

//---------------dance-double - ----------------
#NOTES:
     dance-double:
     :
     Medium:
     9:
     0.539,0.550,0.250,0.000,0.000,268.000,19.000,0.000,0.000,0.000:  // measure 1
00000000
00000000
00000000
00000000
,  // measure 2
00000000
00000000
00000000
00000000
,  // measure 3
00000000
00000000
00000000
00000000
,  // measure 4
00000000
00000000
00000000
00000000
,  // measure 5
00001000
00010000
01000000
00010000
,  // measure 6
00001000
00010000
01000000
00010000
,  // measure 7
00001000
00010000
01000000
00010000
,  // measure 8
00100000
01000000
00010000
00001000
,  // measure 9
00000100
00001000
00010000
00001000
,  // measure 10
00000100
00001000
00010000
00001000
,  // measure 11
00000100
00001000
00010000
00001000
,  // measure 12
00000100
00000010
00000001
00001000
,  // measure 13
00000010
00000100
00000010
00001010
,  // measure 14
00000100
00000001
00000010
00001000
,  // measure 15
00000001
00001000
00000001
00000101
,  // measure 16
00000010
00001000
00000100
00000001
,  // measure 17
00000110
00000000
00000000
00000000
,  // measure 18
00011000
00000000
00000000
00000000
,  // measure 19
00100000
00000000
10000000
00000000
,  // measure 20
00010000
00100000
10100000
00110000
,  // measure 21
00001000
00010000
00100000
00010000
,  // measure 22
00001000
00010000
00100000
00010000
,  // measure 23
00001000
00010000
00100000
00010000
,  // measure 24
00001000
00000010
00000100
00001000
,  // measure 25
00010000
00001000
00000010
00001000
,  // measure 26
00010000
00001000
00000010
00001000
,  // measure 27
00010000
00001000
00000010
00001000
,  // measure 28
00010000
01000000
00100000
10000000
,  // measure 29
01000000
00100000
01000000
01010000
,  // measure 30
10000000
00010000
10000000
10100000
,  // measure 31
01000000
00100000
01000000
11000000
,  // measure 32
00010000
10000000
00010000
01000000
,  // measure 33
01100000
00000000
00000000
00000000
,  // measure 34
00011000
00000000
00000000
00000000
,  // measure 35
00000100
00000010
00001000
00000100
,  // measure 36
00000001
00000010
00001100
00000101
,  // measure 37
00000010
00001000
00000010
00001000
,  // measure 38
00000010
00001000
00010000
00100000
,  // measure 39
01000000
00010000
01000000
00010000
,  // measure 40
00100000
00010000
00001000
00000100
,  // measure 41
00000010
00000001
00000100
00001000
,  // measure 42
00000010
00000100
00000001
00001000
,  // measure 43
00001001
00000000
00000000
00000000
,  // measure 44
00000010
00001000
00010000
01000000
,  // measure 45
10000000
00100000
00010000
01000000
,  // measure 46
00010000
00100000
10000000
01000000
,  // measure 47
00100000
00010000
00001000
00010000
,  // measure 48
00100000
10000000
01000000
00100000
,  // measure 49
00010000
00010000
10000000
10000000
,  // measure 50
00100000
10000000
01000000
01010000
,  // measure 51
00010000
00010000
00001000
00001000
,  // measure 52
00000100
00000001
00000010
00001000
,  // measure 53
00000001
00000100
00001000
00000010
,  // measure 54
00001000
00000100
00010000
00001000
,  // measure 55
00000100
00000001
00000010
00000100
,  // measure 56
00000001
00001000
00000100
00000010
,  // measure 57
00000001
00000100
00000100
00000100
,  // measure 58
00001000
00000010
00000010
00000010
,  // measure 59
00001010
00000000
00011000
00000000
,  // measure 60
00110000
00000000
01100000
00000000
,  // measure 61
10000000
00100000
00010000
01000000
,  // measure 62
10000000
01000000
00010000
01000000
,  // measure 63
00100000
00010000
00001000
00010000
,  // measure 64
00100000
00010000
00001000
00000100
,  // measure 65
00000001
00000010
00001000
00000100
,  // measure 66
00000001
00000100
00001000
00000100
,  // measure 67
00000010
00001000
00010000
00001000
,  // measure 68
00000010
00001000
00010000
00001000
,  // measure 69
00010000
00100000
00010000
00001000
,  // measure 70
00010000
00001000
00000100
00001000
,  // measure 71
00010000
01000000
00010000
00001000
,  // measure 72
00000010
00001000
00000100
00010000
,  // measure 73
00100000
00001000
00000100
00000001
,  // measure 74
00001000
00000100
00000001
00000010
,  // measure 75
00001000
00010000
00100000
01000000
,  // measure 76
10000000
01000000
00010000
00001000
,  // measure 77
00000010
00000000
00000000
00000000
;
