#TITLE:Flawless Terror;
#SUBTITLE:don't gotta be perfect;
#ARTIST:Pyrrhon;
#TITLETRANSLIT:;
#SUBTITLETRANSLIT:;
#ARTISTTRANSLIT:;
#CREDIT:;
#BANNER:flawless terror - bn.png;
#BACKGROUND:flawless terror - bg.png;
#LYRICSPATH:;
#CDTITLE:../aCD.png;
#MUSIC:Flawless Terror.ogg;
#OFFSET:-0.202;
#SAMPLESTART:0.910;
#SAMPLELENGTH:12.000;
#SELECTABLE:YES;
#BPMS:0.000=284.500;
#STOPS:;
#BGCHANGES:;
// cache tags:
#FIRSTBEAT:28.000;
#LASTBEAT:317.000;
#SONGFILENAME:Songs/Aoreo's Index Jawn/Flawless Terror - [Aoreo]/sm.sm;
#HASMUSIC:1;
#HASBANNER:1;
#MUSICLENGTH:68.010;
// end cache tags

//---------------dance-single - J. Nero----------------
#NOTES:
     dance-single:
     J. Nero:
     Challenge:
     25:
     1.000,1.000,0.044,0.250,1.000,820.000,3.000,17.000,0.000,0.000:
0000
0000
0000
0000
,
0000
0000
0000
0000
,
0000
0000
0000
0000
,
0000
0000
0000
0000
,
0000
0000
0000
0000
,
0000
0000
0000
0000
,
0000
0000
0000
0000
,
2002
0000
0000
3003
0000
0000
0001
0000
0010
0000
0100
0000
2000
0000
0000
3000
0000
0000
0020
0000
0000
0030
0000
0000
,
0100
0000
0010
0000
1000
0000
0002
0000
0000
0003
0000
0000
0020
0000
0000
0030
0000
0000
0220
0000
0000
0330
0000
0000
,
0100
0000
0000
0000
0000
0000
1000
0000
0100
0000
1000
0000
0002
0000
0000
0003
0000
0000
0200
0000
0000
0300
0000
0000
,
0001
0000
0100
0000
0010
0000
0200
0000
0000
0300
0000
0000
0002
0000
0000
0003
0000
0000
2002
0000
0000
3003
0000
0000
,
1000
0100
1000
0010
0100
0001
0010
0100
,
1000
0001
0100
0010
0100
0001
1000
0100
,
1000
0010
0100
0001
1000
0100
0010
0001
,
1000
0000
0000
0000
0100
0000
0000
0000
1000
0000
0000
0000
0001
0000
0000
0000
0200
0300
0000
0000
0000
0000
0000
0000
0000
0000
0000
0000
0000
0000
0000
0000
,
0001
0100
0001
1000
0010
0100
0010
1000
0001
0100
0001
1000
0100
0010
0100
1000
,
0001
0010
0100
1000
0001
0100
0001
1000
0010
0100
0001
1000
0001
0100
0001
1000
,
0010
0100
0010
1000
0100
0010
0001
1000
0001
0100
0010
0100
0001
1000
0010
0100
,
0001
1000
0100
0010
0001
1000
0010
1000
0001
0100
0010
1000
0001
0010
0100
1000
,
0010
0100
0010
1000
0001
0100
0001
1000
0100
0010
0100
1000
0001
0100
0001
1000
,
0100
0010
0001
1000
0100
1000
0001
0100
0001
1000
0010
0100
0001
1000
0001
0010
,
0100
1000
0010
0100
0010
1000
0100
0010
0001
0100
0010
1000
0001
0010
0100
1000
,
0010
0100
0010
1000
0100
0010
0001
1000
0001
0100
0010
1000
0001
0010
0100
1000
,
0001
0100
0001
1000
0010
0100
0010
1000
0001
1000
0100
0010
0001
1000
0001
0100
,
0010
1000
0100
0010
0001
0100
0001
1000
0001
0000
0010
0000
0100
0000
0010
0000
,
0001
1000
0010
1000
0001
0100
0010
0100
0001
1000
0010
1000
0001
0010
0100
1000
,
0001
1000
0010
1000
0001
0010
0100
1000
0001
0010
0001
1000
0100
0010
0100
1000
,
0001
0100
0001
1000
0100
0010
0001
0100
,
0010
0100
0001
1000
0100
0010
0001
1000
,
0001
0100
0001
1000
0010
0100
0010
1000
0001
0100
0001
1000
0100
0010
0100
1000
,
0001
0010
0100
1000
0001
0100
0001
1000
0400
0000
0000
0000
0000
0000
0000
0300
,
1000
0100
1000
0001
0100
0010
0100
0001
,
0010
0000
0100
0000
1000
0000
0001
0000
0100
0000
0010
0000
0100
0000
0001
0010
,
0100
1000
0001
1000
0010
0100
0001
1000
,
0100
0000
0010
0000
0001
0000
0100
0000
0010
0000
0100
0000
0001
0000
1000
0100
,
0010
0100
1000
0010
0100
0001
0010
0100
,
1000
0000
0001
0000
0100
0000
0010
0000
0100
0001
0100
0000
0001
0000
0010
0100
,
1000
0001
0100
0010
0100
0001
0010
0100
,
4000
3000
0040
0030
0400
0000
0000
0300
,
0001
0100
0001
1000
0100
1000
0001
0100
0001
1000
0100
0010
0001
1000
0100
1000
,
0001
0100
0010
0100
0001
1000
0100
0010
0100
1000
0001
0100
0010
0100
0001
1000
,
0100
0010
0001
1000
0001
0100
0010
0100
0001
1000
0010
0100
0010
1000
0001
0010
,
0100
1000
0001
0100
0001
1000
0100
1000
0001
0100
0010
0100
0001
1000
0100
0010
,
0001
1000
0100
1000
,
0001
0010
0100
1000
,
0001
0100
0010
0100
0001
0010
0100
1000
,
0001
0000
0000
1000
0000
0000
0100
0000
0000
1000
0000
0000
0002
0000
0003
0100
0000
0000
0000
0000
0000
0000
0000
0000
,
0001
0100
0001
1000
0010
0100
0001
1000
0100
1000
0001
0010
0100
1000
0001
0100
,
0001
0100
0010
1000
0010
0100
0001
1000
0100
1000
0001
0010
0100
1000
0001
0010
,
0001
1000
0100
0010
0100
1000
0001
0100
0010
0100
0001
1000
0100
0010
0001
1000
,
0001
0100
0010
1000
0001
0100
0010
0100
0001
0010
0100
1000
0010
1000
0100
0010
,
0001
0100
0001
1000
0010
0100
0010
1000
0001
0100
0001
1000
0100
1000
0001
0010
,
0100
0010
0001
1000
0100
0010
0001
1000
0001
0100
0010
0100
0001
1000
0001
0010
,
0100
1000
0001
0100
0001
1000
0010
0100
0010
1000
0001
0100
0010
1000
0001
0010
,
0100
1000
0001
0100
0001
1000
0010
0100
0010
0000
1000
0000
0100
0000
0010
0000
,
0001
1000
0100
1000
0001
0010
0100
1000
0001
0100
0001
1000
0010
0100
0010
1000
,
0001
0010
0100
1000
0001
0010
0001
1000
0001
0100
0010
0100
0001
1000
0001
0010
,
0100
1000
0001
0100
0010
0100
0001
1000
0100
0010
0001
1000
0001
0100
0010
0100
,
0001
1000
0001
0010
0100
1000
0010
0100
0010
1000
0100
0010
0001
1000
0010
0100
,
0001
0100
0001
1000
0010
0100
0001
1000
0001
0010
0100
1000
0001
0100
0010
0100
,
0001
1000
0100
0010
0001
0100
0001
1000
0100
1000
0001
0100
0010
0100
0001
1000
,
0001
0010
0100
1000
0001
0100
0010
0100
0001
1000
0100
0010
0001
1000
0100
0010
,
0100
1000
0001
0100
0001
1000
0010
0100
0010
1000
0001
1000
0100
0010
0001
1000
,
0001
0100
0010
0100
0001
1000
0001
0010
,
0100
1000
0001
0100
0010
0100
0001
1000
,
0100
0010
0001
1000
0100
1000
0001
0100
,
0010
0000
0100
0000
0001
0000
0010
0000
0100
0000
1000
0000
0001
0000
1000
0010
,
0100
0001
0010
0100
1000
0010
0100
0010
,
1000
0100
0010
0001
0100
0001
1000
0010
,
0100
0010
1000
0001
0010
0100
1000
0001
,
0100
0000
0010
0000
0100
0000
0001
0000
1000
0000
0100
0000
0010
0000
0001
0010
,
0100
0010
0001
0100
0010
0100
0001
0010
,
0100
1000
0010
0100
0010
1000
0100
0010
,
0001
0100
0001
1000
0100
0010
0100
1000
,
0001
0000
0100
0000
0010
0000
0100
0000
0001
0010
0100
0000
1000
0000
0010
0100
,
0001
0100
0010
0100
0001
0010
0100
1000
,
0001
0100
0001
1000
0001
0100
0010
0100
,
0001
1000
0100
0010
0100
1000
0001
0100
,
0010
1000
0010
0100
0001
0010
0100
1000
0010
0100
0001
1000
0100
0010
0001
1000
,
0002
0003
0000
0000
;

//---------------dance-single - J. Nero----------------
#NOTES:
     dance-single:
     J. Nero:
     Hard:
     24:
     1.000,1.000,0.132,0.441,1.000,719.000,9.000,30.000,0.000,0.000:
0000
0000
0000
0000
,
0000
0000
0000
0000
,
0000
0000
0000
0000
,
0000
0000
0000
0000
,
0000
0000
0000
0000
,
0000
0000
0000
0000
,
0000
0000
0000
0000
,
2002
0000
0000
3003
0000
0000
0001
0000
0010
0000
0100
0000
2000
0000
0000
3000
0000
0000
0020
0000
0000
0030
0000
0000
,
0100
0000
0010
0000
1000
0000
0002
0000
0000
0003
0000
0000
0020
0000
0000
0030
0000
0000
0220
0000
0000
0330
0000
0000
,
0100
0000
0000
0000
0000
0000
1000
0000
0100
0000
1000
0000
0002
0000
0000
0003
0000
0000
0200
0000
0000
0300
0000
0000
,
0001
0000
0100
0000
0010
0000
0200
0000
0000
0300
0000
0000
0002
0000
0000
0003
0000
0000
2002
0000
0000
3003
0000
0000
,
1000
0100
1000
0010
0100
0001
0010
0100
,
1000
0001
0100
0010
0100
0001
1000
0100
,
1000
0010
0100
0001
1000
0100
0010
0001
,
1000
0000
0000
0000
0100
0000
0000
0000
1000
0000
0000
0000
0001
0000
0000
0000
0200
0300
0000
0000
0000
0000
0000
0000
0000
0000
0000
0000
0000
0000
0000
0000
,
0001
0100
0001
1000
0010
0100
0010
1000
0001
0100
0001
1000
0100
0010
0100
1000
,
0001
0010
0100
1000
0001
0100
0001
1000
0010
0100
0001
1000
0001
0100
0004
0003
,
1000
0100
1000
0001
0010
0100
0010
0001
1000
0010
0100
0010
1000
0001
0100
0010
,
1000
0001
0010
0100
1000
0001
0100
0001
1000
0010
0100
0001
4000
0000
3000
0000
,
0001
0100
0001
1000
0010
0100
0010
1000
0001
0100
0001
1000
0100
1000
0001
0010
,
0100
0010
0001
1000
0100
1000
0001
0100
0001
1000
0010
0100
0004
0003
1000
0100
,
4000
0000
0000
0000
,
0000
0000
0000
0000
0000
0000
0000
0000
3001
0100
0010
0100
0001
0000
4000
3000
,
0010
0100
0010
1000
0001
0010
0100
1000
0001
0100
0010
0100
0001
1000
0100
0010
,
0004
0000
0000
0000
1003
0010
0100
0010
,
1000
0001
0100
0001
1000
0010
0100
0010
1000
0001
0100
0001
1000
0100
0010
0001
,
1000
0001
0100
0001
1000
0100
0010
0001
1000
0100
1000
0001
0400
0300
0000
0000
,
0001
0100
0001
1000
0100
0010
0001
0100
,
0010
0100
0001
1000
0100
0010
0001
1000
,
0001
0100
0001
1000
0010
0100
0010
1000
0001
0100
0001
1000
0100
0010
0100
1000
,
0001
0010
0100
1000
0001
0100
0001
1000
0400
0000
0000
0000
0000
0000
0000
0300
,
1000
0100
1000
0001
0100
0010
0100
0001
,
0010
0000
0100
0000
1000
0000
0001
0000
0100
0000
0010
0000
0100
0000
0001
0010
,
0100
1000
0001
1000
0010
0100
0001
1000
,
0100
0000
0010
0000
0001
0000
0100
0000
0010
0000
0100
0000
0001
0000
1000
0100
,
0010
0100
1000
0010
0100
0001
0010
0100
,
1000
0000
0001
0000
0100
0000
0010
0000
0100
0001
0100
0000
0001
0000
0010
0100
,
1000
0001
0100
0010
0100
0001
0010
0100
,
4000
3000
0040
0030
0400
0000
0000
0300
,
0202
0000
0303
0000
0000
0000
0001
0000
0010
0000
0100
0000
2000
0000
0000
3000
0000
0000
0020
0000
0000
0030
0000
0000
,
0100
0000
0000
0000
0001
0000
0000
0000
1000
0000
0000
0000
0002
0000
0000
0000
0000
0000
0003
0000
0000
0000
0000
0000
0020
0000
0000
0000
0000
0000
0030
0000
0000
0000
0000
0000
0220
0000
0000
0330
0000
0000
0000
0000
0000
0000
0000
0000
,
0100
0000
0000
0000
0000
0000
1000
0000
0100
0000
0010
0000
0002
0000
0000
0003
0000
0000
0100
0000
0000
0000
0000
0000
,
0010
0000
0000
0000
1000
0000
0000
0000
0010
0000
0000
0000
0200
0000
0000
0000
0000
0000
0300
0000
0000
0000
0000
0000
0002
0000
0000
0000
0000
0000
0003
0000
0000
0000
0000
0000
2002
0000
0000
3003
0000
0000
0000
0000
0000
0000
0000
0000
,
1000
0001
0100
0010
,
1000
0100
0010
0001
,
1000
0010
0100
0010
1000
0100
0010
0001
,
1000
0000
0010
0000
0100
0000
0001
0000
2000
3000
0100
0000
0000
0000
0000
0000
,
1000
0001
0100
0001
1000
0010
0100
0010
1000
0001
0100
0001
1000
0100
0010
0100
,
1000
0001
0010
0100
1000
0001
0100
0001
1000
0010
0100
0010
1000
0001
0010
0100
,
1000
0001
0010
0100
0010
0001
1000
0001
0100
0010
0100
0001
1000
0100
0010
0100
,
1000
0001
0010
0100
1000
0001
0100
0010
4000
0000
0000
0000
0000
0000
0000
0000
,
3001
0100
0001
1000
0010
0100
0010
1000
0001
0100
0001
1000
0100
1000
0001
0010
,
0100
0010
0001
1000
0100
0010
0001
1000
0001
0100
0010
0100
0001
1000
0001
0010
,
0100
1000
0001
0100
0001
1000
0010
0100
0010
1000
0001
0100
0010
1000
0001
0010
,
0100
1000
0001
0100
0001
1000
0010
0100
0010
0000
1000
0000
0100
0000
0010
0000
,
0001
1000
0100
1000
0001
0010
0100
1000
0001
0100
0001
1000
0010
0100
0010
1000
,
0001
0010
0100
1000
0001
0010
0001
1000
0001
0100
0010
0100
0001
1000
0001
0010
,
0100
1000
0001
0100
0010
0100
0001
1000
0100
0010
0001
1000
0001
0100
0010
0100
,
0001
1000
0001
0010
0100
1000
0004
0003
1000
0100
1000
0001
0400
0300
0000
0000
,
0001
0100
0001
1000
0010
0100
0001
1000
0001
0010
0100
1000
0001
0100
0010
0100
,
0001
1000
0100
0010
0001
0100
0001
1000
0100
1000
0001
0100
0010
0100
0001
1000
,
0001
0010
0100
1000
0001
0100
0010
0100
0001
1000
0100
0010
0001
1000
0100
0010
,
0100
1000
0001
0100
0001
1000
0010
0100
0010
1000
0001
1000
0100
0010
0001
1000
,
0001
0100
0010
0100
0001
1000
0001
0010
,
0100
1000
0001
0100
0010
0100
0001
1000
,
0100
0010
0001
1000
0100
1000
0001
0100
,
0010
0000
0100
0000
0001
0000
0010
0000
0100
0000
1000
0000
0001
0000
1000
0010
,
0100
0001
0010
0100
1000
0010
0100
0010
,
1000
0100
0010
0001
0100
0001
1000
0010
,
0100
0010
1000
0001
0010
0100
1000
0001
,
0100
0000
0010
0000
0100
0000
0001
0000
1000
0000
0100
0000
0010
0000
0001
0010
,
0100
0010
0001
0100
0010
0100
0001
0010
,
0100
1000
0010
0100
0010
1000
0100
0010
,
0001
0100
0001
1000
0100
0010
0100
1000
,
0001
0000
0100
0000
0010
0000
0100
0000
0001
0010
0100
0000
1000
0000
0010
0100
,
0001
0100
0010
0100
0001
0010
0100
1000
,
0001
0100
0001
1000
0001
0100
0010
0100
,
0001
1000
0100
0010
0100
1000
0001
0100
,
0010
1000
0010
0100
0001
0010
0100
1000
0010
0100
0001
1000
0100
0010
0001
1000
,
0002
0003
0000
0000
;
