#TITLE:Atrocious Raid;
#SUBTITLE:(Super Arrange);
#ARTIST:Falcom jdk BAND;
#TITLETRANSLIT:;
#SUBTITLETRANSLIT:;
#ARTISTTRANSLIT:;
#CREDIT:;
#BANNER:../_bn-1.png;
#BACKGROUND:../bg-1.png;
#LYRICSPATH:;
#CDTITLE:;
#MUSIC:Atrocious Raid (Super Arrange).ogg;
#OFFSET:-0.900;
#SAMPLESTART:99.853;
#SAMPLELENGTH:12.000;
#SELECTABLE:YES;
#DISPLAYBPM:190.000;
#BPMS:0.000=72.000,2.750=77.500,3.250=41.800,4.000=72.000,5.000=66.420,6.000=86.550,8.000=70.000,14.000=60.000,16.000=67.000,29.250=46.820,32.000=190.000,611.000=189.980,724.000=188.000,772.000=198.000,782.000=190.000;
#STOPS:;
#BGCHANGES:;
// cache tags:
#FIRSTBEAT:8.000;
#LASTBEAT:792.000;
#SONGFILENAME:Songs/Index Tournament 1/Atrocious Raid (Super Arrange) - [Arvin]/Atrocious Raid (Super Arrange).sm;
#HASMUSIC:1;
#HASBANNER:1;
#MUSICLENGTH:276.246;
// end cache tags

//---------------dance-single - Arvin----------------
#NOTES:
     dance-single:
     Arvin:
     Challenge:
     16:
     1.000,1.000,0.145,0.539,1.000,2260.000,40.000,149.000,0.000,0.000:

0000
0000
0000
0000
,
0000
0000
0000
0000
,
2000
0000
0000
0000
3020
0000
0000
0000
0130
0000
0001
0000
0010
0000
0100
2000
,
0000
0000
0000
0000
0000
0000
0000
0000
0000
0000
0000
0000
0000
0000
3000
0000
0020
0000
0000
0000
0030
0000
0100
0001
0020
0000
0000
0000
0000
0000
0000
0000
,
0032
0000
0000
0023
0000
0030
0200
0300
0020
0000
0000
0030
0020
0000
0032
0000
,
0203
0000
0000
0000
0000
0000
0320
0000
0000
0000
0000
0000
0030
0000
1000
0001
0020
0000
0000
0000
0000
0000
0000
0000
0230
0000
0000
0000
1300
0000
0010
0000
,
0100
0001
2000
0000
0000
0000
0000
0000
0000
0000
0000
0000
0000
0000
3100
0000
0010
0001
2000
0000
0000
0000
0000
0000
3020
0000
0000
0000
0230
0000
0000
0000
,
0302
0000
0000
0000
0003
0020
0000
0000
0000
0000
0000
0000
0000
0000
0000
0030
,
0011
0001
0010
0100
1000
0001
1000
0010
0100
0001
1000
0001
,
0100
0010
1000
0001
0010
0001
1000
0100
1000
0001
0010
0100
,
1100
0000
0000
1100
0000
0000
0001
0000
0100
0000
0001
0000
1000
0000
0100
0000
1000
0000
0010
0000
0100
0000
0001
0000
,
1000
0010
1000
0001
0010
0001
1000
0001
0010
0100
1000
0010
,
1010
0000
0000
1010
0000
0000
1000
0000
0001
0000
1000
0000
0010
0000
0100
0000
0001
0000
1000
0000
0100
0000
1000
0000
,
0001
0010
0001
0100
0010
0100
0001
1000
0100
0010
0001
1000
,
1001
0000
0000
1001
0000
0000
0001
0000
0100
0000
0001
0000
1000
0000
0100
0000
1000
0000
0010
0000
0100
0000
0001
0000
,
1000
0010
1000
0001
0010
0001
0100
0010
1000
0100
0010
0001
,
1000
0010
0100
0001
1000
0010
0100
0010
1000
0001
0010
0100
1000
0010
0100
0001
,
1000
0100
1000
0001
0100
0001
1000
0010
0100
0001
1000
0001
0010
0100
1000
0001
,
0100
0010
1000
0001
0010
0001
0100
0010
1000
0001
1000
0100
0010
0001
1000
0100
,
1000
0001
0100
0010
1000
0001
0010
0001
1000
0100
1000
0010
0100
0001
1000
0010
,
1000
0100
0010
0001
1000
0100
0010
0100
1000
0001
0100
0010
1000
0100
0010
0001
,
1000
0010
1000
0001
0010
0001
1000
0100
0010
0001
1000
0001
0100
0010
1000
0001
,
0010
0100
1000
0001
0100
0001
0010
0100
1000
0001
1000
0010
0100
0001
1000
0010
,
1000
0001
0010
0100
1000
0001
0100
0001
1000
0010
1000
0100
0010
0001
1000
0100
,
1000
0001
0010
0001
1000
0100
1000
0010
1000
0001
0010
0001
0100
0001
1000
0010
,
0100
0001
1000
0100
1000
0001
1000
0010
0100
0001
1000
0100
1000
0001
0010
0001
,
1000
0100
1000
0010
1000
0001
0100
0010
1000
0001
0010
0001
0100
0001
1000
0100
,
1000
0010
1000
0001
0100
0010
1000
0001
0010
0001
1000
0010
1000
0001
0010
0100
,
1000
0001
0010
0001
0100
0001
1000
0100
1000
0001
0010
0001
1000
0010
1000
0001
,
0100
0010
1000
0001
0010
0001
1000
0100
1000
0010
1000
0001
0100
0001
0010
0001
,
1000
0100
1000
0010
0100
0001
1000
0010
1000
0001
0010
0001
0100
0001
1000
0100
,
1000
0001
0010
0001
1000
0010
1000
0100
1000
0001
0100
0010
1000
0001
0010
0001
,
1000
0010
0100
0001
0010
0001
1000
0010
0100
0001
0010
0001
1000
0100
1000
0001
,
0100
0010
1000
0001
0010
0001
1000
0001
0100
0010
1000
0001
0010
0001
1000
0010
,
0100
0001
1000
0100
0010
0001
1000
0001
0100
0010
1000
0001
0010
0001
1000
0100
,
1000
0010
0100
0001
0010
0100
1000
0010
0100
0001
0010
0100
1000
0100
0010
0001
,
1000
0010
1000
0001
0010
0001
0100
0010
1000
0001
0010
0100
1000
0001
1000
0010
,
0100
0001
1000
0100
1000
0001
0100
0001
1000
0010
0100
0001
1000
0001
0010
0100
,
1000
0010
0100
0010
1000
0100
0010
0100
1000
0010
0100
0001
0010
0100
1000
0001
,
0100
0010
0100
0001
0010
0001
1000
0100
1000
0010
0100
0001
0010
0100
0010
0001
,
1000
0010
0100
0001
0010
0001
1000
0010
0100
0001
0010
0001
1000
0100
1000
0001
,
0100
0010
1000
0001
0010
0001
1000
0001
0100
0010
1000
0001
0010
0001
1000
0010
,
0100
0001
1000
0100
0010
0001
1000
0001
0100
0010
1000
0001
0010
0001
1000
0100
,
1000
0010
0100
0001
0010
0100
1000
0010
0100
0001
0010
0100
1000
0100
0010
0001
,
1000
0010
1000
0001
0010
0001
0100
0010
1000
0001
0010
0100
1000
0001
1000
0010
,
0100
0001
1000
0100
1000
0001
0100
0001
1000
0010
0100
0001
1000
0001
0010
0100
,
1000
0001
0010
0001
1000
0100
1000
0001
0010
0100
1000
0001
0010
0001
1000
0010
,
0100
0001
0010
0100
1000
0010
0100
0001
0010
0100
1000
0100
0010
0001
0100
0010
,
1000
0001
0010
0001
1000
0100
1000
0001
0100
0010
1000
0001
1000
0100
0010
0001
,
1000
0010
0100
0001
1000
0001
0010
0100
1000
0001
0100
0010
1000
0001
0100
0010
,
1000
0100
0010
0001
1000
0010
1000
0001
0100
0001
1000
0010
0100
0001
0010
0100
,
1000
0001
0100
0010
1000
0001
1000
0100
0010
0001
0010
0100
1000
0001
0100
0001
,
1000
0010
0100
0001
1000
0010
0100
0010
1000
0001
0010
0001
1000
0100
1000
0001
,
0100
0010
1000
0001
0010
0001
1000
0100
1000
0001
0100
0010
0100
0001
0010
0100
,
1000
0001
0010
0001
1000
0100
1000
0001
0100
0010
1000
0001
0010
0001
0100
0010
,
1000
0001
0010
0100
1000
0001
0100
0001
1000
0001
0100
0010
0100
0001
0010
0100
,
1000
0001
0010
0001
1000
0100
1000
0010
1000
0001
0010
0001
0100
0001
1000
0010
,
0100
0001
1000
0100
1000
0001
1000
0010
0100
0001
1000
0100
1000
0001
0010
0001
,
1000
0100
1000
0010
1000
0001
0100
0010
1000
0001
0010
0001
0100
0001
1000
0100
,
1000
0010
1000
0001
0100
0010
1000
0001
0010
0001
1000
0010
1000
0001
0010
0100
,
1000
0001
0010
0001
0100
0001
1000
0100
1000
0001
0010
0001
1000
0010
1000
0001
,
0100
0010
1000
0001
0010
0001
1000
0100
1000
0010
1000
0001
0100
0001
0010
0001
,
1000
0100
1000
0010
0100
0001
1000
0010
1000
0001
0010
0001
0100
0001
1000
0100
,
2000
0000
3020
0000
0130
0001
0010
0000
,
1002
0000
0000
0203
0000
0000
0320
0000
,
1030
0000
0000
0000
0001
0000
0001
0000
0000
0000
0100
0000
0100
0000
0010
1000
,
0002
0000
0000
0023
0000
0000
0230
0000
,
1300
0000
0000
0000
0010
0000
0010
0000
0000
0000
0100
0000
0100
0000
0001
1000
,
0200
0000
0000
0000
0000
0000
0000
0000
0000
0000
0310
0001
1000
0010
0100
0010
,
2000
0000
0000
0000
0000
0000
0000
0000
0000
0000
3001
0010
0100
1000
0010
0100
,
0002
0000
0000
0023
0000
0000
0230
0000
,
0320
0000
0000
0000
0000
0000
0031
1000
0020
0000
0000
0000
0000
0000
0030
0000
,
2020
0000
3030
2002
0000
3003
0022
0033
,
0120
0000
0000
0000
0000
0000
0200
0000
0030
0000
0000
0000
2300
0000
3010
0100
,
0002
0000
0003
0202
0000
0303
2002
3003
,
2100
0000
0000
0020
0000
3030
0001
0100
,
0010
1000
0002
0000
0000
0000
0000
0000
0000
0000
0003
0000
0000
0000
1000
0000
,
0010
0100
0002
0000
0000
0000
0000
0000
0000
0020
0003
0000
0000
0030
0100
1000
,
0020
0000
0000
0000
0000
0000
0030
0000
0000
0000
0100
0010
1000
0010
0100
0001
,
0010
0100
0010
0100
1000
0100
1000
0001
1000
0001
0100
0010
,
1000
0001
0100
0010
1000
0100
1000
0001
0100
0010
1000
0100
1000
0010
0100
0001
,
1000
0001
0100
0010
1000
0100
0010
0001
1000
0001
0100
0001
1000
0010
0100
0010
,
1000
0001
0010
0100
1000
0010
1000
0001
0010
0100
1000
0010
1000
0001
0100
0010
,
1000
0100
1000
0001
0010
0100
1000
0010
0100
0010
1000
0010
0100
0001
1000
0100
,
0010
0001
1000
0100
1000
0001
0100
0001
1000
0010
0100
0001
1000
0001
0010
0100
,
1000
0010
0100
0010
1000
0001
0010
0100
1000
0001
0100
0010
0100
0001
1000
0100
,
0010
0001
1000
0100
1000
0001
0100
0010
0100
0001
0100
0010
1000
0001
0010
0100
,
1000
0010
0100
0001
1000
0001
0100
0010
1000
0100
0010
0001
1000
0010
0100
0010
,
1000
0001
0100
0010
1000
0100
1000
0001
0100
0010
1000
0100
1000
0010
0100
0001
,
1000
0001
0100
0010
1000
0100
0010
0001
1000
0010
0100
0001
0010
0100
1000
0001
,
0100
0010
1000
0010
0100
0001
1000
0100
0010
0001
1000
0001
0100
0010
1000
0100
,
0010
0001
1000
0100
1000
0001
1000
0010
0100
0001
0100
0010
1000
0100
1000
0010
,
0100
0001
0010
0100
1000
0001
0100
0001
0010
0001
1000
0010
0100
0001
0100
0010
,
1000
0100
0010
0001
0100
0010
1000
0100
1000
0010
1000
0001
0100
0010
1000
0001
,
0010
0100
1000
0001
1000
0010
0100
0001
1000
0100
1000
0001
0100
0001
1000
0010
,
0100
0001
0010
0100
1000
0001
1000
0100
0010
0001
1000
0010
0100
0010
1000
0001
,
1000
0010
0100
0001
1000
0010
0100
0010
1000
0001
0010
0100
1000
0010
0100
0001
,
1000
0100
1000
0001
0100
0001
1000
0010
0100
0001
1000
0001
0010
0100
1000
0001
,
0100
0010
1000
0001
0010
0001
0100
0010
1000
0001
1000
0100
0010
0001
1000
0100
,
1000
0001
0100
0010
1000
0001
0010
0001
1000
0100
1000
0010
0100
0001
1000
0010
,
1000
0100
0010
0001
1000
0100
0010
0100
1000
0001
0100
0010
1000
0100
0010
0001
,
1000
0010
1000
0001
0010
0001
1000
0100
0010
0001
1000
0001
0100
0010
1000
0001
,
0010
0100
1000
0001
0100
0001
0010
0100
1000
0001
1000
0010
0100
0001
1000
0010
,
1000
0001
0010
0100
1000
0001
0100
0001
1000
0010
1000
0100
0010
0001
1000
0100
,
1000
0001
0010
0001
1000
0100
1000
0010
1000
0001
0010
0001
0100
0001
1000
0010
,
0100
0001
1000
0100
1000
0001
1000
0010
0100
0001
1000
0100
1000
0001
0010
0001
,
1000
0100
1000
0010
1000
0001
0100
0010
1000
0001
0010
0001
0100
0001
1000
0100
,
1000
0010
1000
0001
0100
0010
1000
0001
0010
0001
1000
0010
1000
0001
0010
0100
,
1000
0001
0010
0001
0100
0001
1000
0100
1000
0001
0010
0001
1000
0010
1000
0001
,
0100
0010
1000
0001
0010
0001
1000
0100
1000
0010
1000
0001
0100
0001
0010
0001
,
1000
0100
1000
0010
0100
0001
1000
0010
1000
0001
0010
0001
0100
0001
1000
0100
,
1000
0001
0010
0001
1000
0010
1000
0100
1000
0001
0100
0010
1000
0001
0010
0001
,
1000
0000
0010
0000
0100
0000
0010
0000
1000
0000
0100
0000
,
0020
0000
0000
0030
,
0011
0000
0001
0000
0100
0000
0010
0000
1000
0000
0100
0000
,
0020
0000
0000
0030
,
0011
0000
0000
0000
0011
0000
0000
1001
,
0000
1001
0000
0000
1010
1010
0000
1010
,
0000
1001
0000
0000
0011
0011
0000
0000
,
0001
1000
0100
1000
0001
0010
0001
1000
0010
0100
0001
1000
0001
0010
0100
1000
,
0001
0100
0010
1000
0001
1000
0100
0010
0001
1000
0010
0100
0001
1000
0010
0100
,
0001
0010
0100
1000
0001
0100
0001
1000
0010
1000
0001
0100
0010
1000
0100
0010
,
0001
1000
0010
0100
0001
1000
0001
0010
0100
1000
0100
0010
0001
1000
0010
1000
,
0001
0100
0010
1000
0001
0100
0010
0100
0001
1000
0100
1000
0001
0010
0001
1000
,
0010
0100
0001
1000
0100
1000
0001
0010
0001
1000
0010
0100
0010
1000
0100
0010
,
0001
1000
0100
1000
0001
0010
0001
1000
0010
0100
0001
1000
0100
1000
0010
0100
,
0001
1000
0100
0010
0001
1000
0010
1000
0001
1000
0010
0100
0010
1000
0100
0010
,
0002
0000
0000
0000
0000
0000
0000
0000
0000
0000
0000
0000
0003
0000
0100
0010
,
2000
0000
0000
3002
0000
0000
0023
0000
0030
0000
0200
0000
2300
0000
3200
0000
,
0320
0000
0032
0203
0000
0320
0230
0302
,
0023
0000
0230
0000
2300
0000
3020
0000
0230
0000
0320
0000
,
2030
0000
0000
0000
3000
0002
0023
0032
,
0203
0000
0000
0000
0000
0320
2030
3200
,
0320
0000
0000
0000
0032
0000
0000
0000
2003
0000
3000
0020
0000
0030
0200
0000
,
0320
0000
0030
2000
0000
3000
0200
0000
0320
0000
0000
0032
0000
0000
0203
0000
,
0310
0000
1000
0100
0010
0000
0001
0100
,
0001
0000
0000
0000
1000
0000
0010
0000
0100
0000
0000
0000
0010
0000
0100
0001
,
0020
0000
0000
0230
,
2300
0000
3020
0000
1030
0100
0010
0001
,
0200
0000
0000
0000
0310
1000
0001
0010
,
0100
0000
1000
0000
0010
0100
0001
0000
,
2001
0000
0000
3020
0000
0000
0230
0000
,
0301
0000
0000
0000
1000
0000
1000
0000
0000
0000
0010
0000
0010
0000
0100
0001
,
2000
0000
0000
3200
0000
0000
0320
0000
,
0031
0000
0000
0000
0100
0000
0100
0000
0000
0000
0010
0000
0010
0000
1000
0001
,
0020
0000
0000
0000
0000
0000
0000
0000
0000
0000
0130
1000
0001
0100
0010
0100
,
0002
0000
0000
0000
0000
0000
0000
0000
0000
0000
1003
0100
0010
0001
0100
0010
,
2000
0000
0000
3200
0000
0000
0320
0000
,
0230
0000
0000
0000
0000
0000
1300
0001
0200
0000
0000
0000
0000
0000
0300
0000
,
0202
0000
0303
2002
0000
3003
2200
3300
,
0210
0000
0000
0000
0000
0000
0020
0000
0300
0000
0000
0000
0032
0000
0103
0010
,
2000
0000
3000
2020
0000
3030
2002
3003
,
0012
0000
0000
0200
0000
0303
1000
0010
,
0100
0001
2000
0000
0000
0000
0000
0000
0000
0000
3000
0000
0000
0000
0001
0000
,
0100
0010
2000
0000
0000
0000
0000
0000
0000
0200
3000
0000
0000
0300
0010
0001
,
0200
0000
0000
0000
0000
0000
0300
0000
0000
0000
0010
0100
0001
0100
0010
1000
,
0100
0010
0100
0010
0001
0010
0001
1000
0001
1000
0010
0100
,
0001
1000
0010
0100
0001
0010
0001
1000
0010
0100
0001
0010
0001
0100
0010
1000
,
0001
1000
0010
0100
0001
0010
0100
1000
0001
1000
0010
1000
0001
0100
0010
0100
,
0001
1000
0100
0010
0001
0100
0001
1000
0100
0010
0001
0100
0001
1000
0010
0100
,
0001
0010
0001
1000
0100
0010
0001
0100
0010
0100
0001
0100
0010
1000
0001
0010
,
0100
1000
0001
0010
0001
1000
0010
1000
0001
0100
0010
1000
0001
1000
0100
0010
,
0001
0100
0010
0100
0001
1000
0100
0010
0001
1000
0010
0100
0010
1000
0001
0010
,
0100
1000
0001
0010
0001
1000
0010
0100
0010
1000
0010
0100
0001
1000
0100
0010
,
0001
0100
0010
1000
0001
1000
0010
0100
0001
0010
0100
1000
0001
0100
0010
0100
,
0001
1000
0010
0100
0001
0010
0001
1000
0010
0100
0001
0010
0001
0100
0010
1000
,
0001
1000
0010
0100
0001
0010
0100
1000
0001
0100
0010
1000
0100
0010
0001
1000
,
0010
0100
0001
0100
0010
1000
0001
0010
0100
1000
0001
1000
0010
0100
0001
0010
,
0100
1000
0001
0010
0001
1000
0001
0100
0010
1000
0010
0100
0001
0010
0001
0100
,
0010
1000
0100
0010
0001
1000
0010
1000
0100
1000
0001
0100
0010
1000
0010
0100
,
0001
0010
0100
1000
0010
0100
0001
0010
0001
0100
0001
1000
0010
0100
0010
1000
,
0001
0010
0100
1000
0010
0100
0001
0010
0100
1000
0010
0100
0001
0010
0100
1000
,
0010
0100
0001
0010
0100
1000
0010
0100
0001
0010
0100
1000
0010
0100
0001
1000
,
0010
0100
0001
0100
0010
1000
0001
0010
0001
1000
0100
1000
0001
0010
0100
1000
,
0001
0100
0001
1000
0100
1000
0010
1000
0001
0100
0010
1000
0001
0010
0100
1000
,
0001
0100
0001
1000
0100
1000
0010
1000
0001
0100
0010
1000
0001
0010
0100
1000
,
0001
0100
0010
0100
0001
1000
0100
0010
0001
1000
0010
0100
0010
1000
0001
0010
,
0001
1000
0010
0100
0001
1000
0010
0100
0010
1000
0001
0010
0100
1000
0010
1000
,
0001
0100
0001
1000
0100
1000
0010
0100
0001
0010
0100
1000
0010
0100
0001
0010
,
0100
1000
0001
0100
0010
1000
0010
0100
0001
1000
0010
1000
0001
0010
0001
1000
,
0100
0010
0001
1000
0001
0100
0010
1000
0001
0010
0001
0100
0010
1000
0001
0010
,
0100
1000
0001
1000
0010
0100
0001
1000
0001
0010
0100
1000
,
0001
0100
0010
1000
0001
1000
0100
0010
0001
0100
0010
1000
,
0001
0100
0001
1000
0010
0100
0001
1000
0001
0010
0100
1000
,
0001
0100
0010
1000
0001
1000
0100
0010
0001
0100
0010
1000
,
0001
0010
0001
1000
0010
0100
0001
1000
0001
0010
0100
1000
,
0001
0100
0001
1000
0010
0100
0001
0010
0100
1000
0010
0100
,
0002
0000
0000
0003
,
0202
0000
0000
0303
0220
0000
0330
0000
,
2020
0000
0000
0000
0000
0000
0000
3030
,
1010
0000
1000
0001
,
0022
0000
0000
0000
0000
0000
0000
0033
,
0220
0000
0000
0330
,
2000
0000
0000
0000
,
0000
0000
0000
3020
,
0230
0000
0300
0002
0000
0000
0000
0000
,
0000
0000
0000
0000
,
0000
0000
0000
0000
,
0003
0000
0000
0000
;
