#TITLE:Disconnected Hazard;
#SUBTITLE:;
#ARTIST:DM Ashura VS Inspector K;
#TITLETRANSLIT:;
#SUBTITLETRANSLIT:;
#ARTISTTRANSLIT:;
#CREDIT:;
#BANNER:../bn.png;
#BACKGROUND:../bg.png;
#LYRICSPATH:;
#CDTITLE:;
#MUSIC:Disconnected Hazard.ogg;
#OFFSET:-0.024;
#SAMPLESTART:36.626;
#SAMPLELENGTH:18.480;
#SELECTABLE:YES;
#DISPLAYBPM:210.000;
#BPMS:0.000=210.001;
#STOPS:;
#BGCHANGES:;
// cache tags:
#FIRSTBEAT:16.000;
#LASTBEAT:432.000;
#SONGFILENAME:Songs/Cirque du Zonda/Zaia - Disconnected Hazard/Disconnected Hazard.sm;
#HASMUSIC:1;
#HASBANNER:1;
#MUSICLENGTH:128.522;
// end cache tags

//---------------dance-single - Zaia - 14.4----------------
#NOTES:
     dance-single:
     Zaia - 14.4:
     Challenge:
     14:
     1.000,1.000,0.233,0.132,0.973,908.000,30.000,17.000,12.000,6.000:
0000
0000
0000
0000
,
0000
0000
0000
0000
,
0000
0000
0000
0000
,
0000
0000
0000
0000
,
1000
0000
0000
0001
,
0000
0000
0000
0000
0000
0000
0000
0000
0000
0000
1000
0000
0000
0000
0001
0100
,
0010
0000
1000
0001
0000
1000
0100
0010
,
0100
1000
0001
0100
0010
0100
0001
1000
0001
0010
0100
1000
0001
1000
0010
1000
,
0001
0100
0001
0010
0001
0000
0000
0000
,
1MM1
0000
0000
0000
1MM1
0000
0000
0000
1MM1
0000
0000
0000
0000
0000
1000
0010
,
0100
0000
0001
0010
0100
1000
0000
0100
,
0010
0000
0001
1000
0010
0100
0000
0010
,
1000
0001
1000
0100
0010
0000
0000
0000
,
M11M
0000
0000
0000
M11M
0000
0000
0000
M11M
0000
0000
0000
0000
0000
0100
1000
,
0001
0000
0100
0010
1000
0001
0000
0010
,
0100
0010
0100
1000
0001
1000
0010
0100
0001
1000
0100
0010
0100
1000
0001
1000
,
0010
0000
0100
0000
0001
0000
0010
0000
0000
0000
0100
0000
1000
0000
0001
1000
,
0100
0000
0010
0001
0100
0001
0010
0000
,
0100
0000
0000
0000
1000
0000
0001
0010
0100
0000
1000
0000
0001
0000
0001
0000
,
1000
0000
1000
0000
0010
0000
0100
0000
0010
1000
0001
0000
0010
0000
0000
0000
,
0110
0000
0000
0000
0100
0000
1000
0000
0000
0000
0001
0000
0000
0000
0100
0001
,
1000
0000
0100
0010
0001
1000
0010
0000
,
1010
0000
0000
0000
1000
0000
0001
0010
0100
0000
0010
0000
0001
0000
1000
0010
,
0100
0000
0001
0000
1000
0000
0100
0010
0001
0000
1000
0000
0010
0000
0000
0000
,
1000
0000
0100
0000
1000
0000
0010
0000
0000
0000
0100
0000
0001
0000
1000
0001
,
0100
0000
0010
1000
0100
1000
0001
0000
,
0100
0000
0000
0000
0001
0000
1000
0010
0100
0000
0001
0000
1000
0000
1000
0000
,
0001
0100
0001
0100
0010
0000
0100
0000
0010
1000
0001
0000
0100
0000
0000
0000
,
0110
0000
0000
0000
0010
0000
1000
0000
0000
0000
0001
0000
0000
0000
0010
0001
,
1000
0000
0010
0100
0001
1000
0100
0000
,
1100
0000
0000
0000
1000
0000
0001
0100
0010
0000
0100
0000
0001
1000
0100
1000
,
0001
0100
0010
0100
0001
0010
0100
1000
0001
1000
0010
1000
0001
0010
0001
1000
,
0020
0000
0030
0000
1111
0000
0000
0001
,
0100
0000
0010
0000
1000
0000
0001
0000
0010
0000
0000
0000
0000
0000
0100
1000
,
0001
0000
0100
0001
0000
1000
0001
0010
,
0100
0000
0000
0000
0010
0000
0100
0000
1000
0000
0001
0000
1000
0000
0100
0010
,
0002
0000
0003
0000
1111
0000
0000
0001
,
0010
0000
0100
0000
1000
0000
0001
0000
0100
0000
0000
0000
0010
0000
1000
0001
,
0100
0000
0000
0000
0010
0000
0100
0000
0000
0000
0010
0000
1000
0000
0001
1000
,
0100
0010
0001
1000
0001
0100
0010
0100
0001
1000
0001
1000
0100
0010
0100
1000
,
0002
0000
0003
0000
1111
0000
0000
0001
,
1000
0000
0100
0000
0010
0000
0001
0000
1000
0000
0000
0000
0000
0000
0010
1000
,
0001
0000
0100
0010
0000
1000
0001
0010
,
0100
0000
0000
0000
1000
0000
0001
0000
0010
0000
0001
0000
1000
0000
0001
0100
,
0020
0000
0030
0000
1111
0000
0000
0010
,
1000
0000
0001
0000
1000
0000
0100
0000
0010
0000
0100
0000
0010
0000
0001
1000
,
0010
0000
1000
0010
0100
0000
0001
0010
0100
0000
1000
0010
0100
0000
0001
0010
,
0100
0000
1000
0001
0100
0010
0100
0010
,
1000
0100
0010
0001
1000
0001
0100
0010
1000
0100
0010
0001
1000
0001
0100
0010
,
1000
0100
0010
0001
1000
0001
0100
0010
1000
0100
0010
0001
0100
0010
1000
0100
,
0010
0100
1000
0001
0100
0010
1000
0100
0010
0100
1000
0001
0100
0010
1000
0100
,
0010
0100
1000
0001
0100
0010
1000
0100
0010
0100
1000
0001
0100
0010
1000
0100
,
0010
0001
0010
0100
1000
0010
0100
0010
1000
0001
0010
0100
1000
0010
0100
0010
,
1000
0001
0010
0100
1000
0010
0100
0010
1000
0001
0010
0100
1000
0010
0100
0001
,
0010
0100
0010
0001
1000
0010
0100
0001
0010
0100
0010
0001
1000
0010
0100
0001
,
0010
0100
0010
0001
1000
0010
0100
0001
0010
0100
0010
0001
1000
0010
0100
0001
,
1000
0100
0010
0100
1000
0001
1000
0001
0010
0100
1000
0001
1000
0010
0100
0001
,
0010
0100
1000
0100
0010
0001
1000
0001
0100
0010
1000
0001
1000
0100
0010
0001
,
1000
0001
0100
0010
1000
0100
0010
0001
0100
0010
1000
0001
1000
0100
0010
0001
,
0100
0010
1000
0001
1000
0100
0010
0001
1000
0010
0100
0001
1000
0001
0010
0100
,
1000
0010
0100
0010
1000
0001
1000
0001
0100
0010
1000
0001
1000
0100
0010
0001
,
0100
0010
1000
0010
0100
0001
1000
0001
0010
0100
1000
0001
1000
0010
0100
0001
,
1000
0001
0010
0100
1000
0010
0100
0001
0010
0100
1000
0001
1000
0010
0100
0001
,
0010
0100
1000
0001
1000
0010
0100
0001
1000
0100
0010
0001
1000
0001
0100
0010
,
1000
0000
0000
0000
0001
0000
1000
0000
0000
0000
0001
0000
0000
0000
1000
0010
,
0100
0001
1000
0000
1001
0000
1001
0000
,
0001
0000
0000
0000
0010
0000
0100
0000
1000
0000
0001
0000
0000
0000
0100
0010
,
0100
0001
1000
0000
0011
0000
0000
0000
,
0010
0100
0010
0100
0000
1000
0000
0001
,
0000
1000
0100
0000
0110
0000
0110
0000
,
0000
0000
0010
0000
0001
0000
1000
0010
0100
0000
0000
0000
0001
0000
0000
0000
,
1000
0010
1000
0001
1000
0000
0010
0000
0100
0001
0100
0010
1000
0001
1000
0100
,
1000
0000
0010
0000
1000
0000
0001
0000
0100
0000
0001
0000
0010
0000
0001
1000
,
0100
0000
0000
0000
0000
0000
0000
0000
1000
0000
0000
0000
0000
0000
0000
0000
0010
0000
0000
0000
0000
0000
0000
0000
1000
0000
0000
0000
0000
0000
0000
0000
0022
0033
0000
0000
0000
0000
0000
0000
1000
0000
0000
0000
0000
0000
0000
0000
0022
0033
0000
0000
0000
0000
0000
0000
0100
0000
0000
0000
0000
0000
0000
0000
,
0001
0000
1000
0000
0001
0000
0010
0000
0100
0000
1000
0000
0001
0000
1000
0010
,
0100
0000
0000
0000
0000
0000
0000
0000
0001
0000
0000
0000
0000
0000
0000
0000
1000
0000
0000
0000
0000
0000
0000
0000
0001
0000
0000
0000
0000
0000
0000
0000
2200
3300
0000
0000
0000
0000
0000
0000
0001
0000
0000
0000
0000
0000
0000
0000
1000
0000
0000
0000
0000
0000
0000
0000
0001
0000
0000
0000
0000
0000
0000
0000
,
0100
0010
1000
0100
1000
0010
1000
0001
,
0010
0000
0000
0000
0000
0000
0000
0000
0100
0000
0000
0000
0000
0000
0000
0000
1000
0000
0000
0000
0000
0000
0000
0000
0001
0000
0000
0000
0000
0000
0000
0000
2020
3030
0000
0000
0000
0000
0000
0000
0001
0000
0000
0000
0000
0000
0000
0000
2020
3030
0000
0000
0000
0000
0000
0000
0001
0000
0000
0000
0000
0000
0000
0000
,
1000
0000
0001
0000
0010
0000
0001
1000
0100
0000
1000
0000
0001
0000
1000
0000
,
0001
0100
0010
1000
0001
1000
0100
0010
0100
1000
0001
1000
0010
0100
0001
0000
,
0000
0000
0000
0000
,
1000
0000
0001
0000
1000
0000
0001
0000
1000
0010
0100
0001
1000
0010
0100
0001
,
1000
0000
0100
0000
1000
0000
0010
0000
0000
0000
0100
0000
0001
0000
1000
0001
,
0100
0000
0010
1000
0100
1000
0010
0000
,
0100
0000
0000
0000
0001
0000
1000
0010
0100
0000
0001
0000
1000
0000
1000
0000
,
0001
0000
0001
0000
0010
0000
0100
0000
0010
0001
1000
0000
0010
0000
0000
0000
,
0110
0000
0000
0000
0100
0000
0001
0000
0000
0000
1000
0000
0000
0000
0100
1000
,
0001
0000
0100
0010
1000
0001
0010
0000
,
0011
0000
0000
0000
0001
0000
1000
0010
0100
0000
0010
0000
1000
0000
0001
0010
,
0100
0000
1000
0000
0001
0000
0100
0010
1000
0000
0001
0000
0010
0000
0000
0000
,
0001
0000
0100
0000
0001
0000
0010
0000
0000
0000
0100
0000
1000
0000
0001
1000
,
0100
0000
0010
0001
0100
0001
1000
0000
,
0100
0000
0000
0000
1000
0000
0001
0010
0100
0000
1000
0000
0001
0000
0001
0000
,
1000
0100
1000
0100
0010
0000
0100
0000
0010
0001
1000
0000
0100
0000
0000
0000
,
0110
0000
0000
0000
0010
0000
0001
0000
0000
0000
1000
0000
0000
0000
0010
1000
,
0001
0000
0010
0100
1000
0001
0100
0000
,
0101
0000
0000
0000
0001
0000
1000
0100
0010
0000
0100
0000
1000
0001
0100
0001
,
1000
0100
0010
0100
1000
0010
0100
0001
1000
0001
0010
0001
1000
0010
1000
0001
,
0020
0000
0030
0000
1111
0000
0000
0001
,
1000
0000
0100
0000
0010
0000
0001
0000
1000
0000
0000
0000
0000
0000
0010
1000
,
0001
0000
0100
0010
0000
1000
0001
0010
,
0100
0000
0000
0000
1000
0000
0001
0000
0010
0000
0001
0000
1000
0000
0001
0100
,
0020
0000
0030
0000
1111
0000
0000
0010
,
1000
0000
0001
0000
1000
0000
0100
0000
0010
0000
0100
0000
0010
0000
0001
1000
,
0010
0000
1000
0010
0100
0000
0001
0010
0100
0000
1000
0010
0100
0000
0001
0010
,
0100
0000
0000
0000
1000
0001
0100
0001
1000
0100
1000
0001
0100
0010
1000
0010
,
0200
0000
0000
0000
,
0000
0000
0000
0000
,
0300
0000
0000
0000
;
