#TITLE:Gaussian Blur;
#SUBTITLE:(ADHoTUHMP version);
#ARTIST:Kil;
#TITLETRANSLIT:;
#SUBTITLETRANSLIT:;
#ARTISTTRANSLIT:;
#CREDIT:Arch0wl;
#BANNER:gaussianblur-bn.png;
#BACKGROUND:gaussianblur-bg.png;
#LYRICSPATH:;
#CDTITLE:!arch0wltitle.png;
#MUSIC:gaussianblur.ogg;
#OFFSET:-3.080;
#SAMPLESTART:76.210;
#SAMPLELENGTH:12.000;
#SELECTABLE:YES;
#BPMS:0.000=200.000;
#STOPS:;
#BGCHANGES:0.000=gaussianblur-bg.png=1.000=0=0=1,
99999=-nosongbg-=1.000=0=0=0 // don't automatically add -songbackground-
;
// cache tags:
#FIRSTBEAT:0.000;
#LASTBEAT:333.000;
#SONGFILENAME:Songs/Archmage and Dark0wl Hammer of Thor UltraHyperMegaPack/Gaussian Blur (ADHoTUHMP version)/gaussianblur.sm;
#HASMUSIC:1;
#HASBANNER:1;
#MUSICLENGTH:105.000;
// end cache tags

//---------------dance-solo - Arch0wl----------------
#NOTES:
     dance-solo:
     Arch0wl:
     Challenge:
     18:
     1.000,1.000,1.000,1.000,1.000,973.000,391.000,254.000,0.000,320.000:
100002
010000
001003
000100
000001
000010
000100
001000
100020
010000
001030
000100
000001
000010
000100
001000
,
100002
010000
001003
000100
100020
010000
001030
000100
002001
000100
003010
000010
001000
000100
001000
010000
,
100200
010000
001300
000100
000001
000010
000100
001000
100020
010000
001030
000100
000001
000010
000100
001000
,
100200
010000
001300
000100
100020
010000
001030
000100
200001
000100
300010
000010
001000
000100
001000
010000
,
100002
010000
001003
000100
000001
000010
000100
001000
100020
010000
001030
000100
000001
000010
000100
001000
,
100002
010000
001003
000100
100020
010000
001030
000100
002001
000100
003010
000010
021000
000100
031000
010000
,
100200
010300
001020
000130
200001
300010
020100
031000
100020
010032
001023
000132
100023
010032
001023
000132
,
100203
000300
000000
000000
000000
000000
001002
000003
100200
000300
000000
000000
000000
000000
000000
000000
,
100202
010000
001303
000100
000001
000010
000100
001000
100022
010000
001033
000100
000001
000010
000100
001000
,
100202
010000
001303
000100
100022
010000
001033
000100
022001
000100
033010
000010
001000
000100
001000
010000
,
100022
010000
001033
000100
000001
000010
000100
001000
100220
010000
001330
000100
000001
000010
000100
001000
,
100022
010000
001033
000100
100220
010000
001330
000100
220001
000100
330010
000010
001000
000100
001000
010000
,
100202
010000
001303
000100
000001
000010
000100
001000
100022
010000
001033
000100
000001
000010
000100
001000
,
100202
010000
001303
000100
100022
010000
001033
000100
022001
000100
033010
000010
221000
000100
331000
010000
,
102200
013300
001022
000133
220001
330010
020120
031030
100220
012332
103223
012332
103223
012332
103223
012332
,
103223
000330
000000
000000
000000
000000
001022
000033
120200
030300
000000
000000
000000
000000
000000
000000
,
100000
010000
100000
010000
100000
010000
100000
010000
,
100000
010000
100000
010000
100000
010000
100000
010000
,
100000
010000
100000
010000
100000
010000
101211
010000
,
100000
010000
100000
010000
100000
010000
100300
010000
,
100001
000010
010001
000010
100001
000010
010001
000000
100001
000010
010001
000000
100001
000010
010100
000000
,
100001
000010
010001
000010
100001
000010
010001
000000
100001
000010
010001
000000
100001
000010
010101
000000
,
100001
000010
010001
000010
100001
000010
010001
000000
100001
000010
010001
000000
100001
000010
010100
000000
,
100001
000010
010001
000010
100001
000010
010001
000000
100001
000010
010001
000000
100001
000010
010100
000000
,
100100
000010
010001
000100
100010
000001
010100
000010
100001
000100
010010
000001
100100
000010
010001
000010
,
100100
000010
010001
000100
100010
000001
010100
000010
100001
000100
010010
000001
100100
000010
010001
000010
,
100100
000010
010001
000100
100010
000001
010100
000010
100001
000100
010010
000001
100100
000010
010001
000010
,
100100
000010
010001
000100
100010
000001
010100
000010
100001
000100
010010
000001
100100
000010
010001
000010
,
201100
000010
010001
000100
001010
000001
010100
000010
001001
000100
010010
000001
001100
000010
310001
000010
,
021100
000010
100001
000100
001010
000001
130100
000010
012001
000100
100010
000001
010100
000010
103001
000010
,
120100
000010
001001
000100
100010
000001
001100
000010
100001
000100
001010
000001
100100
000010
001001
000010
,
100100
000010
001001
000100
100010
000001
001100
000010
100001
000100
001010
000001
100100
000010
001001
000010
,
130102
010000
001010
100000
010100
001000
100010
010000
001100
100000
010010
001000
100100
010000
001010
010000
,
100100
010000
001010
100000
010100
001000
100010
010000
001100
100000
010010
001000
100100
010000
001013
010000
,
100201
010000
001010
100000
010001
001000
100010
010000
001001
100000
010010
001000
100001
010000
001310
010000
,
100021
010000
001100
100000
010001
001000
100130
010000
001012
100000
010100
001000
100010
010000
001103
010000
,
202202
000000
303303
000000
,
222100
333000
001222
000333
002200
000000
003300
000000
,
002202
000000
000000
003303
000000
000000
202020
000000
010000
303030
000100
000000
022022
000000
000000
000000
000000
000000
033033
000000
000000
000000
000000
000000
,
202220
303330
220200
330300
,
202202
000000
303303
000000
020220
000000
031330
000100
220012
000000
000010
000100
331003
000100
000010
000001
,
222220
300000
200000
333330
,
220022
000000
000000
000000
,
000000
000000
000000
330033
,
022220
000000
000000
000000
,
000000
000000
000000
033330
,
000001
000000
000001
000001
000001
000000
000001
000001
000001
000000
000001
000001
000001
000000
000001
000001
,
000001
000000
000001
000001
000001
000000
000001
000001
000001
000000
000001
000001
000001
000000
000001
000001
,
000001
000000
100001
000001
010001
000000
001001
000001
100001
000000
000001
000001
010001
000000
000001
000001
,
100001
000000
000001
000001
001001
000000
000001
000001
100001
000000
000001
000001
010001
000000
000001
000001
,
110100
000000
100000
100000
101010
000000
100000
100000
110100
000000
100000
100000
101010
000000
100000
100000
,
110100
000000
100000
100000
101010
000000
100000
100000
020202
000000
030303
000000
202020
000000
303030
000000
,
000001
000000
100001
000001
010001
000000
001001
000001
100001
000000
000001
000001
010001
000000
000001
000001
,
100001
000000
000001
000001
001001
000000
000001
000001
100001
000000
000001
000001
010001
000000
000001
000001
,
110010
000000
100000
100000
101100
000000
100000
100000
110010
000000
100000
100000
101100
000000
100000
100000
,
000111
001110
011100
111000
220022
000000
000000
330033
,
000111
001110
011100
111000
220022
000000
000000
330033
,
000111
001110
011100
111000
220022
000000
000000
330033
,
000111
001110
011100
111000
220022
001100
001100
331133
,
111111
111111
111111
111111
,
111111
111111
111111
111111
001111
011110
111100
111001
,
102000
010000
003100
000010
000201
000000
100310
010000
200100
000010
300001
000000
020010
000100
031000
010000
,
100002
010000
002103
000010
023001
000000
132000
010000
003100
000010
002001
000000
203100
001000
310000
100000
,
010002
001000
000103
000010
000201
000000
010300
001000
200100
000010
300001
000000
120000
001000
030100
000001
,
210000
000000
001000
000000
300210
000000
000001
000000
110300
000000
001000
000000
000120
000000
000001
000000
210030
000000
001000
000000
300210
000000
000001
000000
200310
010000
001000
000100
300010
000001
001000
000100
,
100021
010000
000130
000010
000001
000000
100020
010000
000130
000010
000001
000000
020010
000100
031000
010000
,
100020
010000
000130
000010
000001
000000
100020
010000
000130
000010
000001
000000
200100
001000
310000
100000
,
010020
001000
000130
000010
000001
000000
010020
001000
000130
000010
000001
000000
210010
001000
300100
000001
,
120010
000000
001000
000000
030100
000000
000001
000000
110020
000000
001000
000000
000130
000000
000001
000000
210010
000000
001000
000000
300100
000000
000001
000000
100000
010000
001000
000100
000010
000001
001000
000100
,
200012
000100
001000
010000
000010
000100
001000
010000
000010
000100
001000
010000
000010
000100
001000
310003
,
102200
010000
000001
000010
100000
010000
000001
000010
100000
010000
000001
000010
100000
010000
000001
003310
,
221000
000100
000010
000001
001000
000100
000010
000001
001000
000100
000010
000001
001000
000100
000010
330001
,
100220
010000
001000
000331
120020
001000
000100
000001
100000
001000
000100
000001
100000
001000
000100
030031
,
100220
010000
001330
000100
010022
001000
000133
000010
021002
000100
030013
000001
210020
001000
300130
000010
,
022001
000010
033100
001000
220010
000100
331000
010000
200120
001000
310030
100000
020012
000100
031003
010000
,
100220
001000
100000
001000
100330
001000
100000
001000
220002
000000
000000
000000
330003
000000
001000
010000
,
202202
303303
222222
333333
,
001001
010010
100100
010010
001001
010010
100100
010010
001100
100001
010010
100001
001100
100001
010010
100001
,
010010
000101
101000
000101
010010
000101
101000
000101
110000
001010
000101
001010
110000
001010
000101
001010
,
010001
100100
001010
100100
010001
100100
001010
100100
000011
010100
101000
010100
000011
010100
101000
010100
,
100010
001001
000110
001001
100010
001001
000110
001001
010100
001001
100010
001001
010100
001001
100010
001001
,
110000
001100
000011
001100
220022
000000
000000
000000
000000
000000
000000
000000
000000
000000
000000
000000
,
000000
000000
000000
000000
,
000000
330033
000000
000000
;

//---------------dance-single - Arch0wl----------------
#NOTES:
     dance-single:
     Arch0wl:
     Edit:
     25:
     1.000,1.000,1.000,1.000,1.000,972.000,321.000,305.000,0.000,314.000:
0012
1000
0100
0010
1003
0010
0100
1000
0021
0100
1000
0100
0031
1000
0010
0100
,
2001
0010
3100
1000
2001
0010
3100
1000
0012
0100
0013
0010
1000
0001
1000
0010
,
2100
0001
0010
0100
3001
0100
0010
0001
1200
0010
0001
0010
1300
0001
1000
0010
,
1002
0100
0013
0001
1002
0100
0013
0001
2001
0010
3100
0100
0001
1000
0001
0100
,
0012
1000
0100
0010
1003
0010
0100
1000
0021
0100
1000
0100
0031
1000
0001
0100
,
2001
0010
3100
1000
2001
0010
3100
1000
1002
0100
0013
0010
1200
0001
1300
0010
,
1200
0001
1320
0001
2130
0001
3120
0001
2130
3020
2130
3020
2130
3020
2130
3010
,
1021
0030
0000
0110
1021
0030
0000
0000
,
0022
1000
0130
0010
1003
0010
0100
1000
0022
0100
1003
0100
0031
1000
0010
0100
,
2002
0010
3103
1000
2002
0010
3103
1000
0022
0100
1030
0010
1003
0001
1000
0010
,
2200
0001
0310
0100
3001
0100
0010
0001
2200
0010
3001
0010
1300
0001
1000
0010
,
2002
0100
3013
0001
2002
0100
3013
0001
2200
0010
3301
0100
0001
1000
0001
0100
,
0022
1000
0130
0010
1003
0010
0100
1000
0022
0100
1003
0100
0031
1000
0001
0100
,
2002
0010
3103
1000
2002
0010
3103
1000
0022
0100
1033
0010
2200
0001
3310
0100
,
2200
3001
2320
3001
2230
0301
3220
0301
2032
3223
2332
3223
2332
3223
2332
3113
,
1221
0330
0000
0110
1221
0330
0000
0000
,
1000
0100
1000
0100
1000
0100
1000
0100
,
1000
0100
1000
0100
1000
0100
1000
0100
,
1000
0100
1000
0100
1000
0100
1002
0100
,
1000
0100
1000
0100
1000
0100
1003
0100
,
1011
0011
0111
0011
1011
0011
0111
0000
1011
0011
0111
0000
1011
0011
0101
0000
,
1011
0011
0111
0011
1011
0011
0111
0000
1011
0011
0111
0000
1011
0011
0101
0000
,
1011
0011
0111
0011
1011
0011
0111
0000
1011
0011
0111
0000
1011
0011
0101
0000
,
1011
0011
0111
0011
1011
0011
0111
0000
1011
0011
0111
0000
1011
0011
0101
0000
,
0001
0001
0010
0001
0001
0010
0001
0001
0010
0001
0001
0010
0001
0001
0010
0010
,
0001
0001
0010
0001
0001
0010
0001
0001
0010
0001
0001
0010
0001
0001
0010
0010
,
0001
0001
0010
0001
0001
0010
0001
0001
0010
0001
0001
0010
0001
0001
0010
0010
,
0001
0001
0010
0001
0001
0010
0001
0001
0010
0001
0001
0010
0001
0001
0010
0010
,
0001
0001
0010
0001
0201
0010
0001
0001
0010
0001
0001
0010
0001
0001
0310
0010
,
1201
0001
0010
0001
0001
0010
0001
0001
2310
0001
0001
0010
0001
0001
0010
0010
,
0201
0001
0010
0001
0001
0010
0001
0001
0010
0001
0001
0010
0001
0001
0010
0010
,
0001
0001
0010
0001
0001
0010
0001
0001
0010
0001
0001
0010
0001
0001
3010
0010
,
1302
1000
0100
1000
1000
0100
1000
1000
0100
1000
1000
0100
1000
1000
0100
0100
,
1000
1000
0100
1000
1000
0100
1000
1000
0100
1000
1000
0100
1000
1000
0100
0100
,
1023
1000
0100
1000
1000
0100
1000
1000
0100
1000
1000
0100
1000
1000
0100
0100
,
1032
1000
0100
1000
1000
0100
1000
1000
0120
1000
1000
0100
1000
1000
0133
0100
,
2002
0000
3003
0000
,
0212
0303
2120
3030
0200
0000
0300
0000
,
0012
0000
0000
0003
0000
0000
2010
0000
0100
3000
0010
0000
2002
0000
0000
0000
0000
0000
3003
0000
0000
0000
0000
0000
,
2020
3030
0202
0303
,
1002
0000
0003
0000
0020
0000
1030
0001
0210
0000
0301
0010
0100
1000
0100
0010
,
0202
0000
0000
0303
,
2002
0000
0000
0000
,
0000
0000
0000
3003
,
0220
0000
0000
0000
,
0000
0000
0000
0330
,
0001
0000
0001
0001
0001
0000
0001
0001
0001
0000
0001
0001
0001
0000
0001
0001
,
0001
0000
0001
0001
0001
0000
0001
0001
0001
0000
0001
0001
0001
0000
0001
0001
,
0001
0000
2001
0001
3201
0000
0321
0001
2031
0000
3001
0001
2001
0000
3001
0001
,
0021
0000
0031
0001
0021
0000
0031
0001
0201
0000
0301
0001
2001
0000
3001
0001
,
1220
0000
1330
1000
1022
0000
1033
1000
1220
0000
1330
1000
1022
0000
1033
1000
,
1202
0000
1303
1000
1022
0000
1033
1000
0222
0000
0333
0000
2220
0000
3330
0000
,
1001
0000
2001
0001
3201
0000
0321
0001
2031
0000
3001
0001
2001
0000
3001
0001
,
0021
0000
0031
0001
0021
0000
0031
0001
0201
0000
0301
0001
2001
0000
3001
0001
,
1220
0000
1330
1000
1022
0000
1033
1000
1220
0000
1330
1000
1022
0000
1033
1000
,
0222
0333
2220
3330
2202
3303
2022
3033
2222
0000
0000
0000
0000
0000
3333
0000
,
0222
0333
2220
3330
2202
3303
2022
3033
2222
0000
0000
0000
0000
0000
3333
0000
,
0222
0333
2220
3330
2202
3303
2022
3033
2222
0000
0000
0000
0000
0000
3333
0000
,
0222
0333
2220
3330
2202
3303
2022
3033
2022
0000
0100
0000
0100
0000
3133
0000
,
1111
1111
1111
1111
,
1111
1111
1111
1111
1011
1110
1101
0111
,
1200
0010
0301
0010
0102
0000
1003
0010
2001
0010
3100
0000
0021
1000
0130
0010
,
1002
0100
2013
0100
3021
0000
1032
0100
1003
0100
0021
0000
1230
0001
0310
0100
,
1200
0010
0301
0010
0102
0000
1003
0010
2001
0010
3100
0000
2010
0001
3010
0100
,
2010
0000
0001
0000
3200
0000
0010
0000
1320
0000
0001
0000
2130
0000
0010
0000
3210
0000
0001
0000
1320
0000
0001
0000
1030
0100
0010
0001
1000
0100
0010
0001
,
2200
0010
0001
3310
0100
0000
2200
0010
0001
3310
0100
0000
0202
1300
0103
0010
,
0022
0100
1000
0133
0010
0000
0022
0100
1000
0133
0010
0000
2020
0031
3010
0100
,
2200
0010
0001
3310
0100
0000
2200
0010
0001
3310
0100
0000
2020
0031
3010
0100
,
2020
0000
0001
0000
3130
0000
0010
0000
2020
0000
0001
0000
3130
0000
0010
0000
2020
0000
0001
0000
3130
0000
0010
0000
1000
0100
0010
0001
1000
0100
0010
0001
,
2120
0100
0001
0001
0100
0100
0001
0001
0100
0100
0001
0001
0100
0100
0001
3031
,
2210
0010
0001
0001
0010
0010
0001
0001
0010
0010
0001
0001
0010
0010
0001
3301
,
1220
1000
0001
0001
1000
1000
0001
0001
1000
1000
0001
0001
1000
1000
0001
0331
,
2210
0010
0001
3301
1220
1000
0001
0001
1000
1000
0001
0001
1000
1000
0001
0331
,
2210
0310
0100
3100
0212
0310
0100
0103
2021
3001
1000
1030
2201
3001
1000
1300
,
0122
0130
0010
0013
2120
0130
0010
3010
1202
1003
0001
0301
1022
1003
0001
0031
,
0110
1001
0110
1001
0110
1001
0110
1001
2200
0000
0000
0000
3300
0000
1001
0110
,
0202
0303
2020
3030
,
0011
0110
1100
0110
0011
0110
1100
0110
0101
0110
1010
0110
0101
0110
1010
0110
,
1001
1100
0011
0110
1001
1100
0011
0110
1100
0011
1001
0110
1100
0011
1001
0110
,
1010
0101
0011
1100
1010
0101
0011
1100
0101
1010
1100
0011
0101
1010
1100
0011
,
0101
1100
1001
0011
0101
1100
1001
0011
1010
0011
1001
1100
1010
0011
1001
1100
,
1011
1101
0111
1110
2112
0000
0000
0000
0000
0000
0000
0000
0000
0000
0000
0000
,
0000
0000
0000
0000
,
0000
3003
0000
0000
;

//---------------dance-single - Arch0wl----------------
#NOTES:
     dance-single:
     Arch0wl:
     Challenge:
     16:
     1.000,1.000,0.514,0.971,1.000,972.000,54.000,102.000,0.000,0.000:
0010
1000
0100
0010
0001
0010
0100
1000
0010
0100
0001
0100
0010
1000
0010
0100
,
0001
0010
0100
1000
0001
0010
0100
1000
0001
0100
0010
0010
1000
0001
1000
0010
,
0100
0001
0010
0100
1000
0100
0010
0001
0100
0010
1000
0010
0100
0001
0100
0010
,
1000
0100
0010
0001
1000
0100
0010
0001
1000
0010
0100
0100
0001
1000
0001
0100
,
0010
1000
0100
0010
0001
0010
0100
1000
0010
0100
0001
0100
0010
1000
0010
0100
,
0001
0010
0100
1000
0001
0010
0100
1000
0001
0100
0010
0010
1000
0001
1000
0010
,
0100
0001
1000
0001
0100
0001
0010
0001
0100
0010
0100
0010
0100
0010
0100
0010
,
0110
0000
0000
0110
1001
0000
0000
0000
,
0002
1003
0100
0010
0001
0010
0100
1000
0020
0130
0001
0100
0010
1000
0010
0100
,
0002
0013
0100
1000
0002
0013
0100
1000
0002
0103
0010
0010
1000
0001
1000
0010
,
0200
0301
0010
0100
1000
0100
0010
0001
0200
0310
1000
0010
0100
0001
0100
0010
,
2000
3100
0010
0001
2000
3100
0010
0001
2000
3010
0100
0100
0001
1000
0001
0100
,
0020
1030
0100
0010
0001
0010
0100
1000
0020
0130
0001
0100
0010
1000
0010
0100
,
0002
0013
0100
1000
0002
0013
0100
1000
0002
0103
0010
0010
2000
3001
1000
0010
,
0200
0301
2000
3001
0200
0301
0020
0031
0200
0320
0230
0320
0230
0320
0230
0310
,
0220
0330
0000
0110
2002
3003
0000
0000
,
1000
0100
1000
0100
1000
0100
1000
0100
,
1000
0100
1000
0100
1000
0100
1000
0100
,
1000
0100
1000
0100
1000
0100
1002
0100
,
1000
0100
1000
0100
1000
0100
1003
0100
,
1000
0010
1000
0010
1000
0010
1000
0000
1000
0010
1000
0000
1000
0010
0100
0000
,
0001
0010
0001
0010
0001
0010
0001
0000
0001
0010
0001
0000
0001
0010
0100
0000
,
1000
0100
1000
0100
1000
0100
1000
0000
1000
0100
1000
0000
1000
0100
0010
0000
,
0001
0100
0001
0100
0001
0100
0001
0000
0001
0100
0001
0000
0001
0100
0010
0000
,
1000
0010
0001
1000
0100
0001
1000
0010
0001
1000
0100
0001
1000
0010
0100
0001
,
1000
0010
0001
1000
0100
0001
1000
0010
0001
1000
0100
0001
1000
0001
0010
0100
,
1000
0010
0001
1000
0100
0001
1000
0010
0001
1000
0100
0001
1000
0001
0100
0010
,
1000
0010
0001
1000
0100
0001
1000
0010
0001
1000
0100
0001
1000
0001
0010
0100
,
1000
0010
0001
1000
0100
0001
1000
0010
0001
1000
0100
0001
1000
0010
0100
0001
,
1000
0010
0001
1000
0100
0001
1000
0010
0001
1000
0100
0001
1000
0001
0010
0100
,
1000
0010
0001
1000
0100
0001
1000
0010
0001
1000
0100
0001
1000
0001
0100
0010
,
1000
0010
0001
1000
0100
0001
1000
0010
0001
1000
0100
0001
1000
0001
0010
0100
,
0001
0100
1000
0001
0010
1000
0001
0100
1000
0001
0010
1000
0001
0100
0010
1000
,
0001
0100
1000
0001
0010
1000
0001
0100
1000
0001
0010
1000
0001
1000
0100
0010
,
0001
0100
1000
0001
0010
1000
0001
0100
1000
0001
0010
1000
0001
1000
0010
0100
,
0001
0100
1000
0001
0010
1000
0001
0100
1000
0001
0010
1000
0001
1000
0100
0010
,
2002
0000
3003
0000
,
0202
0303
2020
3030
0200
0300
0000
0000
,
0011
0000
0000
1000
0100
0010
2002
0000
0000
3003
0000
0000
,
2020
3030
0202
0303
,
1002
0000
0003
0000
0020
0000
1030
0001
0210
0000
0301
0010
0100
1000
0100
0010
,
0202
0000
0000
0303
,
2002
0000
0000
0000
,
0000
0000
0000
3003
,
0220
0000
0000
0000
,
0000
0000
0000
0330
,
0001
0000
0001
0010
0001
0000
0001
0010
0001
0000
0001
0010
0001
0000
0001
0010
,
0001
0000
0001
0010
0001
0000
0001
0010
0001
0000
0001
0010
0001
0000
0001
0010
,
0001
0000
0001
0010
0001
0000
0001
0010
0001
0000
0001
0010
0001
0000
0001
0010
,
0001
0000
0001
0010
0001
0000
0001
0010
0001
0000
0001
0010
0001
0000
0001
0010
,
0100
0000
0100
1000
0100
0000
0100
1000
0100
0000
0100
1000
0100
0000
0100
1000
,
0100
0000
0100
1000
0100
0000
0100
1000
0202
0000
0303
0000
2020
0000
3030
0000
,
0001
0000
0001
0010
0001
0000
0001
0010
0001
0000
0001
0010
0001
0000
0001
0010
,
0001
0000
0001
0010
0001
0000
0001
0010
0001
0000
0001
0010
0001
0000
0001
0010
,
0100
0000
0100
1000
0100
0000
0100
1000
0100
0000
0100
1000
0100
0000
0100
1000
,
0202
0303
0220
0330
2200
3300
0022
0033
2002
0000
0000
0000
0000
0000
3003
0000
,
0202
0303
0220
0330
2200
3300
0022
0033
2002
0000
0000
0000
0000
0000
3003
0000
,
0202
0303
0220
0330
2200
3300
0022
0033
2002
0000
0000
0000
0000
0000
3003
0000
,
0202
0303
0220
0330
2200
3300
0022
0033
1002
0000
0100
0000
0100
0000
0103
0000
,
1001
1001
1001
1001
,
1001
1001
1001
1001
1001
0011
0110
1100
,
1000
0010
0001
0010
0100
0000
1000
0010
0001
0010
0100
0000
0001
1000
0100
0010
,
0001
0100
1000
0100
0010
0000
0001
0100
1000
0100
0010
0000
1000
0001
0010
0100
,
1000
0010
0001
0010
0100
0000
1000
0010
0001
0010
0100
0000
1000
0001
0010
0100
,
1000
0000
0001
0000
0100
0000
0010
0000
1000
0000
0001
0000
0100
0000
0010
0000
1000
0000
0001
0000
0100
0000
0010
0000
1000
0100
0010
0001
1000
0100
0010
0001
,
1000
0010
0001
0010
0100
0000
1000
0010
0001
0010
0100
0000
0001
1000
0100
0010
,
0001
0100
1000
0100
0010
0000
0001
0100
1000
0100
0010
0000
1000
0001
0010
0100
,
1000
0010
0001
0010
0100
0000
1000
0010
0001
0010
0100
0000
1000
0001
0010
0100
,
1000
0000
0001
0000
0100
0000
0010
0000
1000
0000
0001
0000
0100
0000
0010
0000
1000
0000
0001
0000
0100
0000
0010
0000
1000
0100
0010
0001
1000
0100
0010
0001
,
1000
0100
0010
0001
1000
0100
0010
0001
1000
0100
0010
0001
1000
0100
0010
0001
,
1000
0010
0100
0001
1000
0010
0100
0001
1000
0010
0100
0001
1000
0010
0100
0001
,
0010
0100
1000
0001
0010
0100
1000
0001
0010
0100
1000
0001
0010
0100
1000
0001
,
1000
0100
0010
0001
1000
0010
0100
0001
1000
0010
0100
0001
1000
0010
0100
0001
,
1000
0100
0010
0001
1000
0010
0100
0001
1000
0100
0010
0001
1000
0010
0100
0001
,
1000
0100
0010
0001
1000
0010
0100
0001
1000
0100
0010
0001
1000
0010
0100
0001
,
1000
0010
1000
0010
1000
0010
1000
0010
2000
0000
0000
0000
3000
0000
0001
0010
,
0002
0003
0020
0030
,
0001
0010
1000
0100
0001
0010
1000
0100
0001
1000
0010
0100
0001
1000
0010
0100
,
0001
0100
1000
0010
0001
0100
1000
0010
0100
0001
1000
0010
0100
0001
1000
0010
,
0100
0001
0010
1000
0100
0001
0010
1000
0001
0010
0100
1000
0001
0010
0100
1000
,
0001
0100
1000
0010
0001
0100
1000
0010
0001
0100
0010
1000
0001
0100
0010
1000
,
0001
0010
0100
1000
0202
0000
0000
0000
0000
0000
0000
0000
0000
0000
0000
0000
,
0000
0000
0000
0000
,
0303
0000
0000
0000
;

//---------------dance-single - Arch0wl----------------
#NOTES:
     dance-single:
     Arch0wl:
     Medium:
     11:
     1.000,1.000,1.000,0.914,0.471,569.000,116.000,96.000,0.000,3.000:
0001
0010
0100
1000
0001
0100
0010
1000
,
0001
0010
0001
0100
0010
1000
0100
0010
,
0001
0100
0010
1000
0001
0010
0100
1000
,
0010
0100
0010
1000
0001
0100
0010
1000
,
0001
0010
0100
1000
0001
0100
0010
1000
,
0001
0010
0001
0100
0001
1000
0001
0100
,
0010
0010
0100
0100
0010
0010
0010
0010
,
0110
0000
0000
0110
1001
0000
0000
0000
,
0012
0003
0010
0000
0100
0000
1000
0000
0012
0003
0100
0000
0010
0000
1000
0000
,
0012
0003
0010
0000
0102
0003
0100
0000
1020
0030
1000
0000
0100
0000
0010
0000
,
0012
0003
0100
0000
0010
0000
1000
0000
0102
0003
0010
0000
0100
0000
1000
0000
,
0120
0030
0100
0000
1020
0030
1000
0000
0102
0003
0100
0000
0010
0000
1000
0000
,
0012
0003
0010
0000
0100
0000
1000
0000
0012
0003
0100
0000
0010
0000
1000
0000
,
0012
0003
0010
0000
0102
0003
0100
0000
1002
0003
1000
0000
0102
0003
0100
0000
,
0120
0030
1020
0030
0210
0300
0201
0300
0120
0030
0120
0030
0120
0030
0120
0030
,
1001
0000
0000
0110
2002
3003
0000
0000
,
1000
0100
1000
0100
1000
0100
1000
0100
,
1000
0100
1000
0100
1000
0100
1000
0100
,
1000
0100
1000
0100
1000
0100
0011
0001
,
0010
0001
0010
0001
0010
0001
0010
0001
,
1000
0000
1000
0000
1000
0000
1000
0000
0100
0010
0100
0000
1000
0010
0100
0000
,
0001
0000
0001
0000
0001
0000
0001
0000
0100
0010
0100
0000
0001
0010
0100
0000
,
1000
0000
1000
0000
1000
0000
1000
0000
0100
0010
0100
0000
1000
0100
0010
0000
,
0001
0000
0001
0000
0001
0000
0001
0000
0010
0100
0010
0000
0001
0100
0010
0000
,
1100
0000
0000
1100
0000
0000
1100
0000
0000
1100
0000
0000
0011
0000
0010
0000
,
1100
0000
0000
1100
0000
0000
1100
0000
0000
1100
0000
0000
0011
0000
0010
0000
,
1100
0000
0000
1100
0000
0000
1100
0000
0000
1100
0000
0000
0011
0000
0010
0000
,
1100
0000
0000
1100
0000
0000
1100
0000
0000
1100
0000
0000
0011
0000
0010
0000
,
2000
0000
0000
0010
0000
0000
0010
0000
0000
0010
0000
0000
0010
0000
3010
0000
,
0200
0000
0000
0010
0000
0000
0310
0000
2000
0010
0000
0000
0010
0000
3010
0000
,
0002
0000
0000
1000
0000
0000
1000
0000
0000
1000
0000
0000
1000
0000
1000
0000
,
1000
0000
0000
1000
0000
0000
1000
0000
0000
1000
0000
0000
1000
0000
1003
0000
,
0200
0000
0000
0010
0000
0000
0010
0000
0000
0010
0000
0000
0010
0000
0010
0000
,
0010
0000
0000
0010
0000
0000
0010
0000
0000
0010
0000
0000
0010
0000
0310
0000
,
0002
0000
0000
0100
0000
0000
0100
0000
0000
0100
0000
0000
0100
0000
0103
0000
,
2000
0000
0000
0100
0000
0000
0100
0000
0000
0100
0000
0000
0100
0000
3100
0000
,
2002
0000
3003
0000
,
0202
0303
2020
3030
0200
0000
0300
0000
,
0011
0000
0000
1000
0100
0010
0002
0000
0000
0003
0000
0000
,
2020
3030
0202
0303
,
1002
0003
0020
0130
2000
3001
0100
0010
,
2020
0000
0000
3030
,
2002
0000
0000
0000
,
0000
0000
0000
3003
,
0220
0000
0000
0000
,
0000
0000
0000
0330
,
0001
0010
0010
0001
0001
0010
0010
0001
,
0001
0010
0010
0001
0001
0010
0010
0001
,
0001
1000
0100
0010
0001
0000
0100
0000
,
0010
0100
0001
0010
,
1100
0110
1100
0011
,
1100
0000
0101
0000
2220
3330
2022
3033
,
0001
1000
0100
0010
0001
0000
0100
0000
,
0010
0100
0001
0010
,
1010
0101
1010
0101
,
0012
0003
0120
0030
1200
0300
0120
0030
2002
0000
0000
0000
0000
0000
3003
0000
,
0012
0003
0120
0030
1200
0300
0120
0030
2002
0000
0000
0000
0000
0000
3003
0000
,
0012
0003
0120
0030
1200
0300
0120
0030
2002
0000
0000
0000
0000
0000
3003
0000
,
0012
0003
0120
0030
1200
0300
0120
0030
1002
0000
0100
0000
0100
0000
0103
0000
,
1001
1001
1001
1001
,
1001
1001
1001
1001
0011
0110
1100
1001
,
1000
0000
0001
0010
0100
0000
1000
0000
0001
0010
0100
0000
1000
0000
0100
0000
,
0010
0000
0001
0010
0100
0000
1000
0000
0001
0010
0100
0000
1000
0000
0010
0000
,
0100
0000
0001
0100
0010
0000
1000
0000
0001
0100
0010
0000
1000
0000
0001
0000
,
1000
0100
0010
0000
0100
0010
0001
0000
0010
0001
1000
0000
2000
3200
0320
0032
,
1103
0000
0000
1100
0000
0000
0001
0000
,
0110
0000
0000
0110
0000
0000
1000
0000
,
0011
0000
0000
0011
0000
0000
0101
0000
,
0110
0000
0000
0000
1010
0000
0000
0000
1001
0000
0000
0000
2000
3002
0023
0230
,
1300
0100
0010
0000
0100
0000
0010
0000
1000
0000
0010
0000
0100
0000
0010
0000
,
0001
0010
0100
0000
1000
0000
0100
0000
0010
0000
0100
0000
1000
0000
0100
0000
,
0010
0100
1000
0000
0001
0000
0100
0000
0010
0000
0100
0000
0001
0000
0100
0000
,
0001
1000
0100
0000
0010
0001
1000
0000
0100
0000
1000
0000
0010
0000
1000
0000
,
0100
0010
0001
0000
1000
0100
0010
0000
0001
1000
0100
0000
0010
0001
1000
0000
,
0010
1000
0001
0000
0100
0010
1000
0000
0001
0010
0100
0000
0010
0100
1000
0000
,
1000
0010
1000
0010
1000
0010
1000
0010
2000
0000
0000
0000
3000
0000
0001
0010
,
0002
0003
0020
0030
,
0001
0010
0001
0010
0001
0010
0001
0010
0001
0100
0001
0100
0001
0100
0001
0100
,
0010
1000
0010
1000
0010
1000
0010
1000
0010
0100
0010
0100
0010
0100
0010
0100
,
0001
0010
0001
0010
0001
0010
0001
0010
0100
1000
0100
1000
0100
1000
0100
1000
,
0010
0100
0010
0100
0010
0100
0010
0100
0001
0010
0001
0010
0001
0010
0001
0010
,
0100
1000
0100
1000
2002
0000
0000
0000
0000
0000
0000
0000
0000
0000
0000
0000
,
0000
0000
0000
0000
,
0000
3003
0000
0000
;

//---------------dance-single - Arch0wl----------------
#NOTES:
     dance-single:
     Arch0wl:
     Hard:
     15:
     1.000,1.000,0.514,1.000,1.000,964.000,54.000,110.000,0.000,0.000:
0010
1000
0100
0010
0001
0010
0100
1000
0010
0100
0001
0100
0010
1000
0010
0100
,
0001
0010
0100
1000
0001
0010
0100
1000
0001
0100
0010
0010
1000
0001
1000
0010
,
0100
0001
0010
0100
1000
0100
0010
0001
0100
0010
1000
0010
0100
0001
0100
0010
,
1000
0100
0010
0001
1000
0100
0010
0001
1000
0010
0100
0100
0001
1000
0001
0100
,
0010
1000
0100
0010
0001
0010
0100
1000
0010
0100
0001
0100
0010
1000
0010
0100
,
0001
0010
0100
1000
0001
0010
0100
1000
0001
0100
0010
0010
1000
0001
1000
0010
,
0100
0001
1000
0001
0100
0001
0010
0001
0100
0010
0100
0010
0100
0010
0100
0010
,
0110
0000
0000
0110
1001
0000
0000
0000
,
0002
1003
0100
0010
0001
0010
0100
1000
0020
0130
0001
0100
0010
1000
0010
0100
,
0002
0013
0100
1000
0002
0013
0100
1000
0002
0103
0010
0010
1000
0001
1000
0010
,
0200
0301
0010
0100
1000
0100
0010
0001
0200
0310
1000
0010
0100
0001
0100
0010
,
2000
3100
0010
0001
2000
3100
0010
0001
2000
3010
0100
0100
0001
1000
0001
0100
,
0020
1030
0100
0010
0001
0010
0100
1000
0020
0130
0001
0100
0010
1000
0010
0100
,
0002
0013
0100
1000
0002
0013
0100
1000
0002
0103
0010
0010
2000
3001
1000
0010
,
0200
0301
2000
3001
0200
0301
0020
0031
0200
0320
0230
0320
0230
0320
0230
0310
,
0220
0330
0000
0110
2002
3003
0000
0000
,
1000
0100
1000
0100
1000
0100
1000
0100
,
1000
0100
1000
0100
1000
0100
1000
0100
,
1000
0100
1000
0100
1000
0100
1002
0100
,
1000
0100
1000
0100
1000
0100
1003
0100
,
1000
0010
1000
0010
1000
0010
1000
0000
1000
0010
1000
0000
1000
0010
0100
0000
,
0001
0010
0001
0010
0001
0010
0001
0000
0001
0010
0001
0000
0001
0010
0100
0000
,
1000
0100
1000
0100
1000
0100
1000
0000
1000
0100
1000
0000
1000
0100
0010
0000
,
0001
0100
0001
0100
0001
0100
0001
0000
0001
0100
0001
0000
0001
0100
0010
0000
,
1000
0100
1000
0001
0010
0001
1000
0100
1000
0001
0010
0001
1000
0100
0010
0001
,
1000
0100
1000
0001
0010
0001
1000
0100
1000
0001
0010
0001
1000
0100
0010
0001
,
1000
0100
1000
0001
0010
0001
1000
0100
1000
0001
0010
0001
1000
0100
0010
0001
,
1000
0100
1000
0001
0010
0001
1000
0100
1000
0001
0010
0001
1000
0100
0010
0001
,
1000
0100
1000
0001
0010
0001
1000
0100
1000
0001
0010
0001
1000
0100
0010
0001
,
1000
0100
1000
0001
0010
0001
1000
0100
1000
0001
0010
0001
1000
0100
0010
0001
,
1000
0100
1000
0001
0010
0001
1000
0100
1000
0001
0010
0001
1000
0100
0010
0001
,
1000
0100
1000
0001
0010
0001
1000
0100
1000
0001
0010
0001
1000
0100
0010
0001
,
0010
0100
0010
0001
0100
0001
0010
0100
0010
0001
0100
0001
1000
0010
0100
0001
,
0010
0100
0010
0001
0100
0001
0010
0100
0010
0001
0100
0001
1000
0010
0100
0001
,
0010
0100
0010
0001
0100
0001
0010
0100
0010
0001
0100
0001
1000
0010
0100
0001
,
0010
0100
0010
0001
0100
0001
0010
0100
0010
0001
0100
0001
1000
0010
0100
0001
,
2002
0000
3003
0000
,
0202
0303
2020
3030
0200
0000
0300
0000
,
0011
0000
0000
1000
0100
0010
2002
0000
0000
3003
0000
0000
,
2020
3030
0202
0303
,
1002
0000
0003
0000
0020
0000
1030
0001
0210
0000
0301
0010
0100
1000
0100
0010
,
0202
0000
0000
0303
,
2002
0000
0000
0000
,
0000
0000
0000
3003
,
0220
0000
0000
0000
,
0000
0000
0000
0330
,
0001
0000
0001
0010
0001
0000
0001
0010
0001
0000
0001
0010
0001
0000
0001
0010
,
0001
0000
0001
0010
0001
0000
0001
0010
0001
0000
0001
0010
0001
0000
0001
0010
,
0001
0000
0001
0010
0001
0000
0001
0010
0001
0000
0001
0010
0001
0000
0001
0010
,
0001
0000
0001
0010
0001
0000
0001
0010
0001
0000
0001
0010
0001
0000
0001
0010
,
0100
0000
0100
1000
0100
0000
0100
1000
0100
0000
0100
1000
0100
0000
0100
1000
,
0100
0000
0100
1000
0100
0000
0100
1000
0202
0000
0303
0000
2020
0000
3030
0000
,
0001
0000
0001
0010
0001
0000
0001
0010
0001
0000
0001
0010
0001
0000
0001
0010
,
0001
0000
0001
0010
0001
0000
0001
0010
0001
0000
0001
0010
0001
0000
0001
0010
,
0100
0000
0100
1000
0100
0000
0100
1000
0100
0000
0100
1000
0100
0000
0100
1000
,
0202
0303
0220
0330
2200
3300
0022
0033
2002
0000
0000
0000
0000
0000
3003
0000
,
0202
0303
0220
0330
2200
3300
0022
0033
2002
0000
0000
0000
0000
0000
3003
0000
,
0202
0303
0220
0330
2200
3300
0022
0033
2002
0000
0000
0000
0000
0000
3003
0000
,
0202
0303
0220
0330
2200
3300
0022
0033
1002
0000
0100
0000
0100
0000
0103
0000
,
1001
1001
1001
1001
,
1001
1001
1001
1001
1001
0011
0110
1100
,
1000
0010
0001
0010
0100
0000
1000
0010
0001
0010
0100
0000
0001
1000
0100
0010
,
0001
0100
1000
0100
0010
0000
0001
0100
1000
0100
0010
0000
1000
0001
0010
0100
,
1000
0010
0001
0010
0100
0000
1000
0010
0001
0010
0100
0000
1000
0001
0010
0100
,
1000
0001
0100
0010
1000
0001
0100
0010
1000
0001
0100
0010
2000
3200
0320
0032
,
1003
0010
0001
0010
0100
0000
1000
0010
0001
0010
0100
0000
0001
1000
0100
0010
,
0001
0100
1000
0100
0010
0000
0001
0100
1000
0100
0010
0000
1000
0001
0010
0100
,
1000
0010
0001
0010
0100
0000
1000
0010
0001
0010
0100
0000
1000
0001
0010
0100
,
1000
0001
0100
0010
1000
0001
0100
0010
1000
0001
0100
0010
2000
3002
0023
0230
,
1300
0100
0010
0001
1000
0100
0010
0001
1000
0100
0010
0001
1000
0100
0010
0001
,
1000
0010
0100
0001
1000
0010
0100
0001
1000
0010
0100
0001
1000
0010
0100
0001
,
0010
0100
1000
0001
0010
0100
1000
0001
0010
0100
1000
0001
0010
0100
1000
0001
,
1000
0100
0010
0001
1000
0010
0100
0001
1000
0010
0100
0001
1000
0010
0100
0001
,
1000
0100
0010
0001
1000
0010
0100
0001
1000
0100
0010
0001
1000
0010
0100
0001
,
1000
0100
0010
0001
1000
0010
0100
0001
1000
0100
0010
0001
1000
0010
0100
0001
,
1000
0010
1000
0010
1000
0010
1000
0010
2000
0000
0000
0000
3000
0000
0001
0010
,
0002
0003
0020
0030
,
0001
0010
0001
0010
0100
1000
0100
1000
0001
0100
0001
0100
0010
1000
0010
1000
,
0001
0100
0001
0100
0010
0100
0010
0100
0001
1000
0001
1000
0100
1000
0100
1000
,
0010
0100
0010
0100
0001
1000
0001
1000
0010
1000
0010
1000
0001
0010
0001
0010
,
0100
0010
0100
0010
0001
0100
0001
0100
0010
1000
0010
1000
0001
0100
0001
0100
,
0010
0100
0010
0100
2002
0000
0000
0000
0000
0000
0000
0000
0000
0000
0000
0000
,
0000
0000
0000
0000
,
0000
3003
0000
0000
;
