#TITLE:Pop Pop Poppet;
#SUBTITLE:(ZxENIC MIX);
#ARTIST:BACO remixed by djHIRO;
#TITLETRANSLIT:;
#SUBTITLETRANSLIT:;
#ARTISTTRANSLIT:;
#CREDIT:;
#BANNER:banner.png;
#BACKGROUND:bg.png;
#LYRICSPATH:;
#CDTITLE:../cdtitle.png;
#MUSIC:ppp.mp3;
#OFFSET:-0.500;
#SAMPLESTART:24.440;
#SAMPLELENGTH:12.000;
#SELECTABLE:YES;
#BPMS:0.000=160.000;
#STOPS:223.500=0.380
;
#BGCHANGES:;
// cache tags:
#FIRSTBEAT:16.000;
#LASTBEAT:257.750;
#SONGFILENAME:Songs/Japanese Collaboration Mix/ppp/ppp.sm;
#HASMUSIC:1;
#HASBANNER:1;
#MUSICLENGTH:98.264;
// end cache tags

//---------------dance-single - ----------------
#NOTES:
     dance-single:
     :
     Challenge:
     10:
     0.730,0.721,0.163,0.020,0.555,484.000,16.000,2.000,0.000,0.000:
0000
0000
0000
0000
,
0000
0000
0000
0000
,
0000
0000
0000
0000
,
0000
0000
0000
0000
,
1000
0010
1000
0010
1000
0001
1000
0001
,
0100
0001
0100
0001
0100
0010
0100
0010
,
1000
0001
1000
0001
0010
0100
0010
0100
,
1000
0001
0000
1000
0001
0000
0100
0000
0010
0000
1000
0000
1001
0000
0000
0000
,
0001
0100
0010
1000
0001
0100
0010
0000
,
1000
0100
0010
0001
1000
0100
0010
0000
,
0001
0100
1000
0100
0001
0100
1000
0000
,
0001
0000
0010
0000
0100
0000
1000
0000
0010
0100
0000
0000
0110
0000
0000
0000
,
0001
1000
0100
1000
0001
1000
0100
0000
,
0001
1000
0010
0100
0001
0010
0100
0000
,
1000
0010
0100
0010
0001
0010
1000
0000
,
0100
1000
0001
0010
0001
1000
1100
0000
,
0001
0000
0100
0000
0010
0000
1000
0000
0001
0000
0000
0010
0000
0000
0010
0000
,
0100
0000
1000
0000
0010
0000
0100
0000
1000
0000
0000
0100
0000
0000
0001
0000
,
1000
0000
0100
0000
0010
0000
0001
0000
0100
0000
0000
0100
0000
0000
0010
0000
,
1000
0100
1000
0000
0001
0000
0100
0010
1000
0000
0001
0000
1000
0010
0100
0001
,
1000
0000
0100
0000
0001
0000
0100
0000
1000
0000
0000
0010
0000
0000
0100
0000
,
0001
0000
0010
0000
1000
0000
0010
0000
0001
0000
0000
0100
0000
0000
1000
0000
,
0100
0000
0010
0000
1000
0000
0100
0000
0010
0000
0000
0001
0000
0000
0001
0000
,
1000
0100
1000
0000
0001
0010
0000
0100
0000
1000
0000
0010
0100
0001
1000
0100
,
0010
0000
0100
0000
1000
0000
0100
0000
0001
0000
0000
0100
0000
0000
1000
0000
,
0010
0000
0100
0000
1000
0000
0100
0000
0001
1000
0000
1000
0001
0000
0100
0000
,
0010
0000
1000
0000
0001
0000
0010
0000
0100
0000
0000
1000
0000
0000
0010
0000
,
1000
0100
1000
0000
0001
0000
0100
0010
1000
0000
0001
0000
1000
0010
0100
0001
,
1000
0000
0100
0000
0010
0000
0001
0000
0100
0000
0000
0010
0000
0000
1000
0000
,
0001
0000
0010
0000
0100
0000
1000
0000
0010
0100
0000
0100
0010
0000
1000
0000
,
0001
0000
0010
0000
0100
0000
0001
0000
0100
0000
0000
1000
0000
0000
0001
0000
,
0100
0010
0100
0000
0001
1000
0000
0010
0000
1000
0000
0100
0010
0001
1000
0010
,
0100
0000
0001
0001
,
0010
0100
1000
1000
,
0001
0000
0001
1000
0010
0000
0010
0100
,
0002
0010
1003
0101
,
1000
0101
1000
1100
,
0001
1010
0001
0011
,
1000
0000
0001
0010
0100
0000
0100
1000
,
0001
0100
0010
1000
0100
0010
1001
0000
,
0001
0100
0001
1000
0000
0000
0010
0000
1000
0100
1000
0001
0000
0000
0010
0000
,
0001
0010
0001
1000
0000
0000
0100
0000
0010
0000
0001
0000
1000
0010
1000
0000
,
0001
0100
0001
0010
0000
0000
0100
0000
1000
0001
1000
0010
0000
0000
0100
0000
,
0010
1000
0010
0100
0000
0000
0001
0000
1000
0000
0100
0000
0001
0100
1000
0000
,
0001
0100
0010
1000
0000
0000
0100
0000
0010
0001
0100
0010
0000
0000
1000
0000
,
0001
0010
0100
1000
0000
0000
0010
0000
0100
0000
0001
0000
0100
0010
1000
0000
,
0001
1000
0010
0100
0000
0000
0100
0000
0001
1000
0100
0010
0000
0000
0010
0000
,
0001
0100
0001
1000
0000
0000
0010
0000
0100
0001
1000
0100
0001
0000
0000
0000
,
1000
0000
0010
0000
0100
0000
0001
0000
1000
0000
0000
0100
0000
0000
1100
0000
,
0010
0000
0001
0000
1000
0000
0010
0000
0100
0001
0000
1000
0100
0000
0010
0000
,
0001
0000
0100
0000
1000
0000
0100
0000
0001
0000
0000
1000
0000
0000
1001
0000
,
0010
0100
0010
0000
1000
0000
0001
0010
0100
0000
1000
0000
0001
0100
0001
0100
,
0010
0000
1000
0000
0100
0000
0001
0000
0100
0000
0000
1000
0000
0000
0101
0000
,
1000
0000
0010
0000
0100
0000
0001
0000
1000
0100
0000
0001
0100
0000
1000
0000
,
0010
0000
0100
0000
0001
0000
1000
0000
0100
0000
0000
0010
0000
0000
1001
0000
,
0100
0000
0000
0000
0010
0000
0000
0000
0100
0000
0000
0000
0000
0000
0000
0000
0001
0000
0000
0000
0010
0000
0000
0000
0000
0000
0000
0000
0100
0000
0000
0000
0000
0000
0000
0000
1000
0000
0000
0000
0000
0000
0000
0000
0010
0000
0000
0000
0000
0000
0000
0000
0100
0000
0000
0000
0002
0003
0000
0000
0000
0000
0000
0000
,
1001
0000
0001
0010
0100
0000
1000
0100
,
0001
0100
1000
0100
0001
0000
1000
0010
,
0100
0001
1000
0010
0100
0000
0001
0010
,
0100
0000
1000
0000
0001
1000
0000
0000
1001
0000
0000
0000
0001
0000
1000
0100
,
1000
0000
0001
0000
0100
0010
0000
0000
1000
0100
0000
1000
0001
0000
0100
0010
,
0100
0000
0001
0000
1000
0100
0000
0000
0010
0001
0000
0010
0100
0000
1000
0001
,
1000
0000
0010
0000
0100
0001
0000
0000
1000
0010
0000
1000
0100
0010
0100
0000
,
1000
0001
0000
0100
0000
0010
0000
1000
0100
0010
1000
0010
0001
0000
0000
0010
,
0100
0000
1000
0000
0010
0100
0000
1001
0000
0000
0000
0000
0000
0000
0000
0000
;
