#TITLE:Stand The Night;
#SUBTITLE:- Galatic Patrol Lensmen;
#ARTIST:笠原弘子;
#TITLETRANSLIT:;
#SUBTITLETRANSLIT:;
#ARTISTTRANSLIT:Kasahara Hiroko;
#CREDIT:;
#BANNER:standthenight-bn.png;
#BACKGROUND:standthenight-bg.png;
#LYRICSPATH:standthenight.lrc;
#CDTITLE:!cdtitle.png;
#MUSIC:standthenight.mp3;
#OFFSET:-1.866;
#SAMPLESTART:75.899;
#SAMPLELENGTH:17.342;
#SELECTABLE:YES;
#BPMS:0.000=128.000;
#STOPS:;
#BGCHANGES:;
// cache tags:
#FIRSTBEAT:4.000;
#LASTBEAT:271.000;
#SONGFILENAME:Songs/Otaku's Dream 1st Anime Mix/PlatinumHawke - Stand The Night/standthenight.sm;
#HASMUSIC:1;
#HASBANNER:1;
#MUSICLENGTH:135.575;
// end cache tags

//---------------dance-single - ----------------
#NOTES:
     dance-single:
     :
     Easy:
     1:
     0.145,0.197,0.022,0.192,0.000,109.000,3.000,26.000,0.000,0.000:
0000
0000
0000
0000
,
2000
0000
3000
0000
,
0200
0000
0300
0000
,
0020
0000
0030
0000
,
0002
0000
0003
0000
,
0200
0000
0300
0000
,
0020
0000
0030
0000
,
2002
0000
3003
0000
,
0000
0000
1000
0000
,
0100
0000
1000
0000
,
0001
0000
0100
0000
,
0001
0000
0000
0000
,
0010
0000
1000
0000
,
1000
0000
0100
0000
,
0001
0000
0001
0000
,
0100
0000
0000
0000
,
0000
0000
0001
0000
,
0010
0000
0001
0000
,
1000
0000
0010
0000
,
1000
0000
0000
0000
,
0100
0000
0001
0000
,
0001
0000
0010
0000
,
1000
0000
1000
0000
,
0010
0000
0000
0000
,
0000
1000
1000
0000
,
0000
0100
0100
0100
,
0010
0010
0010
0000
,
0002
0000
0000
0003
,
0000
0100
0100
0000
,
0000
0010
0010
0010
,
2000
0000
0000
3000
,
0000
1000
0001
0100
,
0020
0000
0000
0030
,
0100
0000
0000
0100
,
0001
0001
0001
0000
,
0001
0100
0010
1000
,
0002
0000
0000
0003
,
0100
0000
0100
0100
,
0020
0000
0000
0030
,
2002
0000
3003
0000
,
0000
0000
0100
0000
,
0010
0000
0010
0000
,
1000
0000
0001
0000
,
0010
0000
0000
0000
,
1000
0000
0001
0100
,
0001
0000
0010
0000
,
0100
1000
0100
1000
,
0001
0000
0000
0000
,
0000
0000
0100
0000
,
0010
0000
0010
0000
,
0001
0000
1000
0000
,
0010
0000
0000
0000
,
0001
0000
1000
0100
,
1000
0000
0010
0000
,
0100
0001
0100
0001
,
1000
0000
0000
0000
,
2000
0000
3000
0000
,
0200
0000
0300
0000
,
0020
0000
0030
0000
,
0200
0000
0300
0000
,
2000
0000
3000
0000
,
0002
0000
0003
0000
,
0200
0000
0300
0000
,
0020
0000
0030
0000
,
0200
0000
0300
0000
,
2002
0000
0000
0000
,
0000
0000
0000
3003
;

//---------------dance-single - ----------------
#NOTES:
     dance-single:
     :
     Medium:
     5:
     0.240,0.320,0.089,0.148,0.000,196.000,12.000,20.000,0.000,0.000:
0000
0000
0000
0000
,
0010
0000
0000
0020
0000
0000
0030
0000
,
0100
0000
0000
0200
0000
0000
0300
0000
,
1000
0000
0000
2000
0000
0000
3000
0000
,
0001
0000
0000
0002
0000
0000
0003
0000
,
0110
0000
0000
0220
0000
0000
0330
0000
,
1001
0000
0000
2002
0000
0000
3003
0000
,
0010
0100
0010
0100
0010
0000
0010
0000
,
0010
0000
1000
0100
,
1000
0010
0100
1001
,
0010
0010
0001
0001
,
0200
0010
0010
0310
,
0010
0000
1000
0001
,
0100
0001
0010
0000
,
1000
0100
0001
0100
,
0010
0000
1000
1000
,
1000
0000
0001
0100
,
0001
0010
0100
1001
,
0010
0010
1000
1000
,
0200
0010
0010
0310
,
0010
0000
0001
1000
,
0100
1000
0010
0000
,
0001
0100
1000
0100
,
0010
0000
0000
0000
,
0000
1000
0100
1000
0000
0000
0000
0000
,
0000
0001
0010
0001
0000
0000
0100
0000
,
0010
1000
1000
0000
,
0020
0000
0000
0130
,
0000
0001
0100
0001
0000
0000
0000
0000
,
0000
1000
0010
1000
0000
0000
0100
0000
,
0010
0000
0000
0000
,
0000
0000
1001
0000
0100
0010
0100
0010
,
0100
0000
0000
0001
0000
0000
0020
0000
,
0230
0000
0000
0000
0000
1300
0000
0000
,
0010
0000
0000
0100
0100
0000
0000
0000
,
1000
0010
0001
0100
,
0010
0000
0000
1000
0000
0000
0020
0000
,
0230
0000
0301
0001
,
2000
0000
0000
3000
,
0001
1000
0001
1000
0001
0000
0001
0000
,
0001
0000
1000
0010
,
1000
0010
0100
1001
,
0010
0010
1000
0000
,
0001
0000
0110
0000
1000
0100
1000
0000
,
1000
0000
0000
0001
0000
0000
0001
0000
,
0100
0010
0100
0000
,
1000
0100
0010
0001
,
0010
0000
0010
0100
,
1000
0000
0001
0010
,
0001
0010
0100
1001
,
0010
0010
0001
0000
,
1000
0000
0110
0000
0001
0100
0001
0000
,
0001
0000
0000
1000
0000
0000
0000
1000
,
0100
0010
0100
0000
,
0001
0100
0010
1000
,
0020
0000
0000
0030
,
1000
0000
0000
0001
0000
0000
0000
0000
,
0001
0000
0000
1000
0000
0000
0000
0000
,
0010
0000
0000
0001
0000
0000
0000
0000
,
0010
0000
0000
1000
0000
0000
0000
0000
,
0100
0000
0000
0001
0000
0000
0000
0000
,
0100
0000
0000
1000
0000
0000
0000
0000
,
0010
0000
0000
0100
0000
0000
0000
0000
,
0100
0000
0000
0010
0000
0000
0000
0000
,
0010
0000
0000
2000
0000
0000
3000
0000
,
0010
0000
0000
2002
0000
0000
0000
0000
,
0000
0000
0000
3003
;

//---------------dance-single - ----------------
#NOTES:
     dance-single:
     :
     Hard:
     7:
     0.337,0.345,0.052,0.184,0.136,288.000,7.000,25.000,0.000,0.000:
0000
0000
0000
0000
,
1000
0000
0000
0010
0000
0000
1000
0000
0000
0000
0000
0000
0000
0000
0000
0000
,
0001
0000
0000
0010
0000
0000
0001
0000
0000
0000
0000
0000
0000
0000
0000
0000
,
1000
0000
0000
0100
0000
0000
1000
0000
0000
0000
0000
0000
0000
0000
0000
0000
,
0001
0000
0000
0100
0000
0000
0001
0000
0000
0000
0000
0000
0000
0000
0000
0000
,
1000
0000
0000
0010
0000
0000
0100
0000
0000
0000
0000
0000
0000
0000
0000
0000
,
0001
0000
0000
0010
0000
0000
0100
0000
0000
0000
0000
0000
0000
0000
0000
0000
,
0100
1000
0010
1000
0001
0000
0100
0000
,
0010
0000
1001
0000
0010
1000
0001
0000
,
0010
0000
0001
0000
1000
0000
0000
0000
0100
0000
0000
0000
1000
0001
0000
0000
,
0001
1000
0100
0000
1000
0001
0100
0000
,
0010
0000
0000
0000
0010
0100
0000
0000
1000
0001
0000
0001
0100
0000
0000
0000
,
0100
0000
1001
0000
1000
0100
0010
0000
,
0001
0100
0010
0000
0200
0000
0300
0000
,
1000
0010
0001
0000
0001
0100
1000
0000
,
0020
0030
1000
0001
,
0100
0000
1001
0000
0100
0001
1000
0000
,
0100
0000
1000
0000
0001
0000
0000
0000
0010
0000
0000
0000
0001
1000
0000
0000
,
1000
0001
0010
0000
0001
1000
0010
0000
,
0100
0000
0000
0000
0100
0010
0000
0000
0001
1000
0000
1000
0100
0000
0000
0000
,
0100
0000
1001
0000
0001
0010
0100
0000
,
1000
0010
0100
0000
0200
0000
0300
0000
,
0010
1000
0100
0000
0010
0001
0100
0000
,
0020
0000
0000
0030
,
0000
0100
1000
1000
0010
0000
1001
0000
,
0000
1000
0100
0010
0001
0100
1000
0100
,
0020
0000
1000
1000
1000
0000
0030
0000
,
0001
1000
0100
2000
0000
0000
3100
0000
,
0000
0010
0001
0001
0100
0000
1001
0000
,
0000
0001
0100
0010
1000
0100
0001
0100
,
0020
0000
0000
0030
,
0000
0000
0000
0000
0001
0000
0000
0000
1000
0010
0000
0000
0100
0000
0100
0000
,
0020
0000
0000
1030
0000
0000
0100
0000
,
0010
0000
0000
0000
0000
0010
0020
0000
,
0002
0030
0000
1000
1003
0000
0000
0000
,
0001
0100
0000
0000
0100
0010
0000
0000
0010
1000
0000
0000
1000
0100
0000
0000
,
0200
0000
0000
1300
0000
0000
0010
0000
,
0100
0000
0000
0000
1000
0010
2000
0000
,
0002
0000
0000
3003
,
0010
0001
0100
0001
1000
0000
0100
0000
,
0010
0000
0000
1000
0010
0001
0010
0100
,
0010
0000
0001
0000
0010
0000
1000
0000
0010
0000
0000
0000
0001
0100
0000
0000
,
0010
1000
0100
0010
,
0001
0000
0000
0000
1000
0010
0000
0000
0100
0001
0000
0001
0100
0000
0100
0000
,
0100
0000
0000
0001
0100
0000
1000
0100
,
0010
1000
0010
0001
0100
0000
0000
0000
,
0100
0001
0010
1000
,
0100
0000
0001
0010
,
0100
0000
0000
0001
0100
1000
0100
0010
,
0100
0000
1000
0000
0100
0000
0001
0000
0100
0000
0000
0000
1000
0010
0000
0000
,
0100
0001
0010
0100
,
1000
0000
0000
0000
0001
0100
0000
0000
0010
1000
0000
1000
0010
0000
0010
0000
,
0010
0000
0000
1000
0100
0000
0001
0100
,
0010
0001
0010
1000
0100
0000
0000
0000
,
0100
1000
0010
0001
,
2000
0000
0000
3000
,
0010
0000
0000
0100
0000
0000
0002
0000
0000
0000
0000
0000
0003
0000
0000
0000
,
0010
0000
0000
0100
0000
0000
2000
0000
0000
0000
0000
0000
3000
0000
0000
0000
,
0001
0000
0000
0100
0000
0000
0020
0000
0000
0000
0000
0000
0030
0000
0000
0000
,
1000
0000
0000
0100
0000
0000
0020
0000
0000
0000
0000
0000
0030
0000
0000
0000
,
0001
0000
0000
0100
0000
0000
2000
0000
0000
0000
0000
0000
3000
0000
0000
0000
,
0100
0000
0000
0010
0000
0000
2000
0000
0000
0000
0000
0000
3000
0000
0000
0000
,
1000
0000
0000
0100
0000
0000
0002
0000
0000
0000
0000
0000
0003
0000
0000
0000
,
0100
0000
0000
0010
0000
0000
0002
0000
0000
0000
0000
0000
0003
0000
0000
0000
,
1000
0000
0000
0010
0000
0000
0200
0000
0000
0000
0000
0000
0300
0000
0000
0000
,
0001
0000
0000
0010
0000
0000
2200
0000
0000
0000
0000
0000
0000
0000
0000
0000
,
0000
0000
0000
3300
;

//---------------dance-single - ----------------
#NOTES:
     dance-single:
     :
     Challenge:
     8:
     0.421,0.425,0.030,0.052,0.151,389.000,4.000,7.000,0.000,0.000:
0000
0000
0000
0000
,
1000
0000
0000
0010
0000
0000
1000
0000
0000
0000
0000
0000
0000
0000
0000
0000
,
0001
0000
0000
0010
0000
0000
0001
0000
0000
0000
0000
0000
0000
0000
0000
0000
,
1000
0000
0000
0100
0000
0000
1000
0000
0000
0000
0000
0000
0000
0000
0000
0000
,
0001
0000
0000
0100
0000
0000
0001
0000
0000
0000
0000
0000
0000
0000
0000
0000
,
1000
0000
0000
0010
0000
0000
0100
0000
0000
0000
0000
0000
0000
0000
0000
0000
,
0001
0000
0000
0010
0000
0000
0100
0000
0000
0000
0000
0000
0000
0000
0000
0000
,
0100
1000
0010
1000
0001
0000
0100
0000
,
0100
0000
0000
0010
1000
0010
1000
0100
,
0010
0000
0001
0000
0010
0000
0001
0000
1000
0000
0000
0000
0010
0100
0000
0000
,
0001
0010
0100
1000
0010
0100
0010
0100
,
0001
0000
0000
0000
0001
1000
0000
0000
1000
0001
0000
0001
0100
0000
0100
0000
,
0100
0000
0000
0010
1000
0100
0001
0100
,
0010
0001
0100
0001
1000
0000
0010
0000
,
0100
0001
1000
0100
0010
0001
1000
0010
,
0100
0000
0001
0001
,
1000
0000
0000
0100
0010
0001
1000
0010
,
0100
0000
0010
0000
1000
0000
0100
0000
0010
0000
0000
0000
0001
0100
0000
0000
,
0010
1000
0001
0010
0100
1000
0001
0010
,
0100
0000
0000
0000
0100
1000
0000
0000
0001
0100
0000
0100
0001
0000
0001
0000
,
0001
0000
0000
1000
0010
0100
0010
1000
,
0001
0010
0100
0010
0001
0000
0100
0000
,
0010
0001
0010
1000
0100
0010
0100
0010
,
0002
0000
0000
0003
,
0000
1000
0100
1000
0100
0000
0010
0000
,
0000
0001
1000
0010
1000
0100
0010
0001
,
0010
0100
1000
0001
0010
0100
0001
0000
,
1000
0100
1000
0000
0010
0000
0010
0000
1000
0100
1000
0000
0001
0000
0000
0000
,
0000
0010
0100
0010
0100
0000
1000
0000
,
0000
0010
0100
0001
1000
0100
0001
0100
,
2000
0010
0001
3100
,
0100
0000
0000
0000
0010
0000
0000
0000
0001
0100
0001
0000
0100
0000
0100
0000
,
0020
0000
0000
1000
0000
0000
0130
0000
,
1000
0000
0011
0000
0001
0010
0100
1000
,
0001
0100
0010
0100
0001
0000
1000
0000
,
0001
0100
0000
0000
0100
0010
0000
0000
0010
1000
0000
0000
1000
0100
0000
0000
,
0020
0000
0000
0001
0000
0000
0130
0000
,
0001
0000
1010
0000
0001
0010
0100
1000
,
0010
0100
0010
0100
0001
0010
0100
1000
,
0010
0100
0010
0000
0100
0000
0010
0000
0100
0000
0000
0000
0100
0000
0000
0000
,
0010
0000
0000
1000
0010
0001
0010
0100
,
0010
0000
0001
0000
0010
0000
1000
0000
0010
0000
0000
0000
0001
0100
0000
0000
,
0010
1000
0100
0010
0001
0010
1000
0010
,
0001
0000
0000
0000
0100
0010
0000
0000
1000
0001
0000
0010
0001
0000
0001
0000
,
0001
0000
0000
0100
0010
1000
0100
0001
,
0100
1000
0010
0100
0001
0000
1100
0000
,
0010
0001
0010
0001
1000
0100
1000
0100
,
0010
0000
0001
0001
,
0100
0000
0000
0001
0100
1000
0100
0010
,
0100
0000
1000
0000
0100
0000
0001
0000
0100
0000
0000
0000
1000
0010
0000
0000
,
0100
0001
1000
0100
0010
0001
0100
1000
,
0100
0000
0000
0000
0010
1000
0000
0000
0100
0010
0000
0001
0100
0000
0100
0000
,
0100
0000
0000
0010
1000
0100
0010
0100
,
1000
0010
0001
0010
1000
0000
0110
0000
,
0001
0100
0001
0100
0010
1000
0100
0010
,
0200
0000
0000
0300
,
1000
0000
0000
0010
0000
0000
0100
0000
0001
0000
1000
0000
0100
0000
0000
0000
,
0010
0000
0000
0001
0000
0000
0100
0000
1000
0000
0100
0000
0001
0000
0000
0000
,
0010
0000
0000
0100
0000
0000
1000
0000
0010
0000
0100
0000
0001
0000
0000
0000
,
1000
0000
0000
0100
0000
0000
0010
0000
0001
0000
0010
0000
1000
0000
0000
0000
,
0001
0000
0000
0100
0000
0000
0010
0000
1000
0000
0100
0000
0010
0000
0000
0000
,
0001
0000
0000
0100
0000
0000
1000
0000
0100
0000
0010
0000
1000
0000
0000
0000
,
0100
0000
0000
0010
0000
0000
0001
0000
0100
0000
0010
0000
1000
0000
0000
0000
,
0100
0000
0000
0010
0000
0000
0001
0000
0100
0000
0010
0000
0100
0000
0000
0000
,
1000
0000
0000
0100
0000
0000
0001
0000
0010
0000
0100
0000
0010
0000
0000
0000
,
0001
0000
0000
0100
0000
0000
0010
0000
1000
0000
0100
0000
0001
0000
0000
0000
,
0200
0000
0000
0010
0000
0000
2000
0000
0000
0000
0000
0000
0000
0000
0000
0000
,
0000
0000
0000
3300
;
