#TITLE:Cold Pizza;
#SUBTITLE:;
#ARTIST:m1dy;
#TITLETRANSLIT:;
#SUBTITLETRANSLIT:;
#ARTISTTRANSLIT:;
#CREDIT:;
#BANNER:Cold Pizza-bn.png;
#BACKGROUND:Cold Pizza-bg.png;
#LYRICSPATH:;
#CDTITLE:!phenomegaTitle.png;
#MUSIC:Cold Pizza.mp3;
#OFFSET:-8.900;
#SAMPLESTART:64.387;
#SAMPLELENGTH:19.800;
#SELECTABLE:YES;
#BPMS:0.000=360.000,61.000=720.000,67.000=360.000,75.000=480.000,76.333=360.000,77.333=540.000,78.833=360.000,79.833=720.000,85.000=360.000,92.000=720.000,96.000=360.000,102.000=720.000,106.000=360.000,112.000=720.000,116.000=360.000,122.000=720.000,126.000=360.000,132.000=720.000,136.000=360.000,142.000=720.000,146.000=360.000,152.000=720.000,156.000=360.000,160.001=720.000,166.001=360.000,173.001=720.000,178.001=360.000,183.501=720.000,188.501=360.000,194.001=720.000,199.001=360.000,204.501=720.000,209.501=360.000,215.001=720.000,220.001=360.000,225.501=720.000,230.501=360.000,236.000=720.000,240.000=360.000,248.501=720.000,249.501=360.000,251.001=720.000,252.001=360.000,253.501=720.000,254.501=360.000,256.001=720.000,257.001=360.000,377.001=720.000,379.001=360.000,411.001=180.000,427.001=360.000,443.001=720.000,459.001=360.000,463.001=720.000,469.001=360.000,517.001=720.000,519.001=360.000,559.001=180.000,571.001=360.000,579.001=180.000,610.001=720.000,614.001=360.000,662.001=720.000,710.001=360.000,714.000=720.000,720.000=360.000,782.000=720.000,788.000=360.000,796.000=480.000,797.333=360.000,798.333=540.000,799.833=360.000,800.833=720.000,806.003=360.000;
#STOPS:84.000=0.069
,806.000=0.069
;
#BGCHANGES:;
// cache tags:
#FIRSTBEAT:0.000;
#LASTBEAT:807.000;
#SONGFILENAME:Songs/new again/Cold Pizza/Cold Pizza.sm;
#HASMUSIC:1;
#HASBANNER:1;
#MUSICLENGTH:139.998;
// end cache tags

//---------------dance-single - Copied from Copied f----------------
#NOTES:
     dance-single:
     Copied from Copied f:
     Hard:
     12:
     1.000,1.000,1.000,0.336,0.275,1057.000,182.000,47.000,0.000,0.000:
1000
0000
0001
1000
0010
0100
0001
0000
,
1000
0100
1000
0100
0010
0001
0010
0100
,
1000
0000
0001
0100
0001
0100
0010
0000
,
0010
0100
0010
0100
0001
1000
0010
0100
,
0010
0000
1000
0001
1000
0010
0100
0000
,
0010
1000
0001
0100
0001
1000
0001
0100
,
0010
0000
1000
0010
0100
0001
1000
0000
,
0001
0100
0010
0100
0001
1000
0100
0010
,
0001
0000
1000
0100
0010
0100
1000
0000
,
0001
0100
0010
0100
0001
1000
0010
0100
,
0010
0000
0100
0010
0100
0001
1000
0000
,
0010
1000
0001
0100
0001
1000
0001
0100
,
0010
0000
0010
1000
0001
0100
0010
0000
,
1000
0010
1000
0001
0100
0001
0100
0001
,
0100
0000
0010
1000
0010
0100
0001
0000
,
0001
0100
0001
0000
1000
0000
0001
0000
,
1000
0001
1000
0002
,
0000
0000
0000
0000
,
0000
0000
0000
0000
,
0000
0000
0000
0000
,
0000
0000
0000
0000
,
0000
0003
1100
0110
,
0101
1010
0110
1001
,
0101
0010
1000
0001
,
0110
0011
0110
1100
,
0101
1010
0101
0010
,
1000
0001
1100
0110
,
1001
0101
1010
0110
,
1001
0010
1000
0001
,
1010
0110
1100
0101
,
1010
0110
0101
0010
,
1000
0001
1010
0101
,
0110
1001
0011
1100
,
0101
0010
1000
0001
,
1010
0110
0011
1100
,
1010
0101
1001
0010
,
1000
0001
1100
0110
,
0011
0110
1100
0110
,
1001
0010
1000
0001
,
0020
0000
0000
0000
,
0000
0000
0000
0000
,
0000
0000
0000
0000
0030
0000
0001
0100
,
0001
0100
0010
1000
0010
1000
0100
0010
,
0001
1000
0020
0030
0200
0300
0002
0003
,
2000
3000
0020
0030
0100
0001
0100
0010
,
0100
0001
1000
0010
0100
0001
1000
0200
,
0300
0020
0030
0002
0003
2000
3000
0002
,
0003
0100
0010
0100
0010
1000
0001
0100
,
0010
0100
0001
1000
0020
0030
0200
0300
,
0020
0030
2000
3000
0002
0003
1000
0100
,
0010
0001
1000
0010
0100
0001
0100
0010
,
1000
0020
0030
2000
3000
0002
0003
0200
,
0300
0020
0030
1000
0001
0100
0010
1000
,
0010
0100
0001
1000
0010
0100
0020
0030
,
2000
3000
0002
0003
0200
0300
0020
0030
,
1000
0100
0010
0001
1000
0010
0100
0001
,
0010
0100
1000
0002
0003
0200
0300
0020
,
0030
2000
3000
0002
0003
0000
0000
1000
,
0001
0000
1000
0000
0000
0001
1000
0000
,
0001
1000
0001
1000
,
0001
0000
0000
1000
0001
0000
1000
0000
,
0000
0001
1000
0000
0001
0000
0000
0000
,
0001
0100
0010
0100
0001
1000
0010
0100
,
0010
1000
0001
0100
0010
0100
0001
1000
,
0010
0100
0010
1000
0011
0000
0001
1000
,
0001
0000
0011
0000
0001
1000
0001
0000
,
0011
0000
0001
0000
1001
0000
1000
0001
,
1000
0000
1001
0000
1000
0001
1000
0000
,
1001
0000
0001
0000
0101
0000
0010
1000
,
0010
0000
0101
0000
0010
1000
0010
0000
,
0101
0000
0010
0000
0011
0000
1000
0001
,
1000
0000
0011
0000
1000
0001
1000
0000
,
0011
0000
0001
0000
1001
0000
0001
1000
,
0001
0000
1001
0000
0001
1000
0001
0000
,
1001
0000
0001
0000
0101
0000
1000
0010
,
1000
0000
0101
0000
1000
0010
1000
0000
,
0101
0000
1000
0000
1010
0000
0100
0010
,
0100
0000
1010
0000
0100
0010
0100
0000
,
1010
0000
1000
0000
1100
0000
0001
1000
,
0001
0000
1100
0000
0001
1000
0001
0000
,
1100
0000
0010
0000
0010
1000
0010
1000
,
0010
1000
0001
0100
0001
0100
0001
0100
,
0010
1000
0010
1000
0001
1000
0001
1000
,
0001
1000
0010
0100
0010
0100
0010
0100
,
0001
1000
0001
0100
0001
1000
0001
1000
,
0001
1000
0010
0100
0010
0100
0010
0100
,
0001
0100
0001
0100
0010
1000
0010
1000
,
0010
1000
0001
0100
0001
0100
0001
0100
,
0010
0100
0001
0100
0010
1000
0010
1000
,
0010
1000
0010
0100
0010
0100
0010
0100
,
0001
0100
0001
0100
0010
1000
0010
1000
,
0010
1000
0001
0100
0001
0100
0001
0100
,
0010
0100
0010
0100
0001
1000
0001
1000
,
0001
0000
1000
0000
0010
0000
0100
0000
0010
0000
0100
0000
0002
0003
2000
3000
,
0002
0003
0000
0000
2000
0000
0000
0000
0000
0000
0000
0000
3001
0000
0100
0000
,
0001
0100
0010
0000
1000
0001
1000
0010
,
0100
0002
2000
3003
,
0000
0000
0000
0000
,
0000
0000
0000
0000
,
0000
0000
0000
0000
,
0000
0000
0000
0000
,
0000
0000
0000
0000
,
0000
0000
0000
1100
,
0110
0000
0000
0000
0000
0000
0001
1000
0010
0100
0001
1000
0010
0000
0000
0000
,
0001
1000
0100
0010
0001
0000
0000
0100
0010
1000
0010
0100
0011
0000
0000
0000
,
0101
0000
0000
0000
0000
0000
1000
0100
1000
0001
0100
0010
1000
0000
0000
0000
,
0001
0100
0010
0100
0001
0000
0000
0001
0100
0010
1000
0100
1001
0000
0000
0000
,
0000
1100
0000
0000
,
1000
0010
0100
0001
0100
0010
1000
0000
,
0000
0000
0001
0100
0010
0100
0010
0000
,
0000
0010
0100
0001
1000
0010
1100
0000
,
1001
0101
1010
0110
,
1001
0101
0110
1010
,
0101
1100
0011
0110
,
1001
1100
0110
1001
,
0000
0000
0000
2020
,
0000
0000
0000
0000
,
0000
0000
3030
0000
1000
0100
0000
0100
,
1000
0000
0001
1000
0000
1000
0001
0000
,
1010
0000
0101
0000
0010
0100
0000
0100
,
0010
0000
1000
0100
0000
0100
1000
0000
,
0011
0000
0110
0000
0010
1000
0000
1000
,
0010
0000
1000
0010
0000
0010
1000
0000
,
0011
0000
1100
0000
0010
1000
0000
1000
,
0010
0000
0100
0001
0000
0001
0100
0000
,
0110
0000
1100
0000
0001
1000
0000
1000
,
0001
0000
0100
1000
0000
1000
0100
0000
,
0011
0000
0110
0000
1000
0001
0000
0001
,
1000
0000
0000
0000
0001
0000
1000
0000
0000
0000
1000
0000
0002
0003
0020
0030
,
0002
0003
0000
0000
2000
0000
0000
0000
0000
0000
0000
0000
3100
0000
0000
0000
,
0000
0000
0000
0000
,
0000
0000
0000
0000
0000
0000
1000
0100
,
1000
0000
0001
0001
0000
0100
0100
0000
,
0010
0010
0000
1000
1000
0000
0001
0100
,
0001
0000
0100
0100
0000
0010
0010
0000
,
1000
1000
0000
0001
0001
0000
1000
0100
,
1000
0000
0010
0010
0000
0100
0100
0000
,
0001
0001
0000
1000
1000
0000
0010
1000
,
0010
0000
1000
1000
0000
0010
0010
0000
,
0100
0000
0100
0000
0000
0000
0001
0000
0001
0000
0000
0000
1000
0001
1000
0000
,
0100
0001
0000
0001
0100
0000
0100
0001
0000
0001
0100
0000
0010
1000
0010
0000
,
0100
1000
0000
1000
0100
0000
0100
1000
0000
1000
0100
0000
0010
1000
0010
0000
,
0100
0010
0000
0010
0100
0000
0100
0010
0000
0010
0100
0000
0000
0000
0000
0000
,
0000
0000
0000
0000
,
0000
0000
0000
0000
0000
0000
0000
0000
0000
0000
0000
0000
0001
0100
0001
0100
,
0010
1000
0010
1000
0100
0000
0100
0000
0100
0000
0000
0000
1000
0001
1000
0010
,
0100
0010
1000
0001
0100
0000
0100
0000
0100
0000
0000
0000
0001
1000
0001
0100
,
0010
1000
0001
0100
0010
0000
0010
0000
0010
0000
0000
0000
0001
0100
0010
0100
,
0001
1000
0010
1000
0010
0000
0010
0000
0010
0000
0000
0000
1000
0100
0010
0001
,
1000
0100
0010
0100
1000
0001
0100
0010
0100
0001
1000
0010
0100
0010
1000
0001
,
0100
0010
1000
0100
0010
0001
0010
0100
1000
0001
0100
0010
0100
0001
1000
0010
,
0100
0001
0100
0001
0100
0010
1000
0010
1000
0001
0100
0010
1000
0001
0100
0010
,
1000
0100
0010
0001
1000
0010
0100
0010
1000
0000
0001
0000
1000
0000
0001
0000
,
1000
0001
1000
0001
1100
0000
0010
0000
,
0011
0100
0011
0100
,
1010
0001
0110
0001
,
1100
0010
1001
0100
,
0011
0001
1100
0001
,
0101
1000
0110
1000
,
0110
0001
0101
0010
,
1010
0100
0101
0010
,
1001
0100
1100
0001
,
0101
0010
1010
0100
,
1100
0001
1001
0100
,
1001
0001
0101
0010
,
0101
1000
0011
1010
,
0101
1010
0110
0101
,
1010
0101
1010
1001
,
0110
1100
0011
1010
,
1100
0011
1010
0110
,
1001
0011
0110
1010
,
0101
1010
1100
0011
,
1010
0110
0011
1100
,
0110
1001
0101
0110
,
1001
1100
0011
0110
,
1001
1010
0101
0011
,
0110
1100
0110
1001
,
0101
0110
1100
0000
,
0000
0000
0220
0000
,
0000
0000
0000
0000
,
0330
0000
1000
0000
0001
1000
0010
0100
,
0001
0000
1000
0100
1000
0100
0010
0001
,
0010
0100
1000
0000
0001
0100
0001
0100
,
0010
0000
0010
0100
0010
0100
0001
1000
,
0010
0100
0010
0000
1000
0001
1000
0010
,
0100
0000
0010
1000
0001
0100
0001
1000
,
0001
0100
0010
0000
1000
0010
0100
0001
,
1000
0000
0001
0100
0010
0100
0001
1000
,
0100
0010
0001
0000
1000
0100
0010
0100
,
1000
0000
0001
0100
0010
0100
0001
1000
,
0010
0100
0010
0000
0100
0010
0100
0001
,
1000
0000
0010
1000
0001
0100
0001
1000
,
0001
0100
0010
0000
0010
1000
0001
0100
,
0010
0000
1000
0010
1000
0001
0100
0001
,
0100
0001
0100
0000
0010
1000
0010
0100
,
0001
0000
0001
0100
0001
0000
1000
0000
,
0001
1000
0001
1000
,
0002
0000
0000
0000
,
0000
0000
0000
0000
,
0000
0000
0000
0000
,
0000
0000
0000
0000
,
0000
0000
0003
0110
;
