#TITLE:Mishima Mecanica;
#SUBTITLE:;
#ARTIST:DJ Sharpnel;
#TITLETRANSLIT:;
#SUBTITLETRANSLIT:;
#ARTISTTRANSLIT:;
#CREDIT:;
#BANNER:mishima mecanica bn.png;
#BACKGROUND:mishima mecanica bg.png;
#LYRICSPATH:;
#CDTITLE:;
#MUSIC:Mishima Mecanica.ogg;
#OFFSET:-0.735;
#SAMPLESTART:224.056;
#SAMPLELENGTH:19.004;
#SELECTABLE:YES;
#BPMS:0.000=202.049;
#STOPS:;
#BGCHANGES:;
// cache tags:
#FIRSTBEAT:5.125;
#LASTBEAT:899.750;
#SONGFILENAME:Songs/SHARPNELSTREAMZ v2/Mishima Mecanica/Mishima Mecanica.sm;
#HASMUSIC:1;
#HASBANNER:1;
#MUSICLENGTH:269.417;
// end cache tags

//---------------dance-single - 16- (CTalon)----------------
#NOTES:
     dance-single:
     16- (CTalon):
     Challenge:
     16:
     1.000,1.000,0.245,0.297,1.000,2439.000,66.000,80.000,56.000,0.000:
0000
0000
0000
0000
,
0000
0000
0000
0000
0000
0000
0000
0000
0000
MMMM
0000
0000
0000
0000
0000
0000
0000
0000
0000
0000
0000
0000
0000
0000
0000
0000
0000
0000
0000
0000
0000
0000
,
0000
0000
0000
0000
0000
0000
0000
0000
0000
0000
0000
0000
0000
0000
0000
0000
0000
0000
0000
0000
0000
0000
0000
0000
0000
0000
0000
M000
0000
0000
0000
0000
,
0000
0MM0
0000
0000
,
0000
0000
0000
0000
0000
0000
0000
0000
0000
M000
0000
0000
0000
0000
0M00
0000
0000
0000
0000
00M0
0000
0000
0000
0000
000M
0000
0000
0000
0000
0000
0000
0000
0000
0000
0000
0000
0000
0000
0000
0000
0000
0000
0000
0000
0000
0000
0000
0000
,
0000
0000
0000
0000
,
0001
0000
1000
0000
0010
0000
0100
0001
1000
0100
1000
0001
0010
0000
0001
0000
,
1000
0000
0010
0000
1000
0000
0001
0010
0100
1000
0001
0100
0001
0000
0100
0000
,
0010
0000
1000
0000
0001
0000
0010
0001
1000
0001
0100
0010
1000
0000
0001
0000
,
0010
0000
0100
0000
1000
0000
0001
0100
0010
0100
0001
1000
0100
0000
0010
0000
,
0100
0000
1000
0000
0001
0000
0100
0010
0100
0001
1000
0100
0010
0000
0001
0000
,
0010
0000
0001
0000
1000
0000
0001
0100
0001
0100
0010
1000
0001
0000
0010
0000
,
0100
1000
0001
1000
0010
0100
0001
1000
0001
0010
0100
0010
0001
1000
0001
0100
,
0004
0000
0000
0000
,
1003
0000
0010
0000
0000
0000
0110
0000
0000
0000
0101
0000
0000
0001
0100
0010
,
1000
0000
1004
0000
1003
0100
0010
0100
,
1000
0000
0001
0000
0100
0000
0010
1000
0001
0000
1000
0100
0010
0000
0001
0000
,
1000
0000
0010
0000
0100
0000
0001
0010
0100
0000
0010
0001
1000
0000
0001
0000
,
0100
0000
0010
0000
0100
0000
0001
1000
0100
0000
0010
0100
1000
0000
0001
0000
,
1000
0000
0010
0000
1000
0000
0001
0100
0001
0000
0100
0010
1000
0000
0100
0000
,
0010
0000
0001
0000
1000
0000
0001
0100
0001
0000
0010
0100
1000
0000
0001
0000
,
0100
0000
0010
0000
1000
0000
0001
0010
0100
0000
0010
0001
1000
0000
0001
0000
,
0100
0000
0010
0000
1000
0000
0100
0010
0001
0000
1000
0010
1000
0000
0001
0000
,
0100
0000
0010
1000
0001
0000
0010
0000
0100
1000
0001
0100
0001
0000
0010
0000
,
0100
0000
1000
0000
0001
0000
1000
0100
0010
0000
0100
1000
0001
0000
0100
0000
,
0010
0000
1000
0000
0001
0000
0010
0100
0010
0000
0001
1000
0010
0000
1000
0000
,
0001
0000
1000
0000
0010
0000
0100
0001
1000
0000
0001
0010
0100
0000
0010
0000
,
0001
0000
1000
0000
0001
0000
0100
0010
0100
0000
0001
0010
0100
0000
0010
0000
,
0001
0000
1000
0000
0010
0000
0100
0001
0100
0000
0010
1000
0001
0000
1000
0000
,
0100
0000
0010
0000
0100
0000
1000
0001
1000
0000
0010
0100
0001
0000
1000
0000
,
0100
0000
0010
0000
0001
0000
0100
0010
1000
0000
0001
0010
0100
0000
0010
0000
,
0001
0000
1000
0100
1000
0000
0010
0000
0100
0001
0100
0010
1000
0000
0001
0000
,
0010
0000
0001
0000
1000
0000
0010
0100
0001
0100
0010
1000
0001
0000
1000
0000
,
0100
0000
0010
0000
0001
0000
0010
0100
1000
0001
1000
0010
0100
0000
0010
0000
,
1000
0000
0001
0000
0010
0000
0001
0010
0100
1000
0001
0100
0001
0000
0100
0000
,
0010
0000
1000
0000
0001
0000
1000
0010
1000
0001
0100
0001
0010
0000
0100
0000
,
1000
0000
0001
0000
0100
0000
0010
1000
0001
0010
0100
1000
0100
0000
1000
0000
,
0001
0000
0100
0000
0010
0000
0100
0001
1000
0001
0010
0100
1000
0000
0010
0000
,
0100
0000
0010
0000
1000
0000
0001
1000
0001
0100
0010
1000
0001
0000
0010
0000
,
0100
0000
1000
0001
0100
0000
0001
0000
0010
0100
1000
0001
0100
0000
0001
0000
,
1000
0000
0100
0000
1000
0000
0001
0100
0010
0100
0001
1000
0100
0000
1000
0000
,
0010
0000
0100
0000
0001
0000
1000
0100
0010
0100
1000
0001
1000
0000
0010
0000
,
0100
0000
0010
0000
1000
0000
0001
0010
0001
1000
0010
1000
0010
0000
0100
0000
,
0001
0000
0010
0000
0100
0000
1000
0100
0010
0001
0100
0001
0100
0000
0010
0000
,
1000
0000
0100
0000
1000
0000
0001
0100
0001
0100
0010
1000
0001
0000
0010
0000
,
0100
0000
0010
0000
0001
0000
1000
0010
0100
0001
1000
0100
0010
0000
0001
0000
,
1000
0010
0100
0001
1000
0001
0010
0100
1000
0001
0100
0010
1000
0001
1000
0100
,
0040
0000
0000
0000
,
0031
1010
0101
1010
,
0110
1001
1100
0011
,
1001
0110
1001
1100
,
0101
0011
1001
1100
,
0101
0101
0000
1000
1000
0010
0100
0001
,
1100
1100
0000
0001
0001
0010
0100
1000
,
1001
1001
0000
0001
0001
0100
0010
0100
,
0004
0000
0000
0000
,
1003
0100
0010
0001
1000
0001
1000
0010
0100
0001
0010
0100
1000
0001
0100
0001
,
1000
0010
1000
0001
1000
0100
1000
0010
0100
0001
1000
0100
0010
0001
1000
0001
,
0100
0010
1000
0001
1000
0100
0010
0001
1000
0001
0100
0010
0100
0001
1000
0001
,
1000
0010
1000
0001
0010
0001
1000
0010
0100
0001
1000
0100
1000
0001
0100
0001
,
1000
0001
1000
0100
1000
0010
0100
0001
0100
0001
1000
0001
1000
0100
0010
0100
,
1000
0001
1000
0010
0100
0001
0100
0001
1000
0100
0010
0100
1000
0001
1000
0001
,
0010
0100
1000
0001
0100
0010
1000
0001
0010
0100
1000
0010
0100
0001
0010
0100
,
1000
0000
0001
0100
0010
0000
1000
0000
0001
0010
0100
1000
0010
0000
0100
0000
,
0001
0010
0100
1000
0001
1000
0001
0100
0010
1000
0100
0010
0001
1000
0010
1000
,
0001
0100
0001
1000
0001
0010
0001
0100
0010
1000
0001
0010
0100
1000
0001
1000
,
0010
0100
0001
1000
0001
0010
0100
1000
0001
1000
0010
0100
0010
1000
0001
1000
,
0001
0100
0001
1000
0100
1000
0001
0100
0010
1000
0001
0010
0001
1000
0010
1000
,
0001
1000
0001
0010
0001
0100
0010
1000
0010
1000
0001
1000
0001
0010
0100
0010
,
0001
1000
0001
0100
0010
1000
0010
1000
0001
0010
0100
0010
0001
1000
0001
1000
,
0100
0010
0001
1000
0010
0100
0001
1000
0100
0010
0001
0100
0010
1000
0100
0010
,
0001
0000
1000
0010
0100
0000
0001
0000
1000
0100
0010
0001
0100
0000
0010
0000
,
1000
0010
0100
0001
1000
0001
1000
0100
0010
0001
0100
0010
1000
0001
0010
0001
,
1000
0100
1000
0001
1000
0010
1000
0100
0010
0001
1000
0010
0100
0001
1000
0001
,
0010
0100
1000
0001
1000
0010
0100
0001
1000
0001
0010
0100
0010
0001
1000
0001
,
1000
0100
1000
0001
0100
0001
1000
0100
0010
0001
1000
0010
1000
0001
0010
0001
,
1000
0001
1000
0010
1000
0100
0010
0001
0010
0001
1000
0001
1000
0010
0100
0010
,
1000
0001
1000
0100
0010
0001
0010
0001
1000
0010
0100
0010
1000
0001
1000
0001
,
0100
0010
1000
0001
0010
0100
1000
0001
0100
0010
1000
0100
0010
0001
0100
0010
,
1000
0000
0001
0010
0100
0000
1000
0000
0001
0100
0010
1000
0100
0000
0010
0000
,
0001
0100
0010
1000
0001
1000
0001
0010
0100
1000
0010
0100
0001
1000
0100
1000
,
0001
0010
0001
1000
0001
0100
0001
0010
0100
1000
0001
0100
0010
1000
0001
1000
,
0100
0010
0001
1000
0001
0100
0010
1000
0001
1000
0100
0010
0100
1000
0001
1000
,
0001
0010
0001
1000
0010
1000
0001
0010
0100
1000
0001
0100
0001
1000
0100
1000
,
0001
1000
0001
0100
0001
0010
0100
1000
0100
1000
0001
1000
0001
0100
0010
0100
,
0001
1000
0001
0010
0100
1000
0100
1000
0001
0100
0010
0100
0001
1000
0001
1000
,
0010
0100
0001
1000
0100
0010
0001
1000
0010
0100
0001
0010
0100
1000
0010
0100
,
0004
0000
0000
0000
,
1003
0000
0000
0000
,
0000
0000
0000
0000
0000
0000
0000
0000
0000
0000
0000
0000
0000
0M00
0000
0M00
0000
0M00
0000
0M00
0000
0M00
0000
0M00
0000
0M00
0000
0M00
0000
0M00
0000
0M00
,
1001
0001
0010
0001
0001
1000
0010
0100
,
0101
0101
0001
1000
1000
0010
0100
0001
,
1001
1000
0100
0010
0010
0001
1000
0010
,
1010
0000
0000
0000
0000
0000
0000
0000
1000
0000
0000
0000
0001
0000
0000
0000
1000
0000
0000
0000
0000
0000
0000
0000
0001
0000
0000
0000
0100
0000
0000
0000
0001
0000
0000
0000
0000
0000
0000
0000
1000
0000
0000
0000
0000
0000
0000
0000
0040
0000
0000
0000
0000
0000
0000
0000
0000
0000
0000
0000
0000
0000
0000
0030
,
1001
1000
0010
0100
0100
0001
1000
0010
,
1010
1010
1000
0001
0001
0010
0100
1000
,
1001
0001
0100
0010
0010
1000
0001
0010
,
0110
0000
0110
0000
0100
0000
1000
0000
0001
0100
0001
0010
0001
0000
1000
0000
,
0001
0010
0100
1000
0001
0010
0100
1000
0001
0100
0010
1000
0010
0100
0001
0010
,
0001
0010
0100
1000
0001
0010
0100
1000
0001
0100
0010
1000
0010
0100
0001
0010
,
0001
0010
0100
1000
0001
0010
0100
1000
0001
0100
0010
1000
0010
0100
0001
0010
,
0001
0000
1000
0010
0100
0000
0001
1000
0100
0000
0010
0000
0004
0000
0000
0000
,
1003
0010
0100
0001
1000
0010
0100
0001
1000
0100
0010
0001
0010
0100
1000
0010
,
1000
0010
0100
0001
1000
0010
0100
0001
1000
0100
0010
0001
0010
0100
1000
0010
,
1000
0010
0100
0001
1000
0010
0100
0001
1000
0100
0010
0001
0010
0100
1000
0010
,
0100
0000
0100
0000
0001
0000
0010
0000
0100
1000
0100
1000
0001
0000
0100
0000
,
0001
0010
0100
1000
0001
0010
0100
1000
0001
0100
0010
1000
0010
0100
0001
0010
,
0001
0010
0100
1000
0001
0010
0100
1000
0001
0100
0010
1000
0010
0100
0001
0010
,
0001
0010
0100
1000
0001
0010
0100
1000
0001
0100
0010
1000
0010
0100
0001
0010
,
0001
0000
1000
0010
0100
0000
0001
1000
0100
0000
0010
0000
0004
0000
0000
0000
,
1003
0010
0100
0001
1000
0010
0100
0001
1000
0100
0010
0001
0010
0100
1000
0010
,
1000
0010
0100
0001
1000
0010
0100
0001
1000
0100
0010
0001
0010
0100
1000
0010
,
1000
0010
0100
0001
1000
0010
0100
0001
1000
0100
0010
0001
0010
0100
1000
0010
,
0100
0000
0100
0000
0001
0000
0010
0000
0100
1000
0100
1000
0001
0000
0100
0000
,
0001
0010
0100
1000
0001
0010
0100
1000
0001
0100
0010
1000
0010
0100
0001
0010
,
0001
0010
0100
1000
0001
0010
0100
1000
0001
0100
0010
1000
0010
0100
0001
0010
,
0001
0010
0100
1000
0001
0010
0100
1000
0001
0100
0010
1000
0010
0100
0001
0010
,
0001
0000
1000
0010
0100
0000
0001
1000
0100
0000
0010
0000
0004
0000
0000
0000
,
1003
0010
0100
0001
1000
0100
1000
0010
,
0100
0001
0010
0100
1000
0001
0100
0010
,
1000
0001
1000
0001
0010
0100
1000
0001
1000
0001
0100
0010
1000
0010
0100
0001
,
4000
0000
0000
0000
,
3200
0300
0200
0300
0020
0230
0300
0020
,
0032
0003
0002
0003
2000
3020
0030
0200
,
0320
0030
0020
0030
2000
3200
0300
2000
,
3002
0003
0002
0003
0200
0320
0030
2000
,
3200
0300
0200
0300
0020
0032
0003
2000
,
3020
0030
0020
0030
0200
0302
0003
0020
,
0230
0300
0200
0300
2000
3002
0003
0020
,
0032
0003
0002
0003
0020
0230
0300
2000
,
3020
0030
0020
0030
0200
0302
0003
0020
,
0230
0300
0200
0300
2000
3002
0003
0200
,
0320
0030
0020
0030
2000
3200
0300
2000
,
3002
0003
0002
0003
0020
0230
0300
0020
,
0230
0300
0200
0300
2000
3002
0003
2000
,
3020
0030
0020
0030
0200
0302
0003
0020
,
0230
0300
0200
0300
2000
3002
0003
2000
,
3020
0030
0020
0030
0200
0302
0003
0200
,
0301
0000
1001
0000
,
0000
0000
1100
0000
,
0000
0000
0101
0000
,
0000
0000
1001
0000
,
0000
0000
1010
0000
,
0000
0000
0110
0000
,
0000
0000
1001
0000
,
0000
0000
1010
0000
,
0001
0000
1001
0000
0000
0100
0110
0000
,
0001
1000
1010
0010
0000
1000
1001
0000
,
0010
0000
1001
0000
0000
0001
0011
0000
,
1000
0000
0001
0000
1010
0000
1000
0010
0100
0000
0001
0000
4001
0000
0000
0000
,
3010
0000
0110
0000
0000
0100
0101
0000
,
1000
0001
1001
1000
0000
0010
1010
1000
,
0001
0100
0001
1000
0100
0010
0001
1000
0001
0100
0010
0100
0001
1000
0001
1000
,
0400
0000
0000
0000
,
0310
0000
0000
0000
,
0001
1000
0010
1000
0001
0010
0400
0000
,
1300
0001
1000
0001
0010
0100
1000
0001
0100
0010
0100
0001
1000
0100
0010
0100
,
1000
0001
1000
0010
0100
0001
1000
0100
0010
0100
1000
0100
0010
0001
1000
0010
,
0100
0010
1000
0001
0010
0001
1000
0100
0010
0100
1000
0001
0100
0001
0100
0010
,
1000
0001
0010
0100
1000
0100
0010
0100
1000
0001
0100
0010
1000
0010
0100
0010
,
1000
0001
0010
0100
1000
0001
0010
0100
0010
0001
1000
0010
1000
0010
0100
0001
,
1000
0100
1000
0001
1000
0010
0100
0010
1000
0001
0010
0100
1000
0001
1000
0001
,
0100
0010
1000
0001
1000
0100
0010
0100
1000
0100
0010
0001
1000
0010
0100
0001
,
1000
0000
0100
0010
0001
0000
1000
0000
0010
0100
0010
0100
0001
0000
0010
0000
,
0001
1000
0001
1000
0100
0010
0001
1000
0010
0100
0010
1000
0001
0010
0100
0010
,
0001
1000
0001
0100
0010
1000
0001
0010
0100
0010
0001
0010
0100
1000
0001
0100
,
0010
0100
0001
1000
0100
1000
0001
0010
0100
0010
0001
1000
0010
1000
0010
0100
,
0001
1000
0100
0010
0001
0010
0100
0010
0001
1000
0010
0100
0001
0100
0010
0100
,
0001
1000
0100
0010
0001
1000
0100
0010
0100
1000
0001
0100
0001
0100
0010
1000
,
0001
0010
0001
1000
0001
0100
0010
0100
0001
1000
0100
0010
0001
1000
0001
1000
,
0010
0100
0001
1000
0001
0010
0100
0010
0001
0010
0100
1000
0001
0100
0010
1000
,
0001
0000
0010
0100
1000
0000
0001
0000
0100
0010
0100
0010
1000
0000
0100
0000
,
1000
0001
1000
0001
0100
0010
1000
0001
0010
0100
0010
0001
1000
0010
0100
0010
,
1000
0001
1000
0100
0010
0001
1000
0010
0100
0010
1000
0010
0100
0001
1000
0100
,
0010
0100
1000
0001
0100
0001
1000
0010
0100
0010
1000
0001
0010
0001
0010
0100
,
1000
0001
0100
0010
1000
0010
0100
0010
1000
0001
0010
0100
1000
0100
0010
0100
,
1000
0001
0100
0010
1000
0001
0100
0010
0100
0001
1000
0100
1000
0100
0010
0001
,
1000
0010
1000
0001
1000
0100
0010
0100
1000
0001
0100
0010
1000
0001
1000
0001
,
0010
0100
1000
0001
1000
0010
0100
0010
1000
0010
0100
0001
1000
0100
0010
0001
,
1000
0000
0010
0100
0001
0000
1000
0000
0100
0010
0100
0010
0001
0000
0100
0000
,
0001
1000
0001
1000
0010
0100
0001
1000
0100
0010
0100
1000
0001
0100
0010
0100
,
0001
1000
0001
0010
0100
1000
0001
0100
0010
0100
0001
0100
0010
1000
0001
0010
,
0100
0010
0001
1000
0010
1000
0001
0100
0010
0100
0001
1000
0100
1000
0100
0010
,
0001
1000
0010
0100
0001
0100
0010
0100
0001
1000
0100
0010
0001
0010
0100
0010
,
0001
1000
0010
0100
0001
1000
0010
0100
0010
1000
0001
0010
0001
0010
0100
1000
,
0001
0100
0001
1000
0001
0010
0100
0010
0001
1000
0010
0100
0001
1000
0001
1000
,
0100
0010
0001
1000
0001
0010
0001
0100
,
0001
0000
0100
0010
1000
0000
0001
0000
0010
0100
0010
0100
1000
0000
0010
0000
,
1000
0100
0010
0001
1000
0001
1000
0010
0100
0001
0010
0100
1000
0001
0100
0001
,
1000
0010
1000
0001
1000
0100
1000
0010
0100
0001
1000
0100
0010
0001
1000
0001
,
0100
0010
1000
0001
1000
0100
0010
0001
1000
0001
0100
0010
0100
0001
1000
0001
,
1000
0010
1000
0001
0010
0001
1000
0010
0100
0001
1000
0100
1000
0001
0100
0001
,
1000
0001
1000
0100
1000
0010
0100
0001
0100
0001
1000
0001
1000
0100
0010
0100
,
1000
0001
1000
0010
0100
0001
0100
0001
1000
0100
0010
0100
1000
0001
1000
0001
,
0010
0100
1000
0001
0100
0010
1000
0001
0010
0100
1000
0010
0100
0001
0010
0100
,
1000
0000
0001
0100
0010
0000
1000
0000
0001
0010
0100
1000
0010
0000
0100
0000
,
0001
0010
0100
1000
0001
1000
0001
0100
0010
1000
0100
0010
0001
1000
0010
1000
,
0001
0100
0001
1000
0001
0010
0001
0100
0010
1000
0001
0010
0100
1000
0001
1000
,
0010
0100
0001
1000
0001
0010
0100
1000
0001
1000
0010
0100
0010
1000
0001
1000
,
0001
0100
0001
1000
0100
1000
0001
0100
0010
1000
0001
0010
0001
1000
0010
1000
,
0001
1000
0001
0010
0001
0100
0010
1000
0010
1000
0001
1000
0001
0010
0100
0010
,
0001
1000
0001
0100
0010
1000
0010
1000
0001
0010
0100
0010
0001
1000
0001
1000
,
0100
0010
0001
1000
0010
0100
0001
1000
0100
0010
0001
0100
0010
1000
0100
0010
,
0001
0000
1000
0010
0100
0000
0001
0000
1000
0100
0010
0001
0100
0000
0010
0000
,
1000
0010
0100
0001
1000
0001
1000
0100
0010
0001
0100
0010
1000
0001
0010
0001
,
1000
0100
1000
0001
1000
0010
1000
0100
0010
0001
1000
0010
0100
0001
1000
0001
,
0010
0100
1000
0001
1000
0010
0100
0001
1000
0001
0010
0100
0010
0001
1000
0001
,
1000
0100
1000
0001
0100
0001
1000
0100
0010
0001
1000
0010
1000
0001
0010
0001
,
1000
0001
1000
0010
1000
0100
0010
0001
0010
0001
1000
0001
1000
0010
0100
0010
,
1000
0001
1000
0100
0010
0001
0010
0001
1000
0010
0100
0010
1000
0001
1000
0001
,
0100
0010
1000
0001
0010
0100
1000
0001
0100
0010
1000
0100
0010
0001
0100
0010
,
1000
0000
0001
0010
0100
0000
1000
0000
0001
0100
0010
1000
0100
0000
0010
0000
,
0001
0100
0010
1000
0001
1000
0001
0010
0100
1000
0010
0100
0001
1000
0100
1000
,
0001
0010
0001
1000
0001
0100
0001
0010
0100
1000
0001
0100
0010
1000
0001
1000
,
0100
0010
0001
1000
0001
0100
0010
1000
0001
1000
0100
0010
0100
1000
0001
1000
,
0001
0010
0001
1000
0010
1000
0001
0010
0100
1000
0001
0100
0001
1000
0100
1000
,
0001
1000
0001
0100
0001
0010
0100
1000
0100
1000
0001
1000
0001
0100
0010
0100
,
0001
1000
0001
0010
0100
1000
0100
1000
0001
0100
0010
0100
0001
1000
0001
1000
,
0010
0100
0001
1000
0100
0010
0001
1000
0010
0100
0001
0010
0100
1000
0010
0100
,
0004
0000
0000
0000
,
1003
0000
0000
0000
,
0000
0000
0000
0000
0000
0000
0000
0000
0000
0000
0000
0000
0000
0000
0000
0000
MM00
00M0
00M0
00M0
00M0
00M0
00M0
00M0
00M0
000M
000M
000M
000M
000M
000M
000M
000M
M000
M000
M000
M0M0
M000
M000
M000
M000
0000
0000
0000
0000
0000
0000
0000
0000
0000
0000
0000
0000
0000
0000
0000
0000
0000
0000
0000
00M0
0000
0000
0000
,
0000
0000
0000
0000
0000
0000
0000
0000
0000
0000
0000
0000
0000
0000
0000
0000
0000
0000
0000
0000
0000
00M0
0000
0000
0000
0000
0000
0000
0000
0000
00M0
0000
,
0000
0000
0000
0000
0000
0000
0000
0000
0000
0000
00M0
0000
0000
0000
0000
0000
0000
00M0
0000
0000
0000
0000
0000
0000
0000
0000
0000
0000
0000
0000
0000
0000
,
0000
00M0
0000
0000
0000
0000
0000
0000
0000
0000
0000
0000
0000
0000
0000
0000
0000
0000
0000
0000
0000
0000
00M0
0000
0000
0000
0000
0000
0000
0000
00M0
0000
;
